osu file format v14

[General]
AudioFilename: audio.mp3
AudioLeadIn: 0
PreviewTime: 763
Countdown: 0
SampleSet: Soft
StackLeniency: 0.7
Mode: 0
LetterboxInBreaks: 0
EpilepsyWarning: 1
WidescreenStoryboard: 1

[Editor]
Bookmarks: 89021,104633,106164,108536,118409,138000,149939,157669,160960
DistanceSpacing: 1.3
BeatDivisor: 3
GridSize: 4
TimelineZoom: 2.2

[Metadata]
Title:Burn It Down
TitleUnicode:Burn It Down
Artist:Daughter
ArtistUnicode:Daughter
Creator:sheela
Version:Insane
Source:Life Is Strange: Before the Storm
Tags:alternative soundtrack
BeatmapID:1384851
BeatmapSetID:652300

[Difficulty]
HPDrainRate:7
CircleSize:4.3
OverallDifficulty:7
ApproachRate:9
SliderMultiplier:0.65
SliderTickRate:0.5

[Events]
//Background and Video events
0,0,"bg.jpg",0,0
//Break Periods
2,64436,68122
//Storyboard Layer 0 (Background)
//Storyboard Layer 1 (Fail)
//Storyboard Layer 2 (Pass)
//Storyboard Layer 3 (Foreground)
//Storyboard Sound Samples

[TimingPoints]
763,306.122448979592,4,2,0,5,1,0
20354,-200,4,2,1,20,0,0
22497,-200,4,2,1,5,0,0
22803,-200,4,2,1,20,0,0
24946,-200,4,2,1,5,0,0
25252,-200,4,2,1,20,0,0
27395,-200,4,2,1,5,0,0
27701,-200,4,2,1,20,0,0
29844,-200,4,2,1,5,0,0
30150,-200,4,2,1,20,0,0
32293,-200,4,2,1,5,0,0
32599,-200,4,2,1,20,0,0
34742,-200,4,2,1,5,0,0
35048,-200,4,2,1,20,0,0
37191,-200,4,2,1,5,0,0
37497,-200,4,2,1,20,0,0
39334,-200,4,2,1,5,0,0
39793,-133.333333333333,4,2,30,20,0,0
47446,-133.333333333333,4,2,2,20,0,0
47752,-133.333333333333,4,2,2,5,0,0
47905,-133.333333333333,4,2,2,20,0,0
48058,-133.333333333333,4,2,2,5,0,0
48211,-133.333333333333,4,2,2,20,0,0
48365,-133.333333333333,4,2,2,5,0,0
48824,-133.333333333333,4,2,2,20,0,0
48977,-133.333333333333,4,2,2,5,0,0
49130,-133.333333333333,4,2,2,20,0,0
49283,-133.333333333333,4,2,2,5,0,0
49436,-133.333333333333,4,2,2,20,0,0
49589,-133.333333333333,4,2,2,5,0,0
49742,-133.333333333333,4,2,30,20,0,0
68722,-54.054054054054,4,2,2,70,0,0
78365,-54.054054054054,4,2,0,40,0,0
79130,-54.054054054054,4,2,2,70,0,0
88926,-66.6666666666667,4,2,2,40,0,0
91375,-54.054054054054,4,2,2,70,0,0
107293,-50,4,3,0,55,0,0
107905,-50,4,2,2,55,0,0
108518,-100,4,2,2,40,0,0
114028,-100,4,2,2,70,0,0
114181,-100,4,2,2,40,0,0
115252,-100,4,2,2,70,0,0
115329,-100,4,2,2,40,0,0
118314,-54.054054054054,4,2,2,70,0,0
125584,-54.054054054054,4,2,2,5,0,0
125660,-54.054054054054,4,2,2,70,0,0
125890,-54.054054054054,4,2,2,5,0,0
125967,-54.054054054054,4,2,2,70,0,0
126196,-54.054054054054,4,2,2,5,0,0
126273,-54.054054054054,4,2,2,70,0,0
126502,-54.054054054054,4,2,2,5,0,0
126579,-54.054054054054,4,2,2,70,0,0
137446,-54.054054054054,4,2,2,40,0,0
137599,-54.054054054054,4,2,2,90,0,0
137905,-50,4,2,2,80,0,1
157191,-50,4,2,2,90,0,1
157344,-50,4,2,2,100,0,1
157497,-50,4,2,2,80,0,1
166069,-50,4,2,2,80,0,1
167293,-100,4,2,0,50,0,0
174640,-66.6666666666667,4,2,0,50,0,0
175865,-80,4,2,0,50,0,0
177089,-80,4,2,0,30,0,0
375507,-200,4,2,0,50,0,0

[Colours]
Combo1 : 59,59,59
Combo2 : 157,255,214
Combo3 : 125,70,106
Combo4 : 128,197,118

[HitObjects]
256,192,763,12,0,4436,0:0:0:0:
256,192,5660,12,0,9333,0:0:0:0:
256,192,10559,12,0,14232,0:0:0:0:
256,192,15456,12,0,19129,0:0:0:0:
212,216,20354,6,0,B|273:209|273:209|303:206|303:206|312:217|325:232|325:232|296:237|284:248|284:248|266:247|245:286|245:286,1,227.5,0|0,0:0|0:0,0:0:0:0:
145,338,22803,2,0,B|131:318|125:281|125:281|104:298|85:302|85:302|63:290|58:269|58:269|64:258|65:190,1,227.5,0|0,0:0|0:0,0:0:0:0:
116,95,25252,6,0,B|143:124|155:132|155:132|146:150|148:174|148:174|168:159|200:152|200:152|233:179|234:216,1,227.5,0|0,0:0|0:0,0:0:0:0:
340,257,27701,2,0,B|344:220|342:209|342:209|354:250|399:275|399:275|363:289|346:314|346:340,1,227.5,0|0,0:0|0:0,0:0:0:0:
471,307,30150,6,0,B|472:286|474:246|474:246|463:239|463:239|462:205|468:170|468:170|477:157|477:157|463:91,1,227.5,0|0,0:0|0:0,0:0:0:0:
361,136,32599,2,0,B|319:141|293:122|293:122|280:85|262:63|262:63|272:32|250:3|250:3|221:-2,1,227.5,0|0,0:0|0:0,0:0:0:0:
152,88,35048,6,0,B|129:109|126:134|126:134|144:156|143:188|143:188|184:170|228:196|227:242,1,227.5,0|0,0:0|0:0,0:0:0:0:
152,295,37497,2,0,B|168:338|204:351|242:352|270:338|270:338|282:321|295:310|306:307|306:307|314:299,1,195,0|0,0:0|0:0,0:0:0:0:
438,227,39793,1,0,0:0:0:0:
438,227,39946,6,0,L|445:153,1,73.1250027894975,0|0,0:0|0:0,0:0:0:0:
375,112,40558,2,0,L|382:38,1,73.1250027894975,0|0,0:0|0:0,0:0:0:0:
291,15,41171,1,0,0:0:0:0:
291,15,41324,2,0,L|284:87,1,73.1250027894975,0|0,0:0|0:0,0:0:0:0:
262,199,42089,1,0,0:0:0:0:
262,199,42242,1,0,0:0:0:0:
262,199,42395,6,0,L|177:190,1,73.1250027894975,0|0,0:0|0:0,0:0:0:0:
137,250,43007,2,0,L|52:241,1,73.1250027894975,0|0,0:0|0:0,0:0:0:0:
17,170,43620,1,0,0:0:0:0:
17,170,43773,2,0,L|103:165,1,73.1250027894975,0|0,0:0|0:0,0:0:0:0:
193,89,44538,1,0,0:0:0:0:
193,89,44691,1,0,0:0:0:0:
193,89,44844,6,0,L|186:182,1,73.1250027894975,0|0,0:0|0:0,0:0:0:0:
224,233,45456,2,0,L|217:326,1,73.1250027894975,0|0,0:0|0:0,0:0:0:0:
273,359,46069,1,0,0:0:0:0:
273,359,46222,2,0,L|357:353,1,73.1250027894975,0|0,0:0|0:0,0:0:0:0:
460,348,46987,1,0,0:0:0:0:
460,348,47140,1,0,0:0:0:0:
460,348,47293,1,0,0:0:0:0:
387,251,47599,6,0,L|391:209,1,24.3750009298325,0|2,0:0|0:0,0:0:0:0:
332,165,47905,2,0,L|336:123,1,24.3750009298325,2|0,0:0|0:0,0:0:0:0:
270,81,48211,1,0,0:0:0:0:
121,150,48824,6,0,L|125:192,1,24.3750009298325
66,236,49130,2,0,L|70:278,1,24.3750009298325,2|0,0:0|0:0,0:0:0:0:
128,328,49436,1,2,0:0:0:0:
267,278,49742,6,0,P|282:249|292:175,1,97.50000371933,0|0,0:0|0:0,0:0:0:0:
274,39,50967,2,0,P|291:66|350:112,1,97.50000371933,0|0,0:0|0:0,0:0:0:0:
482,61,52191,2,0,L|474:167,1,97.50000371933,0|0,0:0|0:0,0:0:0:0:
465,304,53416,2,0,L|377:244,1,97.50000371933,0|0,0:0|0:0,0:0:0:0:
291,191,54487,1,0,0:0:0:0:
291,191,54640,6,0,P|270:167|244:101,1,97.50000371933,0|0,0:0|0:0,0:0:0:0:
128,18,55865,2,0,P|107:42|81:108,1,97.50000371933,0|0,0:0|0:0,0:0:0:0:
146,232,57089,2,0,L|156:338,1,97.50000371933,0|0,0:0|0:0,0:0:0:0:
299,221,59079,1,0,0:0:0:0:
299,221,59232,1,0,0:0:0:0:
317,150,59538,6,0,P|274:151|230:190,1,97.50000371933,0|0,0:0|0:0,0:0:0:0:
337,286,60763,2,0,P|368:249|371:202,1,97.50000371933,0|0,0:0|0:0,0:0:0:0:
243,272,61987,2,0,L|139:263,1,97.50000371933,0|0,0:0|0:0,0:0:0:0:
96,125,63211,2,0,L|193:116,1,97.50000371933,0|0,0:0|0:0,0:0:0:0:
341,186,68722,5,2,3:0:0:0:
392,90,68875,1,2,3:0:0:0:
344,196,69028,1,2,3:0:0:0:
371,67,69181,1,2,3:0:0:0:
347,209,69334,6,0,L|207:197,1,120.249999541283,4|0,0:0|0:0,0:0:0:0:
137,189,69793,1,0,0:0:0:0:
3,178,69946,2,0,L|9:245,1,60.1249997706413,8|0,3:0|0:0,0:0:0:0:
74,127,70252,2,0,L|79:67,1,60.1249997706413,0|0,0:0|0:0,0:0:0:0:
188,23,70558,5,2,0:0:0:0:
188,23,70711,1,0,0:0:0:0:
256,83,70865,2,0,P|314:98|336:93,1,60.1249997706413,0|2,0:0|0:0,0:0:0:0:
454,88,71171,2,0,P|388:140|369:186,1,120.249999541283,8|0,3:0|0:0,0:0:0:0:
433,341,71783,5,2,0:0:0:0:
414,327,71859,1,0,0:0:0:0:
395,316,71936,1,0,0:0:0:0:
374,308,72012,1,0,0:0:0:0:
352,302,72089,1,0,0:0:0:0:
262,289,72242,1,2,0:0:0:0:
171,298,72395,2,0,P|104:314|50:341,1,120.249999541283,8|8,3:0|3:0,0:0:0:0:
53,155,73007,5,0,0:0:0:0:
67,156,73084,1,0,0:0:0:0:
82,157,73160,1,0,0:0:0:0:
162,115,73314,1,0,0:0:0:0:
70,15,73467,2,0,P|81:65|93:87,2,60.1249997706413,8|2|2,3:0|3:0|0:0,0:0:0:0:
326,100,74232,6,0,L|333:233,1,120.249999541283,2|0,0:0|0:0,0:0:0:0:
340,309,74691,1,2,0:0:0:0:
454,273,74844,2,0,P|464:231|466:207,1,60.1249997706413,8|0,3:0|0:0,0:0:0:0:
403,89,75150,2,0,P|406:118|414:147,1,60.1249997706413,0|0,0:0|0:0,0:0:0:0:
471,13,75456,2,0,L|394:12,1,60.1249997706413,2|0,0:0|0:0,0:0:0:0:
325,41,75763,1,0,0:0:0:0:
325,41,75916,1,2,0:0:0:0:
205,86,76069,2,0,P|142:76|84:69,1,120.249999541283,8|0,3:0|0:0,0:0:0:0:
172,227,76681,5,2,0:0:0:0:
194,223,76757,1,0,0:0:0:0:
216,219,76834,1,0,0:0:0:0:
238,216,76910,1,0,0:0:0:0:
260,212,76987,1,2,0:0:0:0:
349,199,77140,1,8,3:0:0:0:
282,123,77293,2,0,L|178:139,1,90.187499655962,8|0,3:0|0:0,0:0:0:0:
157,141,77599,1,8,3:0:0:0:
144,320,77905,5,2,3:0:0:0:
314,262,78211,1,2,0:0:0:0:
300,351,78365,1,8,0:0:0:0:
230,293,78518,5,8,0:0:0:0:
242,203,78671,1,8,0:0:0:0:
242,203,78747,1,8,0:0:0:0:
327,173,78900,1,8,0:0:0:0:
327,173,78976,1,8,0:0:0:0:
402,223,79130,6,0,P|416:151|405:91,1,120.249999541283,2|0,0:0|0:0,0:0:0:0:
356,31,79589,1,2,0:0:0:0:
270,60,79742,2,0,L|205:51,1,60.1249997706413,8|0,3:0|0:0,0:0:0:0:
275,142,80048,2,0,L|210:151,1,60.1249997706413,0|0,0:0|0:0,0:0:0:0:
139,224,80354,6,0,L|139:287,1,60.1249997706413,2|0,0:0|0:0,0:0:0:0:
205,344,80660,1,0,0:0:0:0:
269,280,80814,1,2,0:0:0:0:
390,338,80967,2,0,P|424:318|503:306,1,120.249999541283,8|0,3:0|0:0,0:0:0:0:
383,170,81579,5,2,0:0:0:0:
381,147,81655,1,0,0:0:0:0:
380,124,81732,1,0,0:0:0:0:
378,102,81808,1,0,0:0:0:0:
375,80,81885,1,0,0:0:0:0:
314,14,82038,1,2,0:0:0:0:
251,79,82191,2,0,L|103:67,1,120.249999541283,8|8,3:0|3:0,0:0:0:0:
182,242,82803,5,0,0:0:0:0:
181,226,82879,1,0,0:0:0:0:
181,211,82956,1,0,0:0:0:0:
111,154,83109,1,0,0:0:0:0:
43,248,83263,1,8,3:0:0:0:
43,248,83416,2,0,L|46:334,1,60.1249997706413,8|2,3:0|0:0,0:0:0:0:
294,203,84028,6,0,L|286:330,1,120.249999541283,2|0,0:0|0:0,0:0:0:0:
360,375,84487,1,2,0:0:0:0:
436,320,84640,2,0,P|478:322|498:326,1,60.1249997706413,8|0,3:0|0:0,0:0:0:0:
438,225,84946,2,0,P|408:229|378:230,1,60.1249997706413,0|0,0:0|0:0,0:0:0:0:
336,130,85252,6,0,L|337:62,1,60.1249997706413,2|0,0:0|0:0,0:0:0:0:
415,25,85558,1,0,0:0:0:0:
415,25,85711,1,2,0:0:0:0:
268,16,85865,2,0,P|254:47|248:142,1,120.249999541283,8|0,3:0|0:0,0:0:0:0:
306,301,86477,5,2,0:0:0:0:
287,287,86553,1,0,0:0:0:0:
268,275,86630,1,0,0:0:0:0:
250,262,86706,1,0,0:0:0:0:
231,250,86783,1,0,0:0:0:0:
146,220,86936,1,2,0:0:0:0:
63,255,87089,2,0,P|16:223|-1:207,1,60.1249997706413,8|0,3:0|0:0,0:0:0:0:
54,122,87395,2,0,P|99:127|141:111,1,90.187499655962
166,86,87701,6,0,L|171:161,1,60.1249997706413,2|2,0:0|0:0,0:0:0:0:
213,219,88007,1,2,0:0:0:0:
213,219,88160,1,2,0:0:0:0:
252,114,88314,5,2,3:0:0:0:
312,195,88467,1,2,3:0:0:0:
213,219,88620,1,2,3:0:0:0:
157,136,88773,1,2,3:0:0:0:
252,27,88926,6,0,P|294:36|336:80,1,97.50000371933,2|2,0:0|0:0,0:0:0:0:
343,242,89844,1,2,0:0:0:0:
343,242,90150,2,0,P|394:222|450:221,1,97.50000371933,2|0,0:0|0:0,0:0:0:0:
501,270,90609,2,0,L|504:323,2,48.750001859665,0|0|2,0:0|0:0|0:0,0:0:0:0:
436,219,91069,1,0,0:0:0:0:
410,305,91222,1,0,0:0:0:0:
342,234,91375,5,4,0:0:0:0:
321,223,91451,1,0,0:0:0:0:
301,215,91528,1,0,0:0:0:0:
279,207,91604,1,0,0:0:0:0:
257,202,91681,1,2,0:0:0:0:
169,217,91834,1,0,0:0:0:0:
97,161,91987,2,0,P|90:93|90:42,1,120.249999541283,8|8,3:0|3:0,0:0:0:0:
270,50,92599,5,2,0:0:0:0:
249,61,92675,1,0,0:0:0:0:
229,69,92752,1,0,0:0:0:0:
207,77,92828,1,0,0:0:0:0:
185,82,92905,1,0,0:0:0:0:
95,94,93058,1,8,3:0:0:0:
42,167,93211,2,0,L|36:248,1,60.1249997706413,8|2,3:0|0:0,0:0:0:0:
298,300,93824,6,0,P|215:289|171:289,1,120.249999541283,2|0,0:0|0:0,0:0:0:0:
97,328,94283,1,0,0:0:0:0:
123,204,94436,2,0,P|169:195|188:197,1,60.1249997706413,8|0,3:0|0:0,0:0:0:0:
273,119,94742,2,0,P|269:165|262:183,1,60.1249997706413,2|0,0:0|0:0,0:0:0:0:
173,108,95048,6,0,P|167:78|171:26,1,60.1249997706413,2|0,0:0|0:0,0:0:0:0:
248,9,95354,1,0,0:0:0:0:
248,9,95507,1,2,0:0:0:0:
355,63,95660,2,0,L|480:55,1,120.249999541283,8|0,3:0|0:0,0:0:0:0:
409,223,96273,5,2,0:0:0:0:
412,245,96349,1,0,0:0:0:0:
415,267,96426,1,0,0:0:0:0:
416,290,96502,1,0,0:0:0:0:
415,312,96579,1,0,0:0:0:0:
349,373,96732,1,8,3:0:0:0:
281,313,96885,2,0,P|263:267|246:228,1,90.187499655962,0|0,0:0|0:0,0:0:0:0:
234,206,97191,1,8,3:0:0:0:
69,278,97497,5,2,3:0:0:0:
83,98,97803,1,2,3:0:0:0:
126,176,97956,1,8,0:0:0:0:
167,95,98109,5,8,0:0:0:0:
121,16,98263,1,8,0:0:0:0:
121,16,98339,1,8,0:0:0:0:
211,20,98492,1,8,0:0:0:0:
211,20,98569,1,8,0:0:0:0:
300,29,98722,6,0,P|382:27|436:20,1,120.249999541283,2|0,0:0|0:0,0:0:0:0:
507,3,99181,1,2,0:0:0:0:
476,90,99334,2,0,P|479:143|482:164,1,60.1249997706413,8|0,3:0|0:0,0:0:0:0:
401,230,99640,2,0,P|404:177|407:156,1,60.1249997706413,0|0,0:0|0:0,0:0:0:0:
308,190,99946,2,0,L|234:181,1,60.1249997706413,2|0,0:0|0:0,0:0:0:0:
162,210,100252,1,0,0:0:0:0:
162,210,100405,1,2,0:0:0:0:
75,134,100558,6,0,P|58:168|48:255,1,120.249999541283,8|0,3:0|0:0,0:0:0:0:
196,351,101171,1,2,0:0:0:0:
217,345,101247,1,0,0:0:0:0:
238,337,101324,1,0,0:0:0:0:
259,327,101400,1,0,0:0:0:0:
278,316,101477,1,0,0:0:0:0:
325,239,101630,1,2,0:0:0:0:
397,292,101783,2,0,L|465:287,1,60.1249997706413,8|0,3:0|0:0,0:0:0:0:
405,206,102089,1,8,3:0:0:0:
487,45,102395,5,0,0:0:0:0:
457,47,102471,1,0,0:0:0:0:
427,45,102548,1,0,0:0:0:0:
397,38,102624,1,0,0:0:0:0:
370,26,102701,1,0,0:0:0:0:
287,61,102854,1,8,3:0:0:0:
210,12,103007,2,0,P|158:14|122:17,1,60.1249997706413,8|2,3:0|0:0,0:0:0:0:
46,264,103620,6,0,P|136:212|163:210,1,120.249999541283,2|0,0:0|0:0,0:0:0:0:
232,246,104079,1,2,0:0:0:0:
221,146,104232,2,0,P|220:103|224:85,1,60.1249997706413,8|0,3:0|0:0,0:0:0:0:
316,23,104538,2,0,P|320:52|318:82,1,60.1249997706413,0|0,0:0|0:0,0:0:0:0:
316,202,104844,2,0,P|351:188|390:183,1,60.1249997706413,2|0,0:0|0:0,0:0:0:0:
455,220,105150,1,0,0:0:0:0:
455,220,105303,1,2,0:0:0:0:
392,324,105456,2,0,L|265:319,1,120.249999541283,8|0,3:0|0:0,0:0:0:0:
124,214,106069,5,2,0:0:0:0:
119,236,106145,1,0,0:0:0:0:
115,258,106222,1,0,0:0:0:0:
113,280,106298,1,0,0:0:0:0:
111,303,106375,1,0,0:0:0:0:
183,357,106528,1,2,0:0:0:0:
238,240,106681,2,0,P|244:188|233:155,1,60.1249997706413,8|0,3:0|0:0,0:0:0:0:
188,108,106987,2,0,P|236:106|278:102,1,90.187499655962,2|0,0:0|0:0,0:0:0:0:
315,93,107293,6,0,L|321:-8,1,86.6666666666667,8|8,0:0|0:0,0:0:0:0:
320,6,107599,2,0,P|356:33|429:27,1,86.6666666666667,8|0,0:0|0:0,0:0:0:0:
428,21,107905,5,10,0:3:0:0:
491,130,108058,1,10,0:3:0:0:
368,153,108211,1,10,0:3:0:0:
271,35,108365,1,10,0:3:0:0:
288,194,108518,6,0,P|276:225|262:273,1,65,2|2,0:0|0:0,0:0:0:0:
298,347,109130,2,0,P|247:336|225:330,1,65,0|0,0:0|0:0,0:0:0:0:
139,352,109742,1,2,0:0:0:0:
139,352,109895,2,0,P|88:354|61:353,1,65,0|2,0:0|0:0,0:0:0:0:
23,296,110354,2,0,P|33:246|29:222,1,65,0|0,0:0|0:0,0:0:0:0:
38,113,110967,6,0,P|80:142|91:154,1,65,2|2,0:0|0:0,0:0:0:0:
156,222,111579,2,0,L|232:211,1,65,0|8,0:0|0:0,0:0:0:0:
276,133,112191,1,2,0:0:0:0:
276,133,112344,2,0,L|204:125,1,65,0|8,0:0|0:0,0:0:0:0:
138,81,112803,2,0,L|137:154,1,65,0|0,0:0|0:0,0:0:0:0:
177,278,113416,6,0,P|217:265|249:266,1,65,2|2,0:0|0:0,0:0:0:0:
339,325,114028,1,2,3:0:0:0:
339,325,114181,2,0,P|339:278|341:246,1,65,0|0,0:0|0:0,0:0:0:0:
381,188,114640,1,2,0:0:0:0:
381,188,114793,2,0,P|379:155|380:123,1,65,0|2,0:0|0:0,0:0:0:0:
303,80,115252,2,0,L|301:150,1,65,2|0,3:0|0:0,0:0:0:0:
237,219,115865,6,0,L|155:209,1,65,2|2,0:0|0:0,0:0:0:0:
93,196,116324,1,8,0:0:0:0:
93,196,116477,2,0,P|99:272|101:278,1,65,2|8,3:0|0:0,0:0:0:0:
149,341,117089,1,2,0:0:0:0:
244,317,117395,2,0,L|287:314,1,32.5,0|8,0:0|0:0,0:0:0:0:
350,311,117701,5,2,3:0:0:0:
431,307,117854,1,8,0:0:0:0:
431,307,117931,1,8,0:0:0:0:
486,248,118084,1,8,0:0:0:0:
486,248,118161,1,8,0:0:0:0:
496,167,118314,6,0,L|499:36,1,120.249999541283,4|2,0:0|0:0,0:0:0:0:
416,10,118773,1,0,0:0:0:0:
358,110,118926,2,0,L|355:185,1,60.1249997706413,8|0,3:0|0:0,0:0:0:0:
270,82,119232,2,0,L|267:7,1,60.1249997706413,2|0,0:0|0:0,0:0:0:0:
205,147,119538,1,2,0:0:0:0:
205,147,119691,2,0,P|166:136|62:134,1,120.249999541283,0|2,0:0|0:0,0:0:0:0:
69,254,120150,2,0,L|135:243,1,60.1249997706413,8|2,3:0|0:0,0:0:0:0:
218,237,120456,2,0,L|218:341,1,90.187499655962,0|0,0:0|0:0,0:0:0:0:
223,351,120763,6,0,P|262:345|296:344,1,60.1249997706413,2|0,0:0|0:0,0:0:0:0:
346,280,121069,2,0,P|367:298|394:325,1,60.1249997706413,0|2,0:0|0:0,0:0:0:0:
484,228,121375,2,0,P|486:301|476:363,1,120.249999541283,8|0,3:0|0:0,0:0:0:0:
385,193,121987,1,0,0:0:0:0:
385,193,122140,2,0,P|380:147|377:53,1,120.249999541283,0|2,0:0|0:0,0:0:0:0:
265,14,122599,2,0,P|285:55|296:84,1,60.1249997706413,8|0,3:0|0:0,0:0:0:0:
226,131,122905,2,0,L|135:126,1,90.187499655962,0|0,0:0|0:0,0:0:0:0:
107,124,123211,6,0,P|109:160|109:200,1,60.1249997706413,2|0,0:0|0:0,0:0:0:0:
183,235,123518,2,0,P|181:271|181:311,1,60.1249997706413,0|2,0:0|0:0,0:0:0:0:
283,231,123824,2,0,L|289:106,1,120.249999541283,8|2,3:0|0:0,0:0:0:0:
460,56,124436,1,2,0:0:0:0:
460,56,124589,2,0,P|435:113|433:171,1,120.249999541283,0|2,0:0|0:0,0:0:0:0:
487,273,125048,2,0,L|417:270,1,60.1249997706413,8|0,3:0|0:0,0:0:0:0:
347,340,125354,2,0,P|317:330|249:322,1,90.187499655962,0|0,0:0|0:0,0:0:0:0:
232,329,125660,6,0,B|191:341|191:341|128:329,1,90.187499655962,2|0,0:0|0:0,0:0:0:0:
140,303,125967,2,0,B|102:282|102:282|75:243,1,90.187499655962,0|0,0:0|0:0,0:0:0:0:
70,206,126273,2,0,L|162:189,1,90.187499655962,8|0,3:0|0:0,0:0:0:0:
184,186,126579,2,0,P|188:147|193:117,1,60.1249997706413,2|0,0:0|0:0,0:0:0:0:
245,54,126885,1,2,0:0:0:0:
295,128,127038,2,0,P|324:125|425:128,1,120.249999541283,0|2,0:0|0:0,0:0:0:0:
345,218,127497,2,0,P|344:266|348:288,1,60.1249997706413,8|0,3:0|0:0,0:0:0:0:
394,354,127803,2,0,L|282:348,1,90.187499655962,2|0,0:0|0:0,0:0:0:0:
276,350,128109,6,0,P|262:285|258:281,1,60.1249997706413,6|0,0:0|0:0,0:0:0:0:
222,213,128416,2,0,P|166:176|160:176,1,60.1249997706413,2|0,0:0|0:0,0:0:0:0:
91,266,128722,2,0,P|101:203|100:139,1,120.249999541283,8|2,3:0|0:0,0:0:0:0:
237,29,129334,1,2,0:0:0:0:
237,29,129487,2,0,P|306:32|372:37,1,120.249999541283,0|2,0:0|0:0,0:0:0:0:
432,126,129946,2,0,P|459:96|482:77,1,60.1249997706413,8|2,3:0|0:0,0:0:0:0:
495,187,130252,2,0,P|496:231|491:282,1,90.187499655962,0|0,0:0|0:0,0:0:0:0:
474,302,130558,6,0,L|413:292,1,60.1249997706413,2|0,0:0|0:0,0:0:0:0:
362,217,130865,2,0,L|301:227,1,60.1249997706413,2|2,0:0|0:0,0:0:0:0:
399,101,131171,2,0,L|264:66,1,120.249999541283,8|2,3:0|0:0,0:0:0:0:
105,39,131783,1,2,0:0:0:0:
175,95,131936,2,0,P|182:141|172:235,1,120.249999541283,0|2,0:0|0:0,0:0:0:0:
96,317,132395,2,0,P|155:307|179:298,1,60.1249997706413,8|2,3:0|0:0,0:0:0:0:
241,280,132701,2,0,P|248:332|257:371,1,90.187499655962,0|0,0:0|0:0,0:0:0:0:
282,369,133007,6,0,L|346:360,1,60.1249997706413,2|0,0:0|0:0,0:0:0:0:
344,269,133314,2,0,L|408:278,1,60.1249997706413,0|2,0:0|0:0,0:0:0:0:
499,193,133620,2,0,P|455:149|394:133,1,120.249999541283,8|2,3:0|0:0,0:0:0:0:
289,90,134079,2,0,P|345:72|387:30,1,120.249999541283,0|0,0:0|0:0,0:0:0:0:
301,1,134538,1,0,0:0:0:0:
301,1,134691,1,2,0:0:0:0:
191,84,134844,2,0,P|200:127|201:152,1,60.1249997706413,8|2,3:0|0:0,0:0:0:0:
141,210,135150,2,0,P|114:194|77:132,1,90.187499655962,0|0,0:0|0:0,0:0:0:0:
92,115,135456,5,2,0:0:0:0:
18,280,135763,2,0,P|26:338|38:365,1,60.1249997706413,2|0,0:0|0:0,0:0:0:0:
136,291,136069,1,10,3:0:0:0:
205,348,136222,2,0,P|241:337|328:335,1,120.249999541283,0|0,0:0|0:0,0:0:0:0:
451,359,136681,5,4,3:0:0:0:
481,137,136987,1,4,3:0:0:0:
464,281,137293,5,8,3:0:0:0:
382,134,137446,1,8,3:0:0:0:
491,172,137599,5,10,3:0:0:0:
274,226,137752,1,10,3:0:0:0:
185,71,137905,6,0,L|36:56,1,130,4|2,0:0|0:0,0:0:0:0:
257,121,138518,2,0,P|258:157|253:201,1,65,8|0,3:0|0:0,0:0:0:0:
163,246,138824,2,0,P|162:210|167:166,1,65,2|0,0:0|0:0,0:0:0:0:
331,239,139130,2,0,L|321:375,1,130,2|0,0:0|0:0,0:0:0:0:
241,327,139589,1,2,0:0:0:0:
420,285,139742,2,0,P|422:246|414:217,1,65,8|2,3:0|0:0,0:0:0:0:
437,141,140048,2,0,P|411:112|385:97,1,65,0|0,0:0|0:0,0:0:0:0:
246,122,140354,6,0,L|256:267,1,130,2|2,0:0|0:0,0:0:0:0:
263,338,140814,1,0,0:0:0:0:
335,271,140967,2,0,P|353:222|356:192,1,65,8|0,3:0|0:0,0:0:0:0:
301,65,141273,2,0,P|319:114|322:144,1,65,2|0,0:0|3:0,0:0:0:0:
145,126,141579,2,0,L|158:277,1,130,2|0,0:0|0:0,0:0:0:0:
168,340,142038,1,2,0:0:0:0:
71,254,142191,2,0,P|32:243|-15:240,1,65,8|0,3:0|0:0,0:0:0:0:
60,123,142497,2,0,P|24:142|-10:173,1,65,0|0,0:0|3:0,0:0:0:0:
166,167,142803,6,0,L|192:299,1,130,2|0,0:0|0:0,0:0:0:0:
326,192,143416,1,8,3:0:0:0:
443,313,143722,2,0,L|517:292,1,65,2|0,0:0|3:0,0:0:0:0:
457,226,144028,1,2,0:0:0:0:
457,226,144181,2,0,P|463:149|463:88,1,130,0|2,0:0|0:0,0:0:0:0:
336,192,144640,2,0,L|346:268,1,65,8|2,3:0|0:0,0:0:0:0:
271,299,144946,2,0,L|261:375,1,65,0|0,0:0|0:0,0:0:0:0:
122,260,145252,6,0,P|162:234|251:220,1,130,2|0,0:0|0:0,0:0:0:0:
325,230,145711,1,0,3:0:0:0:
298,106,145865,2,0,P|258:157|242:219,1,130,8|0,3:0|3:0,0:0:0:0:
265,300,146324,1,8,3:0:0:0:
140,352,146477,6,0,P|70:330|14:305,1,130,2|0,0:0|0:0,0:0:0:0:
18,222,146936,1,2,0:0:0:0:
84,170,147089,2,0,P|154:192|210:217,1,130,8|0,3:0|0:0,0:0:0:0:
273,325,147548,1,8,3:0:0:0:
417,236,147701,6,0,L|426:78,1,130,4|2,0:0|0:0,0:0:0:0:
291,0,148314,2,0,P|320:77|318:85,1,65,8|0,3:0|0:0,0:0:0:0:
239,77,148620,2,0,P|205:151|197:156,1,65,2|0,0:0|0:0,0:0:0:0:
97,112,148926,2,0,L|107:243,1,130,2|0,0:0|0:0,0:0:0:0:
153,312,149385,1,2,0:0:0:0:
260,230,149538,2,0,L|335:210,1,65,8|2,3:0|0:0,0:0:0:0:
408,155,149844,2,0,L|345:138,1,65,0|0,0:0|0:0,0:0:0:0:
505,92,150150,6,0,L|496:250,1,130,2|2,0:0|0:0,0:0:0:0:
490,305,150609,1,0,0:0:0:0:
333,245,150763,2,0,P|380:241|411:237,1,65,8|0,3:0|0:0,0:0:0:0:
300,166,151069,2,0,P|330:129|349:105,1,65,2|0,0:0|3:0,0:0:0:0:
202,129,151375,2,0,L|212:267,1,130,0|2,0:0|0:0,0:0:0:0:
263,325,151834,1,0,0:0:0:0:
127,314,151987,2,0,P|106:279|97:244,1,65,8|0,3:0|0:0,0:0:0:0:
59,181,152293,2,0,P|94:160|129:151,1,65,0|2,0:0|0:0,0:0:0:0:
171,32,152599,6,0,L|224:156,1,130,2|2,0:0|0:0,0:0:0:0:
365,61,153211,1,8,3:0:0:0:
474,190,153518,2,0,P|475:250|482:276,1,65,2|0,0:0|3:0,0:0:0:0:
501,335,153824,1,0,0:0:0:0:
420,310,153977,2,0,P|365:291|281:284,1,130,0|2,0:0|0:0,0:0:0:0:
187,212,154436,2,0,P|251:205|313:185,1,130,8|0,3:0|0:0,0:0:0:0:
101,145,155048,6,0,L|97:279,1,130,2|0,0:0|3:0,0:0:0:0:
24,232,155507,1,0,0:0:0:0:
34,100,155660,2,0,P|74:68|155:88,1,130,8|2,3:0|0:0,0:0:0:0:
202,145,156120,1,8,3:0:0:0:
290,56,156273,2,0,P|295:171|291:213,1,130,0|0,0:0|0:0,0:0:0:0:
224,233,156732,1,2,0:0:0:0:
283,313,156885,2,0,L|295:378,1,65,8|0,3:0|0:0,0:0:0:0:
378,286,157191,5,8,3:0:0:0:
186,333,157344,1,8,3:0:0:0:
421,208,157497,6,0,P|412:163|389:50,1,130,4|2,0:0|0:0,0:0:0:0:
226,92,158109,2,0,P|233:147|239:181,1,65,8|0,3:0|0:0,0:0:0:0:
310,69,158416,2,0,P|317:14|323:-20,1,65,2|0,0:0|0:0,0:0:0:0:
141,42,158722,2,0,P|121:97|107:186,1,130,2|0,0:0|0:0,0:0:0:0:
132,247,159181,1,2,0:0:0:0:
30,187,159334,2,0,P|18:132|16:106,1,65,8|2,3:0|0:0,0:0:0:0:
44,267,159640,2,0,P|39:299|31:330,1,65,0|0,0:0|0:0,0:0:0:0:
132,247,159946,6,0,P|146:315|150:394,1,130,2|2,0:0|0:0,0:0:0:0:
226,339,160405,1,0,0:0:0:0:
271,230,160558,2,0,P|279:175|277:146,1,65,8|0,3:0|0:0,0:0:0:0:
184,122,160865,2,0,P|177:90|176:57,1,65,2|0,0:0|0:0,0:0:0:0:
337,10,161171,2,0,P|354:51|378:159,1,130,2|0,0:0|0:0,0:0:0:0:
357,216,161630,1,2,0:0:0:0:
480,128,161783,2,0,P|488:176|489:201,1,65,8|0,3:0|0:0,0:0:0:0:
418,312,162089,2,0,P|426:264|427:239,1,65,0|0,0:0|0:0,0:0:0:0:
270,201,162395,6,0,P|278:245|284:335,1,130,2|2,0:0|0:0,0:0:0:0:
130,259,163007,1,8,3:0:0:0:
230,122,163314,1,0,0:0:0:0:
78,47,163620,2,0,P|79:96|91:193,1,130,2|0,0:0|0:0,0:0:0:0:
130,259,164079,1,2,0:0:0:0:
268,206,164232,1,8,3:0:0:0:
216,273,164385,2,0,P|216:338|221:363,1,65,0|0,0:0|0:0,0:0:0:0:
426,323,164844,6,0,P|379:307|288:304,1,130,2|0,0:0|0:0,0:0:0:0:
216,339,165303,1,0,0:0:0:0:
126,228,165456,2,0,P|130:294|133:360,1,130,8|0,3:0|0:0,0:0:0:0:
42,141,166069,2,0,P|134:144|169:125,1,130,2|0,0:0|0:0,0:0:0:0:
313,45,166681,2,0,L|328:139,1,65,8|0,3:0|0:0,0:0:0:0:
284,184,166987,1,0,0:0:0:0:
448,197,167293,6,0,B|450:226|450:226|448:241|441:259|441:259|445:278|443:301|443:301|457:346|457:346|450:321|417:307|417:307|396:307|357:311,1,260,0|0,0:0|0:0,0:0:0:0:
267,261,168824,2,0,P|261:236|262:130,1,130,0|0,0:0|0:0,0:0:0:0:
411,22,169742,6,0,B|344:36|344:36|268:23|268:23|239:37|207:44,1,195,0|0,0:0|0:0,0:0:0:0:
105,109,170967,2,0,B|147:108|147:108|165:127|165:127|201:119|230:129|230:129|242:154|266:168|266:168|279:162,1,195,0|0,0:0|0:0,0:0:0:0:
376,256,172191,6,0,B|334:270|300:266|266:253|266:253|257:273|259:299|259:299|300:311|314:335|314:335|326:306|323:293,1,260,0|0,0:0|0:0,0:0:0:0:
324,184,173722,2,0,P|321:130|317:47,1,130,0|0,0:0|0:0,0:0:0:0:
187,114,174640,6,0,B|195:156|195:156|191:167|191:167|200:179|200:179|193:199|193:199|202:221|171:196|171:196|146:225|146:225|83:178|83:178|95:221|91:243,1,292.50001115799,0|0,0:0|0:0,0:0:0:0:
155,309,175865,2,0,B|211:297|211:297|220:301|220:301|237:292|267:300|267:300|259:315|259:315|263:330|272:349|272:349|300:342|300:342|343:344|343:344|351:358,1,243.75
433,364,177089,5,0,0:0:0:0:
