osu file format v14

[General]
AudioFilename: audio.mp3
AudioLeadIn: 0
PreviewTime: 763
Countdown: 0
SampleSet: Soft
StackLeniency: 0.7
Mode: 0
LetterboxInBreaks: 0
EpilepsyWarning: 1
WidescreenStoryboard: 1

[Editor]
Bookmarks: 89021,106164,108536,118409,138000,157669
DistanceSpacing: 0.5
BeatDivisor: 4
GridSize: 4
TimelineZoom: 2.2

[Metadata]
Title:Burn It Down
TitleUnicode:Burn It Down
Artist:Daughter
ArtistUnicode:Daughter
Creator:sheela
Version:Extra
Source:Life Is Strange: Before the Storm
Tags:alternative soundtrack
BeatmapID:1383168
BeatmapSetID:652300

[Difficulty]
HPDrainRate:8
CircleSize:4.5
OverallDifficulty:8
ApproachRate:9.3
SliderMultiplier:0.7
SliderTickRate:0.5

[Events]
//Background and Video events
0,0,"bg.jpg",0,0
//Break Periods
2,64436,68168
//Storyboard Layer 0 (Background)
//Storyboard Layer 1 (Fail)
//Storyboard Layer 2 (Pass)
//Storyboard Layer 3 (Foreground)
//Storyboard Sound Samples

[TimingPoints]
763,306.122448979592,4,2,0,5,1,0
20354,-200,4,2,1,20,0,0
22497,-200,4,2,1,5,0,0
22803,-200,4,2,1,20,0,0
24946,-200,4,2,1,5,0,0
25252,-200,4,2,1,20,0,0
27395,-200,4,2,1,5,0,0
27701,-200,4,2,1,20,0,0
29844,-200,4,2,1,5,0,0
30150,-200,4,2,1,20,0,0
32293,-200,4,2,1,5,0,0
32599,-200,4,2,1,20,0,0
34742,-200,4,2,1,5,0,0
35048,-200,4,2,1,20,0,0
37191,-200,4,2,1,5,0,0
37497,-200,4,2,1,20,0,0
39334,-200,4,2,1,5,0,0
39793,-133.333333333333,4,2,30,20,0,0
47446,-133.333333333333,4,2,2,20,0,0
47752,-133.333333333333,4,2,2,5,0,0
47905,-133.333333333333,4,2,2,20,0,0
48058,-133.333333333333,4,2,2,5,0,0
48211,-133.333333333333,4,2,2,20,0,0
48365,-133.333333333333,4,2,2,5,0,0
48824,-133.333333333333,4,2,2,20,0,0
48977,-133.333333333333,4,2,2,5,0,0
49130,-133.333333333333,4,2,2,20,0,0
49283,-133.333333333333,4,2,2,5,0,0
49436,-133.333333333333,4,2,2,20,0,0
49589,-133.333333333333,4,2,2,5,0,0
49742,-133.333333333333,4,2,30,20,0,0
68722,-50,4,2,2,70,0,0
78365,-50,4,2,0,40,0,0
79130,-50,4,2,2,70,0,0
88926,-66.6666666666667,4,2,2,40,0,0
91375,-50,4,2,2,70,0,0
107293,-50,4,3,0,55,0,0
107905,-50,4,2,2,55,0,0
108518,-100,4,2,2,40,0,0
114028,-100,4,2,2,70,0,0
114181,-100,4,2,2,40,0,0
115252,-100,4,2,2,70,0,0
115329,-100,4,2,2,40,0,0
118314,-50,4,2,2,70,0,0
125584,-50,4,2,2,5,0,0
125660,-50,4,2,2,70,0,0
125890,-50,4,2,2,5,0,0
125967,-50,4,2,2,70,0,0
126196,-50,4,2,2,5,0,0
126273,-50,4,2,2,70,0,0
126502,-50,4,2,2,5,0,0
126579,-50,4,2,2,70,0,0
137446,-50,4,2,2,40,0,0
137599,-50,4,2,2,90,0,0
137905,-40,4,2,2,80,0,1
157191,-40,4,2,2,90,0,1
157344,-40,4,2,2,100,0,1
157497,-40,4,2,2,80,0,1
166069,-45,4,2,2,80,0,1
167293,-100,4,2,0,50,0,0
174640,-66.6666666666667,4,2,0,50,0,0
175865,-80,4,2,0,50,0,0
177089,-80,4,2,0,30,0,0
375507,-200,4,2,0,50,0,0

[Colours]
Combo1 : 59,59,59
Combo2 : 157,255,214
Combo3 : 125,70,106
Combo4 : 128,197,118

[HitObjects]
256,192,763,12,0,4436,0:0:0:0:
256,192,5660,12,0,9333,0:0:0:0:
256,192,10558,12,0,14231,0:0:0:0:
256,192,15456,12,0,19129,0:0:0:0:
206,182,20354,6,0,P|206:115|356:108,1,245
374,173,22803,2,0,B|321:178|284:153|284:153|308:172|317:206|317:206|324:251|308:306,1,245
269,352,25252,6,0,B|220:335|201:332|201:332|168:292|171:258|171:258|164:284|141:308|141:308|158:317|174:321,1,245
238,226,27701,2,0,B|211:183|174:177|138:181|117:205|101:227|101:227|113:189|103:145,1,245
17,77,30150,6,0,B|47:95|71:84|71:84|101:69|129:73|148:83|167:103|171:119|171:119|205:116|246:139,1,245
306,180,32599,2,0,B|323:220|328:268|305:306|305:306|269:284|250:236|243:212,1,245
309,103,35048,2,0,B|331:94|374:92|373:111|374:138|394:156|430:156|430:156|424:177|433:206|440:217|440:217|453:189|464:186,1,245
481,285,37497,2,0,B|419:324|365:275|351:234|351:234|345:261|331:281,1,210
256,339,39793,1,0,0:0:0:0:
256,339,39946,6,0,L|166:335,1,78.7500030040742
225,244,40558,2,0,L|135:240,1,78.7500030040742
273,161,41171,1,0,0:0:0:0:
273,161,41324,2,0,L|363:157,1,78.7500030040742
260,69,42089,1,0,0:0:0:0:
260,69,42242,1,0,0:0:0:0:
260,69,42395,6,0,L|170:66,1,78.7500030040742
273,161,43007,2,0,L|363:164,1,78.7500030040742
225,244,43620,1,0,0:0:0:0:
225,244,43773,2,0,L|135:247,1,78.7500030040742
265,351,44538,1,0,0:0:0:0:
265,351,44691,1,0,0:0:0:0:
265,351,44844,6,0,L|346:353,1,78.7500030040742
409,277,45456,2,0,L|490:275,1,78.7500030040742
363,183,46069,1,0,0:0:0:0:
363,183,46222,2,0,L|444:181,1,78.7500030040742
295,91,46987,1,0,0:0:0:0:
295,91,47140,1,0,0:0:0:0:
295,91,47293,5,0,0:0:0:0:
203,116,47599,2,0,P|166:114|156:117,1,26.2500010013581,0|2,0:0|0:0,0:0:0:0:
244,201,47905,2,0,P|207:199|197:202,1,26.2500010013581,2|0,0:0|0:0,0:0:0:0:
309,273,48211,2,0,P|322:272|334:269,1,26.2500010013581
456,214,48824,6,0,P|443:211|430:210,1,26.2500010013581
368,282,49130,2,0,P|355:279|342:278,1,26.2500010013581,2|0,0:0|0:0,0:0:0:0:
236,353,49436,2,0,P|248:350|261:349,1,26.2500010013581,2|0,0:0|0:0,0:0:0:0:
159,318,49742,5,0,0:0:0:0:
159,318,50354,1,0,0:0:0:0:
159,318,50967,1,0,0:0:0:0:
159,318,51579,1,0,0:0:0:0:
211,209,52191,5,0,0:0:0:0:
211,209,52803,1,0,0:0:0:0:
90,144,53416,5,0,0:0:0:0:
215,91,54028,1,0,0:0:0:0:
88,52,54487,1,0,0:0:0:0:
88,52,54640,5,0,0:0:0:0:
88,52,55252,1,0,0:0:0:0:
88,52,55865,1,0,0:0:0:0:
88,52,56477,1,0,0:0:0:0:
223,78,57089,5,0,0:0:0:0:
298,187,57701,1,0,0:0:0:0:
396,292,59079,1,0,0:0:0:0:
396,292,59232,1,0,0:0:0:0:
254,332,59538,5,0,0:0:0:0:
254,332,60150,1,0,0:0:0:0:
254,332,60763,1,0,0:0:0:0:
254,332,61375,1,0,0:0:0:0:
339,254,61987,5,0,0:0:0:0:
339,254,62599,1,0,0:0:0:0:
189,188,63211,1,0,0:0:0:0:
323,118,63824,1,0,0:0:0:0:
173,255,68722,5,2,3:0:0:0:
339,129,68875,1,2,3:0:0:0:
173,255,69028,5,2,3:0:0:0:
339,129,69181,1,2,3:0:0:0:
81,81,69334,6,0,L|90:165,2,70,4|0|0,0:0|0:0|0:0,0:0:0:0:
169,18,69793,1,0,0:0:0:0:
321,142,69946,2,0,L|223:140,1,70,8|0,3:0|0:0,0:0:0:0:
186,224,70252,1,0,0:0:0:0:
186,224,70405,1,0,0:0:0:0:
324,273,70558,6,0,P|295:288|265:321,1,70,2|0,0:0|0:0,0:0:0:0:
345,355,70865,1,0,0:0:0:0:
185,325,71018,1,2,0:0:0:0:
345,189,71171,2,0,P|373:204|403:237,1,70,8|0,3:0|0:0,0:0:0:0:
435,302,71477,2,0,L|439:378,1,70
257,286,71783,5,0,0:0:0:0:
257,269,71859,1,0,0:0:0:0:
256,252,71936,1,0,0:0:0:0:
256,235,72013,1,0,0:0:0:0:
256,218,72089,1,2,0:0:0:0:
97,245,72242,2,0,L|54:251,1,35,2|0,0:0|0:0,0:0:0:0:
155,187,72395,6,0,P|178:241|155:305,1,105,8|0,3:0|0:0,0:0:0:0:
80,160,72701,2,0,B|153:168|153:168|201:140,1,105,8|0,3:0|0:0,0:0:0:0:
212,78,73007,5,0,0:0:0:0:
225,89,73083,1,0,0:0:0:0:
240,98,73160,1,0,0:0:0:0:
256,105,73236,1,0,0:0:0:0:
273,109,73313,1,0,0:0:0:0:
290,111,73389,1,0,0:0:0:0:
312,114,73467,6,0,L|360:115,1,35,8|0,3:0|0:0,0:0:0:0:
476,202,73620,2,0,P|424:199|391:202,1,70,2|2,3:0|0:0,0:0:0:0:
328,237,73926,2,0,L|327:281,3,35
326,299,74232,6,0,L|336:390,1,70,2|0,0:0|0:0,0:0:0:0:
426,327,74538,1,0,0:0:0:0:
426,327,74691,1,2,0:0:0:0:
189,264,74844,2,0,P|241:253|263:252,1,70,8|0,3:0|0:0,0:0:0:0:
238,343,75150,1,0,0:0:0:0:
238,343,75303,1,0,0:0:0:0:
104,316,75456,6,0,P|91:272|87:239,1,70,2|0,0:0|0:0,0:0:0:0:
172,196,75763,2,0,P|185:240|189:273,1,70,0|2,0:0|0:0,0:0:0:0:
80,152,76069,1,8,3:0:0:0:
187,49,76222,1,0,0:0:0:0:
187,49,76375,2,0,L|257:53,1,70
351,154,76681,5,2,0:0:0:0:
366,146,76757,1,0,0:0:0:0:
383,141,76834,1,0,0:0:0:0:
400,137,76910,1,0,0:0:0:0:
418,136,76987,1,2,0:0:0:0:
427,234,77140,2,0,L|381:223,1,35,8|0,3:0|0:0,0:0:0:0:
280,90,77293,6,0,P|258:131|243:197,1,105,8|0,3:0|0:0,0:0:0:0:
298,291,77599,2,0,P|256:236|217:204,1,105,8|0,3:0|0:0,0:0:0:0:
208,193,77905,2,0,L|161:197,3,35,2|0|0|0,3:0|0:0|0:0|0:0,0:0:0:0:
135,220,78211,5,2,0:0:0:0:
318,183,78365,1,8,0:0:0:0:
94,111,78518,5,8,0:0:0:0:
236,272,78671,1,8,0:0:0:0:
236,272,78747,1,8,0:0:0:0:
327,87,78900,1,8,0:0:0:0:
327,87,78976,1,8,0:0:0:0:
481,270,79130,6,0,P|427:273|402:267,2,70,2|0|0,0:0|0:0|0:0,0:0:0:0:
452,178,79589,1,2,0:0:0:0:
332,318,79742,2,0,L|318:243,1,70,8|0,3:0|0:0,0:0:0:0:
302,161,80048,1,0,0:0:0:0:
302,161,80201,1,0,0:0:0:0:
213,60,80354,6,0,L|199:135,1,70,2|0,0:0|0:0,0:0:0:0:
189,206,80660,1,0,0:0:0:0:
115,108,80814,1,2,0:0:0:0:
300,47,80967,2,0,P|345:48|371:51,1,70,8|0,3:0|0:0,0:0:0:0:
428,103,81273,2,0,P|473:102|499:99,1,70
338,137,81579,5,2,0:0:0:0:
336,154,81655,1,0,0:0:0:0:
334,171,81732,1,0,0:0:0:0:
333,189,81808,1,0,0:0:0:0:
333,206,81885,1,0,0:0:0:0:
339,305,82038,1,2,0:0:0:0:
231,234,82191,2,0,P|176:211|123:214,1,105,8|0,3:0|0:0,0:0:0:0:
209,328,82497,2,0,P|227:293|238:264,1,70,8|0,3:0|0:0,0:0:0:0:
166,93,82803,5,0,0:0:0:0:
144,107,82879,1,0,0:0:0:0:
119,115,82956,1,0,0:0:0:0:
93,116,83032,1,0,0:0:0:0:
67,110,83109,1,0,0:0:0:0:
101,3,83263,2,0,L|106:51,1,35,8|0,3:0|0:0,0:0:0:0:
127,205,83416,1,8,3:0:0:0:
144,325,83569,1,2,0:0:0:0:
144,325,83722,2,0,L|151:279,3,35
204,242,84028,6,0,L|299:249,1,70,2|0,0:0|0:0,0:0:0:0:
291,154,84334,1,0,0:0:0:0:
291,154,84487,1,2,0:0:0:0:
419,194,84640,2,0,P|412:135|412:117,1,70,8|0,3:0|0:0,0:0:0:0:
487,258,84946,2,0,P|485:293|480:328,1,70
367,264,85252,1,2,0:0:0:0:
492,142,85405,5,0,0:0:0:0:
493,115,85481,1,0,0:0:0:0:
495,89,85558,1,0,0:0:0:0:
496,63,85634,1,0,0:0:0:0:
498,37,85711,1,2,0:0:0:0:
337,146,85865,2,0,L|314:79,1,70,8|0,3:0|0:0,0:0:0:0:
256,148,86171,2,0,L|254:192,3,35
253,220,86477,5,2,0:0:0:0:
251,246,86553,1,0,0:0:0:0:
250,272,86630,1,0,0:0:0:0:
248,298,86706,1,0,0:0:0:0:
247,324,86783,1,0,0:0:0:0:
350,283,86936,1,2,0:0:0:0:
154,237,87089,2,0,P|146:198|150:169,1,70,8|0,3:0|0:0,0:0:0:0:
196,68,87395,1,0,0:0:0:0:
222,67,87471,1,0,0:0:0:0:
248,66,87548,1,0,0:0:0:0:
274,65,87624,1,0,0:0:0:0:
300,65,87701,6,0,L|304:148,1,70,2|2,0:0|0:0,0:0:0:0:
308,271,88007,1,2,0:0:0:0:
308,271,88160,1,2,0:0:0:0:
321,43,88314,5,8,3:0:0:0:
224,252,88467,1,8,3:0:0:0:
413,113,88620,5,8,3:0:0:0:
174,52,88773,1,8,3:0:0:0:
41,265,88926,5,2,0:0:0:0:
133,260,89232,1,2,0:0:0:0:
41,265,89844,5,2,0:0:0:0:
133,260,90150,1,2,0:0:0:0:
224,252,90456,6,0,L|221:311,2,52.5000020027161
292,203,90916,1,2,0:0:0:0:
363,167,91069,1,0,0:0:0:0:
430,127,91222,1,0,0:0:0:0:
503,88,91375,5,4,0:0:0:0:
468,81,91451,1,0,0:0:0:0:
434,75,91528,1,0,0:0:0:0:
399,69,91604,1,0,0:0:0:0:
365,62,91681,1,2,0:0:0:0:
330,56,91757,1,0,0:0:0:0:
296,50,91834,1,0,0:0:0:0:
155,173,91987,2,0,P|156:116|139:57,1,105,8|0,3:0|0:0,0:0:0:0:
60,206,92293,2,0,P|108:199|139:197,1,70,8|0,3:0|0:0,0:0:0:0:
354,301,92599,5,2,0:0:0:0:
315,280,92675,1,0,0:0:0:0:
272,276,92752,1,0,0:0:0:0:
231,291,92828,1,0,0:0:0:0:
200,321,92905,1,0,0:0:0:0:
405,227,93058,2,0,L|364:220,1,35,8|0,3:0|0:0,0:0:0:0:
194,143,93211,1,8,3:0:0:0:
311,99,93365,2,0,L|300:202,2,70,2|0|0,0:0|0:0|0:0,0:0:0:0:
415,20,93824,6,0,L|262:25,1,140,2|0,0:0|0:0,0:0:0:0:
183,31,94283,1,0,0:0:0:0:
311,99,94436,2,0,P|354:132|366:152,1,70,8|0,3:0|0:0,0:0:0:0:
264,200,94742,2,0,P|220:233|208:253,1,70,2|0,0:0|0:0,0:0:0:0:
316,301,95048,5,2,0:0:0:0:
316,301,95201,1,0,0:0:0:0:
376,222,95354,2,0,L|446:226,1,70,0|2,0:0|0:0,0:0:0:0:
423,371,95660,2,0,L|353:375,1,70,8|0,3:0|0:0,0:0:0:0:
207,349,95967,1,0,0:0:0:0:
202,323,96043,1,0,0:0:0:0:
201,297,96120,1,0,0:0:0:0:
204,271,96196,1,0,0:0:0:0:
212,245,96273,6,0,L|213:192,5,35,2|0|0|0|0|0,0:0|0:0|0:0|0:0|0:0|0:0,0:0:0:0:
216,170,96732,1,8,3:0:0:0:
311,206,96885,2,0,L|421:196,1,105
338,186,97191,2,0,P|316:152|310:89,1,105,8|0,3:0|0:0,0:0:0:0:
291,230,97497,5,2,3:0:0:0:
401,113,97803,1,2,3:0:0:0:
241,33,97956,5,8,0:0:0:0:
210,149,98109,1,8,0:0:0:0:
372,33,98263,5,8,0:0:0:0:
372,33,98339,1,8,0:0:0:0:
331,202,98492,1,8,0:0:0:0:
331,202,98568,1,8,0:0:0:0:
108,142,98722,6,0,L|118:224,2,70,2|0|0,0:0|0:0|0:0,0:0:0:0:
96,67,99181,1,2,0:0:0:0:
204,173,99334,2,0,L|199:252,1,70,8|0,3:0|0:0,0:0:0:0:
196,323,99640,1,0,0:0:0:0:
196,323,99793,1,0,0:0:0:0:
102,228,99946,6,0,P|55:223|28:223,1,70,2|0,0:0|0:0,0:0:0:0:
66,310,100252,1,0,0:0:0:0:
66,310,100405,1,2,0:0:0:0:
133,143,100558,2,0,P|167:142|202:137,1,70,8|0,3:0|0:0,0:0:0:0:
341,143,100865,2,0,P|317:167|296:196,1,70
457,118,101171,5,2,0:0:0:0:
446,84,101247,1,0,0:0:0:0:
424,57,101324,1,0,0:0:0:0:
394,40,101400,1,0,0:0:0:0:
359,35,101477,1,0,0:0:0:0:
242,44,101630,1,2,0:0:0:0:
296,196,101783,2,0,L|300:301,1,105,8|0,3:0|0:0,0:0:0:0:
369,337,102089,2,0,L|285:326,1,70,8|0,3:0|0:0,0:0:0:0:
101,322,102395,5,0,0:0:0:0:
127,320,102471,1,0,0:0:0:0:
153,318,102548,1,0,0:0:0:0:
179,316,102624,1,0,0:0:0:0:
205,315,102701,1,0,0:0:0:0:
144,199,102854,1,8,3:0:0:0:
39,112,103007,2,0,L|44:205,1,70,8|2,3:0|0:0,0:0:0:0:
122,113,103314,2,0,L|159:108,3,35
189,125,103620,6,0,P|232:124|279:112,1,70,2|0,0:0|0:0,0:0:0:0:
355,88,103926,1,0,0:0:0:0:
355,88,104079,1,2,0:0:0:0:
454,190,104232,2,0,L|375:181,1,70,8|0,3:0|0:0,0:0:0:0:
310,243,104538,2,0,L|231:252,1,70
91,224,104844,6,0,P|99:281|107:300,1,70,2|0,0:0|0:0,0:0:0:0:
191,364,105150,1,0,0:0:0:0:
217,362,105226,1,0,0:0:0:0:
243,361,105303,1,2,0:0:0:0:
269,359,105379,1,0,0:0:0:0:
295,358,105456,2,0,L|367:354,1,70,8|0,3:0|0:0,0:0:0:0:
290,255,105763,2,0,L|361:259,1,70
477,208,106069,5,2,0:0:0:0:
452,183,106145,1,0,0:0:0:0:
434,153,106222,1,0,0:0:0:0:
424,119,106298,1,0,0:0:0:0:
421,84,106375,1,0,0:0:0:0:
466,1,106528,1,2,0:0:0:0:
335,136,106681,2,0,P|263:127|226:139,1,105,8|0,3:0|0:0,0:0:0:0:
177,195,106987,2,0,P|234:150|251:115,1,105,2|0,0:0|0:0,0:0:0:0:
241,42,107293,5,8,0:0:0:0:
241,42,107395,2,0,L|155:33,1,46.6666666666667,8|8,0:0|0:0,0:0:0:0:
134,81,107599,1,8,0:0:0:0:
134,81,107701,2,0,L|48:72,1,46.6666666666667,8|8,0:0|0:0,0:0:0:0:
32,147,107905,5,10,0:3:0:0:
213,150,108058,1,10,0:3:0:0:
44,239,108211,5,10,0:3:0:0:
258,244,108364,1,10,0:3:0:0:
463,252,108518,6,0,P|451:222|449:180,1,70,2|2,0:0|0:0,0:0:0:0:
506,109,109130,2,0,L|399:95,1,105
328,66,109742,1,2,0:0:0:0:
328,66,109895,2,0,P|280:82|246:78,1,70,0|2,0:0|0:0,0:0:0:0:
181,56,110354,2,0,L|186:139,1,70
256,233,110967,5,2,0:0:0:0:
334,209,111273,1,2,0:0:0:0:
411,181,111579,2,0,L|409:260,1,70,0|8,0:0|0:0,0:0:0:0:
277,157,112191,5,2,0:0:0:0:
277,157,112344,2,0,P|225:172|194:171,1,70,0|8,0:0|0:0,0:0:0:0:
124,190,112803,2,0,P|153:225|171:272,1,70
28,188,113416,6,0,L|21:116,1,70,2|2,0:0|0:0,0:0:0:0:
75,22,114028,1,2,3:0:0:0:
75,22,114181,2,0,P|109:27|148:23,1,70
229,8,114640,1,2,0:0:0:0:
229,8,114793,2,0,P|224:71|229:98,1,70,0|2,0:0|0:0,0:0:0:0:
272,144,115252,2,0,L|353:138,1,70,2|0,3:0|0:0,0:0:0:0:
455,127,115865,5,2,0:0:0:0:
459,222,116171,1,2,0:0:0:0:
458,222,116324,2,0,L|453:269,1,35,8|2,0:0|3:0,0:0:0:0:
386,336,116783,1,8,0:0:0:0:
386,336,117089,1,0,0:0:0:0:
298,297,117395,1,0,0:0:0:0:
298,297,117548,2,0,L|262:289,1,35,8|2,0:0|3:0,0:0:0:0:
191,317,117854,5,8,0:0:0:0:
191,317,117931,1,8,0:0:0:0:
319,215,118084,1,8,0:0:0:0:
319,215,118160,1,8,0:0:0:0:
152,175,118314,6,0,P|139:116|142:20,1,140,4|2,0:0|0:0,0:0:0:0:
210,14,118773,1,0,0:0:0:0:
74,164,118926,2,0,P|30:158|5:148,1,70,8|0,3:0|0:0,0:0:0:0:
112,256,119232,2,0,P|68:262|43:272,1,70,2|0,0:0|0:0,0:0:0:0:
177,343,119538,5,2,0:0:0:0:
262,305,119691,2,0,P|267:246|259:206,1,70
223,155,119997,1,2,0:0:0:0:
358,270,120150,2,0,L|454:258,1,70,8|2,3:0|0:0,0:0:0:0:
498,136,120456,2,0,B|434:128|434:128|418:137|418:137|373:130,1,105
325,124,120763,6,0,L|316:37,1,70,2|0,0:0|0:0,0:0:0:0:
213,35,121069,2,0,L|220:104,1,70,0|2,0:0|0:0,0:0:0:0:
107,223,121375,2,0,B|170:205|170:205|177:210|177:210|251:192,1,140,8|0,3:0|0:0,0:0:0:0:
236,286,121834,1,0,0:0:0:0:
95,140,121987,5,0,0:0:0:0:
29,220,122140,2,0,P|38:271|65:300,1,70
139,322,122446,1,2,0:0:0:0:
325,247,122599,2,0,B|402:240|402:240|439:258,1,105,8|0,3:0|0:0,0:0:0:0:
349,340,122905,2,0,L|351:215,1,105
324,157,123211,6,0,L|397:163,1,70,2|0,0:0|0:0,0:0:0:0:
279,69,123518,1,0,0:0:0:0:
279,69,123671,1,2,0:0:0:0:
187,218,123824,2,0,P|178:177|184:132,1,70,8|0,3:0|0:0,0:0:0:0:
127,24,124130,2,0,P|149:59|185:86,1,70,2|0,0:0|0:0,0:0:0:0:
256,174,124436,5,2,0:0:0:0:
256,174,124589,2,0,L|326:169,1,70
294,257,124895,1,2,0:0:0:0:
405,107,125048,2,0,P|426:174|428:200,1,70,8|0,3:0|0:0,0:0:0:0:
384,264,125354,2,0,B|382:304|382:304|388:308|388:308|384:387,1,105
308,348,125660,6,0,L|205:333,1,105,2|0,0:0|0:0,0:0:0:0:
146,283,125967,2,0,L|249:268,1,105
310,202,126273,2,0,P|279:186|192:215,1,105,8|0,3:0|0:0,0:0:0:0:
203,212,126579,2,0,L|206:131,1,70,2|0,0:0|0:0,0:0:0:0:
215,52,126885,1,2,0:0:0:0:
93,138,127038,6,0,L|113:280,1,140,0|2,0:0|0:0,0:0:0:0:
16,243,127497,2,0,P|41:300|44:321,1,70,8|0,3:0|0:0,0:0:0:0:
217,250,127803,2,0,P|192:307|194:368,1,105,2|0,0:0|0:0,0:0:0:0:
256,377,128109,6,0,L|341:362,1,70,6|0,0:0|0:0,0:0:0:0:
439,280,128416,2,0,L|354:295,1,70,2|0,0:0|0:0,0:0:0:0:
281,170,128722,2,0,P|290:126|295:85,1,70,8|0,3:0|0:0,0:0:0:0:
236,14,129028,1,2,0:0:0:0:
236,14,129181,1,0,0:0:0:0:
129,108,129334,5,2,0:0:0:0:
129,108,129487,2,0,L|211:99,1,70
179,190,129793,1,2,0:0:0:0:
368,130,129946,2,0,P|375:186|371:209,1,70,8|2,3:0|0:0,0:0:0:0:
330,304,130252,2,0,B|394:288|394:288|408:293|408:293|449:281,1,105
499,261,130558,6,0,L|498:340,1,70,2|0,0:0|0:0,0:0:0:0:
330,304,130865,2,0,L|329:383,1,70,2|2,0:0|0:0,0:0:0:0:
214,249,131171,2,0,B|170:246|170:246|161:248|161:248|94:246,1,105,8|0,3:0|0:0,0:0:0:0:
41,280,131477,2,0,L|35:198,1,70,2|0,0:0|0:0,0:0:0:0:
84,92,131783,5,2,0:0:0:0:
84,92,131936,2,0,P|126:106|222:82,1,140,0|2,0:0|0:0,0:0:0:0:
352,25,132395,2,0,L|340:100,1,70,8|2,3:0|0:0,0:0:0:0:
451,94,132701,2,0,B|460:136|460:136|457:144|457:144|467:198,1,105
477,265,133007,6,0,L|473:342,1,70,2|0,0:0|0:0,0:0:0:0:
377,233,133314,2,0,L|373:310,1,70,0|2,0:0|0:0,0:0:0:0:
281,192,133620,2,0,P|249:169|142:173,1,140,8|2,3:0|0:0,0:0:0:0:
67,269,134079,6,0,P|135:277|196:244,1,140
224,140,134538,1,0,0:0:0:0:
224,140,134691,1,2,0:0:0:0:
50,73,134844,2,0,P|60:117|64:143,1,70,8|2,3:0|0:0,0:0:0:0:
197,244,135150,2,0,P|187:288|183:314,1,70
287,367,135456,6,0,P|331:353|414:356,1,105,2|0,0:0|0:0,0:0:0:0:
465,359,135763,2,0,P|451:319|443:289,1,70,2|0,0:0|0:0,0:0:0:0:
472,100,136069,1,10,3:0:0:0:
472,100,136222,2,0,L|346:83,1,105
131,160,136681,5,4,3:0:0:0:
347,172,136987,1,4,3:0:0:0:
131,160,137293,5,8,3:0:0:0:
427,177,137446,1,8,3:0:0:0:
57,151,137599,5,10,3:0:0:0:
347,172,137752,1,10,3:0:0:0:
84,224,137905,6,0,L|91:323,1,87.5,4|0,0:0|0:0,0:0:0:0:
210,170,138211,2,0,L|203:269,1,87.5,2|0,0:0|0:0,0:0:0:0:
124,91,138518,1,8,3:0:0:0:
282,32,138671,1,0,0:0:0:0:
104,7,138824,2,0,P|110:63|142:112,1,87.5,2|0,0:0|0:0,0:0:0:0:
408,157,139130,6,0,L|399:348,1,175,2|0,0:0|0:0,0:0:0:0:
329,368,139589,1,2,0:0:0:0:
471,70,139742,2,0,L|353:59,1,87.5,8|2,3:0|0:0,0:0:0:0:
245,176,140048,2,0,L|363:187,1,87.5
104,157,140354,6,0,L|113:348,1,175,2|2,0:0|0:0,0:0:0:0:
194,371,140814,1,0,0:0:0:0:
20,219,140967,2,0,L|13:113,1,87.5,8|0,3:0|0:0,0:0:0:0:
197,46,141273,2,0,P|146:24|113:-12,1,87.5,2|0,0:0|3:0,0:0:0:0:
299,157,141579,6,0,L|296:358,1,175,2|0,0:0|0:0,0:0:0:0:
376,367,142038,1,2,0:0:0:0:
491,153,142191,2,0,P|491:94|474:62,1,87.5,8|0,3:0|0:0,0:0:0:0:
301,38,142497,2,0,P|285:78|289:121,1,87.5,0|0,0:0|3:0,0:0:0:0:
104,183,142803,6,0,L|125:367,1,175,2|0,0:0|0:0,0:0:0:0:
196,248,143263,1,0,0:0:0:0:
196,248,143416,2,0,L|209:343,1,87.5,8|0,3:0|0:0,0:0:0:0:
299,235,143722,2,0,L|310:148,1,87.5,2|0,0:0|3:0,0:0:0:0:
131,104,144028,6,0,P|203:108|286:43,1,175,2|0,0:0|0:0,0:0:0:0:
185,15,144487,1,2,0:0:0:0:
68,175,144640,1,8,3:0:0:0:
68,175,144793,2,0,P|78:220|87:284,2,87.5,2|0|0,0:0|0:0|0:0,0:0:0:0:
36,331,145252,5,2,0:0:0:0:
187,210,145405,2,0,P|235:251|344:240,1,175,0|0,3:0|3:0,0:0:0:0:
255,111,145865,2,0,P|259:173|344:243,1,175,8|0,3:0|3:0,0:0:0:0:
356,137,146324,1,8,3:0:0:0:
495,274,146477,6,0,P|411:290|340:241,1,175,2|0,0:0|0:0,0:0:0:0:
435,178,146936,1,2,0:0:0:0:
428,373,147089,2,0,P|357:325|341:241,1,175,8|0,3:0|0:0,0:0:0:0:
429,37,147548,1,8,3:0:0:0:
215,156,147701,6,0,L|24:140,1,175,4|2,0:0|0:0,0:0:0:0:
30,48,148160,1,0,0:0:0:0:
51,236,148314,2,0,L|141:242,1,87.5,8|0,3:0|0:0,0:0:0:0:
259,63,148620,2,0,L|169:69,1,87.5,2|0,0:0|0:0,0:0:0:0:
421,185,148926,6,0,L|414:396,1,175,2|0,0:0|0:0,0:0:0:0:
328,369,149385,1,2,0:0:0:0:
158,258,149538,2,0,P|237:251|262:253,1,87.5,8|2,3:0|0:0,0:0:0:0:
334,145,149844,2,0,P|290:144|247:138,1,87.5
31,170,150150,6,0,L|44:373,1,175,2|2,0:0|0:0,0:0:0:0:
124,369,150609,1,0,0:0:0:0:
168,193,150763,2,0,P|179:295|181:305,1,87.5,8|0,3:0|0:0,0:0:0:0:
231,105,151069,2,0,P|333:116|343:118,1,87.5,2|0,0:0|3:0,0:0:0:0:
477,194,151375,6,0,L|468:383,1,175,0|2,0:0|0:0,0:0:0:0:
385,369,151834,1,0,0:0:0:0:
278,322,151987,2,0,P|274:248|273:227,1,87.5,8|0,3:0|0:0,0:0:0:0:
366,117,152293,2,0,P|362:191|361:212,1,87.5,0|2,0:0|0:0,0:0:0:0:
154,162,152599,6,0,L|161:368,1,175,2|2,0:0|0:0,0:0:0:0:
68,384,153058,1,0,0:0:0:0:
68,384,153211,2,0,P|57:330|62:295,1,87.5,8|0,3:0|0:0,0:0:0:0:
249,236,153518,6,0,P|260:182|255:147,1,87.5,2|0,0:0|3:0,0:0:0:0:
196,80,153824,1,0,0:0:0:0:
196,80,153977,1,0,0:0:0:0:
249,236,154130,2,0,P|307:217|342:218,1,87.5,0|2,0:0|0:0,0:0:0:0:
477,316,154436,1,8,3:0:0:0:
378,367,154589,2,0,L|191:363,1,175,2|0,0:0|0:0,0:0:0:0:
104,356,155048,5,2,0:0:0:0:
304,215,155201,2,0,P|313:171|309:128,1,87.5,8|0,3:0|3:0,0:0:0:0:
252,72,155507,1,0,0:0:0:0:
46,176,155660,2,0,L|223:167,1,175,8|2,3:0|0:0,0:0:0:0:
93,268,156120,1,8,3:0:0:0:
93,268,156273,5,0,0:0:0:0:
133,94,156426,2,0,L|123:8,1,87.5,8|0,3:0|0:0,0:0:0:0:
208,38,156732,1,2,0:0:0:0:
290,167,156885,2,0,L|280:81,1,87.5,8|0,3:0|0:0,0:0:0:0:
413,10,157191,5,8,3:0:0:0:
114,180,157344,1,8,3:0:0:0:
454,307,157497,6,0,P|376:288|244:302,1,175,4|2,0:0|0:0,0:0:0:0:
27,361,158109,2,0,L|42:262,1,87.5,8|0,3:0|0:0,0:0:0:0:
121,140,158416,2,0,L|106:41,1,87.5,2|0,0:0|0:0,0:0:0:0:
340,16,158722,6,0,P|380:112|360:194,1,175,2|0,0:0|0:0,0:0:0:0:
311,263,159181,1,2,0:0:0:0:
105,224,159334,1,8,3:0:0:0:
196,75,159487,1,2,0:0:0:0:
488,169,159946,6,0,P|448:265|376:309,1,175,2|2,0:0|0:0,0:0:0:0:
246,116,160558,2,0,P|214:191|198:223,1,87.5,8|0,3:0|0:0,0:0:0:0:
384,197,160865,2,0,P|307:228|273:239,1,87.5,2|0,0:0|0:0,0:0:0:0:
143,35,161171,6,0,P|103:131|123:213,1,175,2|0,0:0|0:0,0:0:0:0:
354,117,161783,2,0,P|295:61|281:54,1,87.5,8|0,3:0|0:0,0:0:0:0:
328,209,162089,2,0,P|247:211|232:216,1,87.5
18,219,162395,6,0,P|58:315|130:359,1,175,2|2,0:0|0:0,0:0:0:0:
389,188,163007,2,0,L|196:203,1,175,8|0,3:0|0:0,0:0:0:0:
53,84,163620,1,2,0:0:0:0:
287,2,163926,2,0,P|299:65|292:115,1,87.5,0|2,0:0|0:0,0:0:0:0:
128,144,164232,2,0,L|218:134,1,87.5,8|0,3:0|0:0,0:0:0:0:
410,60,164844,6,0,B|425:144|425:144|409:204|409:204|432:333,1,262.5,2|0,0:0|0:0,0:0:0:0:
506,181,165456,2,0,B|420:158|420:158|339:191,1,175,8|0,3:0|0:0,0:0:0:0:
256,235,165916,1,0,0:0:0:0:
178,283,166069,6,0,B|158:242|158:242|166:206|166:206|110:60,1,233.333333333333,2|0,0:0|0:0,0:0:0:0:
88,207,166681,2,0,B|158:159|158:159|255:167,1,155.555555555556,8|0,3:0|0:0,0:0:0:0:
357,221,167293,6,0,B|340:183|337:128|337:128|357:153|371:153|371:153|368:174|386:206|386:206|369:238|378:299,1,280
462,257,168824,2,0,P|475:217|450:124,1,140
275,261,169742,6,0,B|239:265|239:265|221:273|221:273|230:259|228:233|228:233|221:185|221:185|206:225|185:237|185:237|166:224|115:227,2,280
363,126,173722,6,0,P|333:94|230:78,1,140
122,150,174640,6,0,B|131:122|124:101|124:101|155:109|182:154|182:154|161:171|161:212|161:212|198:202|198:202|201:220|201:220|263:277,1,315.000012016297
424,195,175865,2,0,B|336:184|336:184|361:198|370:220|370:220|367:271|367:271|391:248|391:248|417:251|417:251|409:225,1,262.5
306,340,177089,5,0,0:0:0:0:
