osu file format v14

[General]
AudioFilename: audio.mp3
AudioLeadIn: 0
PreviewTime: 763
Countdown: 0
SampleSet: Soft
StackLeniency: 0.7
Mode: 0
LetterboxInBreaks: 0
EpilepsyWarning: 1
WidescreenStoryboard: 1

[Editor]
Bookmarks: 89021,106164,108536,118409,138000,157669
DistanceSpacing: 1.5
BeatDivisor: 4
GridSize: 4
TimelineZoom: 2.2

[Metadata]
Title:Burn It Down
TitleUnicode:Burn It Down
Artist:Daughter
ArtistUnicode:Daughter
Creator:sheela
Version:Easy
Source:Life Is Strange: Before the Storm
Tags:alternative soundtrack
BeatmapID:1387735
BeatmapSetID:652300

[Difficulty]
HPDrainRate:3
CircleSize:3
OverallDifficulty:2
ApproachRate:3
SliderMultiplier:0.5
SliderTickRate:0.5

[Events]
//Background and Video events
0,0,"bg.jpg",0,0
//Break Periods
2,64436,67282
2,108718,116874
//Storyboard Layer 0 (Background)
//Storyboard Layer 1 (Fail)
//Storyboard Layer 2 (Pass)
//Storyboard Layer 3 (Foreground)
//Storyboard Sound Samples

[TimingPoints]
763,306.122448979592,4,2,0,5,1,0
20354,-100,4,2,1,20,0,0
22191,-100,4,2,1,5,0,0
22803,-100,4,2,1,20,0,0
24640,-100,4,2,1,5,0,0
25252,-100,4,2,1,20,0,0
27089,-100,4,2,1,5,0,0
27701,-100,4,2,1,20,0,0
29538,-100,4,2,1,5,0,0
30150,-100,4,2,1,20,0,0
31987,-100,4,2,1,5,0,0
32599,-100,4,2,1,20,0,0
34436,-100,4,2,1,5,0,0
35048,-100,4,2,1,20,0,0
36885,-100,4,2,1,5,0,0
37497,-100,4,2,1,20,0,0
39334,-100,4,2,1,5,0,0
39793,-100,4,2,30,20,0,0
47446,-100,4,2,2,20,0,0
49742,-100,4,2,30,20,0,0
68722,-100,4,2,2,70,0,0
78365,-100,4,2,0,40,0,0
79130,-100,4,2,2,70,0,0
88926,-100,4,2,2,40,0,0
91375,-100,4,2,2,70,0,0
107293,-100,4,3,0,55,0,0
107905,-100,4,2,2,55,0,0
108518,-100,4,2,2,40,0,0
114028,-100,4,2,2,70,0,0
114181,-100,4,2,2,40,0,0
115252,-100,4,2,2,70,0,0
115329,-100,4,2,2,40,0,0
118314,-100,4,2,2,70,0,0
125584,-100,4,2,2,5,0,0
125660,-100,4,2,2,70,0,0
125890,-100,4,2,2,5,0,0
125967,-100,4,2,2,70,0,0
126196,-100,4,2,2,5,0,0
126273,-100,4,2,2,70,0,0
126502,-100,4,2,2,5,0,0
126579,-100,4,2,2,70,0,0
137446,-100,4,2,2,40,0,0
137599,-100,4,2,2,90,0,0
137905,-100,4,2,2,80,0,1
157191,-100,4,2,2,90,0,1
157344,-100,4,2,2,100,0,1
157497,-100,4,2,2,80,0,1
166069,-100,4,2,2,80,0,1
167293,-100,4,2,0,50,0,0
174640,-100,4,2,0,50,0,0
175865,-100,4,2,0,50,0,0
177089,-100,4,2,0,30,0,0
375507,-100,4,2,0,50,0,0

[Colours]
Combo1 : 59,59,59
Combo2 : 157,255,214
Combo3 : 125,70,106
Combo4 : 128,197,118

[HitObjects]
256,192,763,12,0,4436,0:0:0:0:
256,192,5660,12,0,9334,0:0:0:0:
256,192,10558,12,0,14232,0:0:0:0:
256,192,15456,12,0,19130,0:0:0:0:
256,41,20354,6,0,B|251:66|253:95|253:95|286:122|287:157|287:157|260:186|250:222|250:222|284:242|301:271|301:271|289:319,1,300,0|0,0:0|0:0,0:0:0:0:
178,373,22803,2,0,B|129:362|93:339|83:277|87:236|87:236|70:299|-4:317,1,300
15,174,25252,6,0,B|32:122|94:103|94:103|108:68|108:68|132:89|132:89|161:58|194:59|194:59|251:69,1,300
379,42,27701,2,0,B|394:99|359:136|359:136|372:186|372:186|440:153|481:170|523:191,1,300
431,299,30150,6,0,B|408:314|381:345|381:345|329:321|287:320|287:320|259:341|259:341|221:320|180:334|180:334|164:345,1,300
27,366,32599,2,0,B|14:320|18:268|18:268|40:237|40:237|54:211|54:211|77:163|33:64,1,300
171,32,35048,6,0,B|220:72|225:120|225:120|229:174|229:174|259:115|311:98|311:98|344:105,1,300
456,32,37497,2,0,P|529:163|484:307,1,300
361,355,39946,6,0,L|297:360,2,50
321,210,41171,2,0,L|385:215,2,50
213,105,42395,2,0,P|231:67|232:47,2,50
192,253,43620,2,0,P|210:291|211:311,2,50
62,329,44844,6,0,L|67:392,2,50
82,180,46069,2,0,L|19:185,2,50
230,161,47293,2,0,P|244:119|244:102,2,50,0|0|2,0:0|0:0|0:0,0:0:0:0:
94,95,48518,1,2,0:0:0:0:
225,22,49130,2,0,L|292:29,1,50,2|2,0:0|0:0,0:0:0:0:
329,85,49742,6,0,L|439:75,1,100
507,203,50967,2,0,P|504:254|504:321,1,100
363,248,52191,2,0,P|375:318|374:352,2,100
236,166,54028,2,0,L|176:172,1,50
124,222,54640,6,0,B|10:220,1,100
124,108,55865,2,0,P|102:92|53:31,1,100
205,22,57089,2,0,P|254:34|313:27,1,100
472,84,59538,6,0,L|357:79,1,100
332,224,60763,2,0,L|217:229,1,100
83,207,61987,2,0,P|96:272|104:316,1,100
244,350,63211,2,0,P|309:345|342:351,1,100
312,80,68722,5,2,3:0:0:0:
319,159,69028,1,2,3:0:0:0:
323,238,69334,6,0,L|261:245,1,50,4|0,0:0|0:0,0:0:0:0:
194,229,69946,2,0,P|189:274|199:340,1,100,8|2,3:0|0:0,0:0:0:0:
43,377,71171,2,0,L|34:319,1,50,8|0,3:0|0:0,0:0:0:0:
17,250,71783,2,0,P|-1:188|2:134,1,100,0|8,0:0|3:0,0:0:0:0:
137,72,73007,2,0,P|193:103|229:143,1,100,0|2,0:0|3:0,0:0:0:0:
243,286,74232,6,0,P|273:254|281:242,1,50,2|0,0:0|0:0,0:0:0:0:
334,194,74844,2,0,P|364:226|372:238,1,50,8|0,3:0|0:0,0:0:0:0:
392,306,75456,2,0,P|444:293|496:297,1,100,2|8,0:0|3:0,0:0:0:0:
441,142,76681,2,0,L|444:24,2,100,2|8|2,0:0|3:0|3:0,0:0:0:0:
321,249,78518,1,8,0:0:0:0:
252,208,78824,1,0,0:0:0:0:
186,162,79130,6,0,L|126:172,1,50,2|0,0:0|0:0,0:0:0:0:
103,242,79742,2,0,P|57:227|-2:229,1,100,8|2,3:0|0:0,0:0:0:0:
95,360,80967,2,0,L|155:351,1,50,8|0,3:0|0:0,0:0:0:0:
205,300,81579,2,0,L|259:296,1,50,2|0,0:0|0:0,0:0:0:0:
328,327,82191,2,0,B|379:329|379:329|435:359,1,100,8|0,3:0|0:0,0:0:0:0:
462,197,83416,2,0,P|459:172|452:148,1,50,8|0,3:0|0:0,0:0:0:0:
388,99,84028,6,0,P|434:89|487:61,1,100,2|8,0:0|3:0,0:0:0:0:
334,1,85252,2,0,P|327:22|325:57,1,50,2|0,0:0|0:0,0:0:0:0:
280,116,85865,2,0,P|234:105|219:105,1,50,8|0,3:0|0:0,0:0:0:0:
165,150,86477,2,0,P|139:161|64:151,2,100,2|8|2,0:0|3:0|0:0,0:0:0:0:
320,110,88314,1,2,3:0:0:0:
329,189,88620,1,2,3:0:0:0:
336,268,88926,6,0,B|267:286|267:286|215:262|215:262|138:282,1,200,2|2,0:0|0:0,0:0:0:0:
10,366,90763,1,0,0:0:0:0:
16,286,91069,1,0,0:0:0:0:
28,207,91375,6,0,L|22:146,1,50,4|2,0:0|0:0,0:0:0:0:
70,92,91987,2,0,L|131:98,1,50,8|8,3:0|3:0,0:0:0:0:
183,144,92599,2,0,P|237:177|291:164,1,100,2|8,0:0|3:0,0:0:0:0:
410,94,93824,6,0,L|419:146,1,50,2|0,0:0|0:0,0:0:0:0:
393,219,94436,2,0,L|379:324,1,100,8|2,3:0|0:0,0:0:0:0:
234,250,95660,2,0,L|163:237,1,50,8|0,3:0|0:0,0:0:0:0:
158,316,96273,2,0,P|103:343|65:346,1,100,2|8,0:0|3:0,0:0:0:0:
16,193,97497,1,2,3:0:0:0:
89,162,97803,1,2,3:0:0:0:
165,137,98109,2,0,L|173:71,1,50,8|0,0:0|0:0,0:0:0:0:
124,21,98722,6,0,B|178:34|178:34|242:17,1,100,2|8,0:0|3:0,0:0:0:0:
371,75,99946,2,0,P|374:118|377:138,1,50,2|0,0:0|0:0,0:0:0:0:
349,200,100558,2,0,P|389:206|416:217,1,50,8|0,3:0|0:0,0:0:0:0:
445,273,101171,2,0,L|440:393,1,100,2|8,0:0|3:0,0:0:0:0:
298,300,102395,2,0,L|191:301,1,100,0|8,0:0|3:0,0:0:0:0:
55,227,103620,6,0,P|32:180|27:164,1,50,2|0,0:0|0:0,0:0:0:0:
90,126,104232,2,0,P|137:103|153:98,1,50,8|0,3:0|0:0,0:0:0:0:
179,169,104844,2,0,P|214:173|280:158,1,100,2|8,0:0|3:0,0:0:0:0:
375,32,106069,2,0,P|326:19|277:22,1,100,2|8,0:0|3:0,0:0:0:0:
142,112,107293,5,8,0:0:0:0:
202,164,107599,1,8,0:0:0:0:
128,195,107905,1,10,0:3:0:0:
110,273,108211,1,10,0:3:0:0:
53,216,108518,1,2,0:0:0:0:
384,280,118314,6,0,L|385:213,1,50,4|2,0:0|0:0,0:0:0:0:
384,150,118926,2,0,P|346:136|279:146,1,100,8|2,3:0|0:0,0:0:0:0:
222,188,119844,1,0,0:0:0:0:
156,233,120150,2,0,L|85:228,1,50,8|0,3:0|0:0,0:0:0:0:
26,223,120763,2,0,L|35:339,2,100,2|8|0,0:0|3:0|0:0,0:0:0:0:
58,66,122599,1,8,3:0:0:0:
193,150,123211,6,0,L|257:161,1,50,2|0,0:0|0:0,0:0:0:0:
315,191,123824,2,0,P|321:230|320:257,1,50,8|2,3:0|0:0,0:0:0:0:
281,310,124436,1,2,0:0:0:0:
343,360,124742,2,0,P|392:372|396:372,2,50,0|8|0,0:0|3:0|0:0,0:0:0:0:
281,310,125660,2,0,B|240:315|240:315|200:305|199:305|168:313,2,100,2|8|2,0:0|3:0|0:0,0:0:0:0:
424,238,127497,1,8,3:0:0:0:
302,128,128109,6,0,L|249:124,1,50,6|2,0:0|0:0,0:0:0:0:
197,182,128722,2,0,L|144:186,1,50,8|2,3:0|0:0,0:0:0:0:
79,228,129334,2,0,P|76:284|78:334,1,100,2|8,0:0|3:0,0:0:0:0:
145,370,130252,1,0,0:0:0:0:
211,325,130558,2,0,P|251:299|266:291,1,50,2|2,0:0|0:0,0:0:0:0:
325,332,131171,2,0,L|440:330,1,100,8|2,3:0|0:0,0:0:0:0:
486,182,132395,1,8,3:0:0:0:
328,210,133007,6,0,L|263:211,1,50,2|0,0:0|0:0,0:0:0:0:
198,199,133620,2,0,P|189:171|185:142,1,50,8|2,3:0|0:0,0:0:0:0:
238,91,134232,2,0,P|245:53|244:42,2,50,0|0|8,0:0|0:0|3:0,0:0:0:0:
186,151,135150,1,0,0:0:0:0:
135,212,135456,2,0,B|88:219|88:219|37:204,1,100,2|10,0:0|3:0,0:0:0:0:
102,57,136681,1,4,3:0:0:0:
170,97,136987,1,4,3:0:0:0:
239,136,137293,2,0,L|245:195,1,50,8|10,3:0|3:0,0:0:0:0:
278,258,137905,6,0,P|327:263|374:249,1,100,4|8,0:0|3:0,0:0:0:0:
403,174,138824,1,2,0:0:0:0:
473,211,139130,2,0,L|480:269,1,50,2|0,0:0|0:0,0:0:0:0:
425,320,139742,2,0,P|404:292|392:266,1,50,8|0,3:0|0:0,0:0:0:0:
317,268,140354,2,0,L|326:382,2,100,2|8|2,0:0|3:0|0:0,0:0:0:0:
318,107,142191,2,0,P|286:101|268:104,1,50,8|0,3:0|0:0,0:0:0:0:
222,168,142803,6,0,L|202:284,1,100,2|8,0:0|3:0,0:0:0:0:
69,351,144028,1,2,0:0:0:0:
118,199,144640,1,8,3:0:0:0:
9,81,145252,2,0,L|7:20,1,50,2|0,0:0|0:0,0:0:0:0:
86,15,145865,2,0,L|147:13,1,50,8|0,3:0|3:0,0:0:0:0:
165,87,146477,2,0,P|214:91|224:89,1,50,2|0,0:0|0:0,0:0:0:0:
289,117,147089,2,0,P|293:68|291:58,1,50,8|0,3:0|0:0,0:0:0:0:
347,9,147701,6,0,L|450:7,1,100,4|8,0:0|3:0,0:0:0:0:
484,78,148620,1,2,0:0:0:0:
410,109,148926,2,0,L|421:168,1,50,2|0,0:0|0:0,0:0:0:0:
489,195,149538,1,8,3:0:0:0:
423,240,149844,1,0,0:0:0:0:
354,281,150150,2,0,L|348:400,1,100,2|8,0:0|3:0,0:0:0:0:
250,254,151375,2,0,L|256:373,1,100,0|8,0:0|3:0,0:0:0:0:
107,291,152599,6,0,P|57:307|13:329,1,100,2|8,0:0|3:0,0:0:0:0:
84,183,153824,1,0,0:0:0:0:
235,233,154436,1,8,3:0:0:0:
185,80,155048,2,0,L|240:76,1,50,2|0,0:0|3:0,0:0:0:0:
305,39,155660,2,0,P|329:74|336:86,1,50,8|2,3:0|0:0,0:0:0:0:
335,160,156273,2,0,L|265:154,1,50
205,165,156885,2,0,P|190:185|177:206,1,50,8|8,3:0|3:0,0:0:0:0:
182,286,157497,6,0,L|291:281,1,100,4|8,0:0|3:0,0:0:0:0:
311,206,158416,1,2,0:0:0:0:
390,207,158722,2,0,L|404:261,1,50,2|0,0:0|0:0,0:0:0:0:
386,333,159334,2,0,P|362:325|336:304,1,50,8|0,3:0|0:0,0:0:0:0:
269,277,159946,2,0,L|276:399,1,100,2|8,0:0|3:0,0:0:0:0:
151,273,161171,2,0,L|158:377,1,100,2|8,0:0|3:0,0:0:0:0:
47,256,162395,6,0,P|5:302|2:351,2,100,2|8|2,0:0|3:0|0:0,0:0:0:0:
206,246,164232,1,8,3:0:0:0:
344,166,164844,6,0,P|346:120|334:51,1,100,2|8,0:0|3:0,0:0:0:0:
185,18,166069,2,0,B|149:25|149:25|125:19|125:19|81:29,1,100,2|8,0:0|3:0,0:0:0:0:
14,170,167293,6,0,B|10:207|10:207|15:230|15:230|6:268|6:268|14:293|14:293|6:326|10:353|10:353|10:383,1,200
154,298,169130,1,0,0:0:0:0:
310,267,169742,6,0,B|363:267|363:267|380:285|380:285|413:269|431:273|431:273|417:291|418:315|418:315|436:358,2,200
141,99,174640,6,0,B|153:118|166:146|166:146|190:149|206:162|206:162|214:138|229:125|229:125|213:108|204:61,2,200
