osu file format v14

[General]
AudioFilename: audio.mp3
AudioLeadIn: 0
PreviewTime: -1
Countdown: 1
SampleSet: None
StackLeniency: 0.7
Mode: 0
LetterboxInBreaks: 0
WidescreenStoryboard: 0

[Editor]
DistanceSpacing: 1.5
BeatDivisor: 3
GridSize: 4
TimelineZoom: 1

[Metadata]
Title:Datsik 1000volts (Redman Jayceeoh) - Monster
TitleUnicode:Datsik 1000volts (Redman Jayceeoh) - Monster
Artist:Datsik 1000volts (Redman Jayceeoh) - Monster
ArtistUnicode:Datsik 1000volts (Redman Jayceeoh) - Monster
Creator:SAQ33KELS OTAKU
Version:Hard
Source:
Tags:
BeatmapID:1475537
BeatmapSetID:696621

[Difficulty]
HPDrainRate:5
CircleSize:5
OverallDifficulty:5
ApproachRate:5
SliderMultiplier:1.4
SliderTickRate:1

[Events]
//Background and Video events
0,0,"thumb-1920-719602.png",0,0
//Break Periods
2,61700,64299
//Storyboard Layer 0 (Background)
//Storyboard Layer 1 (Fail)
//Storyboard Layer 2 (Pass)
//Storyboard Layer 3 (Foreground)
//Storyboard Sound Samples

[TimingPoints]
0,500,4,1,0,100,1,0

[HitObjects]
36,88,666,6,0,P|184:36|272:120,1,280
100,92,3333,1,0,0:0:0:0:
136,156,3666,1,0,0:0:0:0:
192,144,4000,1,0,0:0:0:0:
224,112,4500,1,0,0:0:0:0:
260,76,4833,1,0,0:0:0:0:
304,72,5333,1,0,0:0:0:0:
340,104,5666,1,0,0:0:0:0:
376,156,6000,1,0,0:0:0:0:
392,192,6500,1,0,0:0:0:0:
396,240,6833,1,0,0:0:0:0:
360,280,7166,1,0,0:0:0:0:
156,172,7666,1,0,0:0:0:0:
292,324,7833,1,0,0:0:0:0:
396,208,8166,1,0,0:0:0:0:
244,124,8500,1,0,0:0:0:0:
124,196,8833,1,0,0:0:0:0:
104,280,9333,1,0,0:0:0:0:
140,332,9666,1,0,0:0:0:0:
216,340,10000,1,0,0:0:0:0:
268,316,10500,1,0,0:0:0:0:
296,268,10833,1,0,0:0:0:0:
304,212,11166,1,0,0:0:0:0:
296,160,11666,1,0,0:0:0:0:
252,136,12000,1,0,0:0:0:0:
188,152,12500,1,0,0:0:0:0:
140,200,12833,1,0,0:0:0:0:
96,248,13333,1,0,0:0:0:0:
100,288,13666,1,0,0:0:0:0:
196,316,14166,1,0,0:0:0:0:
468,192,14500,1,0,0:0:0:0:
28,152,14833,1,0,0:0:0:0:
208,296,15166,1,0,0:0:0:0:
396,40,15666,1,0,0:0:0:0:
152,52,16000,1,0,0:0:0:0:
68,280,16500,1,0,0:0:0:0:
296,356,16833,1,0,0:0:0:0:
476,228,17166,1,0,0:0:0:0:
420,48,17666,1,0,0:0:0:0:
168,56,18000,1,0,0:0:0:0:
44,280,18500,1,0,0:0:0:0:
180,352,18833,1,0,0:0:0:0:
364,300,19333,1,0,0:0:0:0:
396,100,19666,1,0,0:0:0:0:
184,64,20000,1,0,0:0:0:0:
76,296,20500,1,0,0:0:0:0:
152,360,20666,1,0,0:0:0:0:
204,348,20833,1,0,0:0:0:0:
296,192,21333,1,0,0:0:0:0:
64,112,21666,1,0,0:0:0:0:
76,272,22000,1,0,0:0:0:0:
352,276,22500,1,0,0:0:0:0:
360,64,22833,1,0,0:0:0:0:
28,264,23166,1,0,0:0:0:0:
264,344,23666,1,0,0:0:0:0:
440,176,24000,1,0,0:0:0:0:
180,48,24500,1,0,0:0:0:0:
40,256,24833,1,0,0:0:0:0:
196,352,25166,1,0,0:0:0:0:
464,200,25666,1,0,0:0:0:0:
308,48,26000,1,0,0:0:0:0:
132,216,26666,1,0,0:0:0:0:
352,304,27166,1,0,0:0:0:0:
252,108,27500,1,0,0:0:0:0:
64,160,27666,1,0,0:0:0:0:
104,280,28000,1,0,0:0:0:0:
364,232,28833,1,0,0:0:0:0:
92,84,29666,1,0,0:0:0:0:
432,336,30500,1,0,0:0:0:0:
268,128,31333,1,0,0:0:0:0:
184,312,32000,1,0,0:0:0:0:
432,136,32833,1,0,0:0:0:0:
160,216,33333,1,0,0:0:0:0:
160,216,33500,1,0,0:0:0:0:
396,64,34500,1,0,0:0:0:0:
256,320,35166,1,0,0:0:0:0:
100,72,36166,1,0,0:0:0:0:
388,296,36833,1,0,0:0:0:0:
260,56,37666,1,0,0:0:0:0:
84,312,38500,1,0,0:0:0:0:
480,312,39166,1,0,0:0:0:0:
104,180,39666,1,0,0:0:0:0:
332,132,40000,1,0,0:0:0:0:
248,308,40833,1,0,0:0:0:0:
256,80,41666,1,0,0:0:0:0:
452,216,42500,1,0,0:0:0:0:
96,216,43333,1,0,0:0:0:0:
252,332,44000,1,0,0:0:0:0:
248,88,44833,1,0,0:0:0:0:
400,220,45666,1,0,0:0:0:0:
288,188,46000,1,0,0:0:0:0:
144,184,46333,1,0,0:0:0:0:
460,208,47333,1,0,0:0:0:0:
248,72,48000,1,0,0:0:0:0:
248,328,48833,1,0,0:0:0:0:
112,208,49666,1,0,0:0:0:0:
120,208,49833,1,0,0:0:0:0:
192,224,50000,1,0,0:0:0:0:
192,224,50166,1,0,0:0:0:0:
400,176,50500,1,0,0:0:0:0:
296,72,50833,1,0,0:0:0:0:
136,196,51333,1,0,0:0:0:0:
244,312,51666,1,0,0:0:0:0:
384,208,52000,1,0,0:0:0:0:
284,156,52500,1,0,0:0:0:0:
256,192,53666,12,0,61500,0:0:0:0:
76,48,65499,5,0,0:0:0:0:
228,256,65666,1,0,0:0:0:0:
352,104,65833,1,0,0:0:0:0:
84,196,66000,1,0,0:0:0:0:
344,328,66166,1,0,0:0:0:0:
224,76,66666,1,0,0:0:0:0:
268,160,66833,1,0,0:0:0:0:
396,84,67333,1,0,0:0:0:0:
168,196,67666,1,0,0:0:0:0:
344,304,68166,1,0,0:0:0:0:
448,80,68500,1,0,0:0:0:0:
80,216,68833,1,0,0:0:0:0:
416,332,69166,1,0,0:0:0:0:
272,48,69666,1,0,0:0:0:0:
112,240,70000,1,0,0:0:0:0:
436,304,70500,1,0,0:0:0:0:
436,96,70833,1,0,0:0:0:0:
140,192,71166,1,0,0:0:0:0:
140,192,71333,1,0,0:0:0:0:
184,200,71500,1,0,0:0:0:0:
208,208,71666,1,0,0:0:0:0:
372,88,72166,1,0,0:0:0:0:
340,288,72500,1,0,0:0:0:0:
28,80,72833,1,0,0:0:0:0:
96,280,73166,1,0,0:0:0:0:
444,112,73666,1,0,0:0:0:0:
428,272,74000,1,0,0:0:0:0:
136,44,74500,1,0,0:0:0:0:
80,280,74833,1,0,0:0:0:0:
484,100,75333,1,0,0:0:0:0:
432,296,75666,1,0,0:0:0:0:
104,32,76000,1,0,0:0:0:0:
56,264,76500,1,0,0:0:0:0:
452,28,76833,1,0,0:0:0:0:
460,216,77333,1,0,0:0:0:0:
164,168,77666,1,0,0:0:0:0:
376,340,78500,1,0,0:0:0:0:
336,24,79166,1,0,0:0:0:0:
176,232,79666,1,0,0:0:0:0:
104,80,80000,1,0,0:0:0:0:
312,268,80500,1,0,0:0:0:0:
416,136,80833,1,0,0:0:0:0:
56,176,81166,1,0,0:0:0:0:
112,240,81666,1,0,0:0:0:0:
364,240,82000,1,0,0:0:0:0:
328,52,82500,1,0,0:0:0:0:
76,280,82833,1,0,0:0:0:0:
376,356,83333,1,0,0:0:0:0:
396,168,83666,1,0,0:0:0:0:
92,192,84333,1,0,0:0:0:0:
208,232,84500,1,0,0:0:0:0:
272,256,84666,1,0,0:0:0:0:
352,136,85000,1,0,0:0:0:0:
156,28,85333,1,0,0:0:0:0:
16,280,85666,1,0,0:0:0:0:
324,320,86000,1,0,0:0:0:0:
376,120,86500,1,0,0:0:0:0:
152,148,86833,1,0,0:0:0:0:
144,336,87166,1,0,0:0:0:0:
400,280,87500,1,0,0:0:0:0:
84,132,88000,1,0,0:0:0:0:
264,268,88166,1,0,0:0:0:0:
328,92,88666,1,0,0:0:0:0:
108,200,89000,1,0,0:0:0:0:
200,312,89166,1,0,0:0:0:0:
388,148,89666,1,0,0:0:0:0:
220,212,89833,1,0,0:0:0:0:
360,340,90000,1,0,0:0:0:0:
400,152,90500,1,0,0:0:0:0:
280,188,90833,1,0,0:0:0:0:
144,264,91166,1,0,0:0:0:0:
256,56,92833,1,0,0:0:0:0:
252,324,93166,1,0,0:0:0:0:
424,172,93666,1,0,0:0:0:0:
116,212,94000,1,0,0:0:0:0:
176,328,94500,1,0,0:0:0:0:
352,280,94833,1,0,0:0:0:0:
340,104,95333,1,0,0:0:0:0:
68,172,95666,1,0,0:0:0:0:
136,280,96000,1,0,0:0:0:0:
192,292,96500,1,0,0:0:0:0:
396,224,96833,1,0,0:0:0:0:
216,48,97166,1,0,0:0:0:0:
224,276,97333,1,0,0:0:0:0:
376,124,98000,1,0,0:0:0:0:
160,192,98500,1,0,0:0:0:0:
248,296,99166,1,0,0:0:0:0:
428,96,100000,1,0,0:0:0:0:
160,240,100333,1,0,0:0:0:0:
280,348,100500,1,0,0:0:0:0:
324,172,100666,1,0,0:0:0:0:
64,224,101333,1,0,0:0:0:0:
176,316,101666,1,0,0:0:0:0:
332,264,102000,1,0,0:0:0:0:
168,204,102500,1,0,0:0:0:0:
152,136,102833,1,0,0:0:0:0:
260,100,103333,1,0,0:0:0:0:
316,276,103666,1,0,0:0:0:0:
56,120,104500,1,0,0:0:0:0:
72,200,104833,1,0,0:0:0:0:
124,264,105333,1,0,0:0:0:0:
256,76,105666,1,0,0:0:0:0:
420,288,106500,1,0,0:0:0:0:
76,188,107333,1,0,0:0:0:0:
224,336,107666,1,0,0:0:0:0:
312,200,107833,1,0,0:0:0:0:
176,76,108333,1,0,0:0:0:0:
128,276,108500,1,0,0:0:0:0:
408,176,109000,1,0,0:0:0:0:
356,256,109166,1,0,0:0:0:0:
88,116,109833,1,0,0:0:0:0:
64,328,110000,1,0,0:0:0:0:
264,268,110333,1,0,0:0:0:0:
88,60,111166,1,0,0:0:0:0:
416,96,112000,1,0,0:0:0:0:
468,296,112833,1,0,0:0:0:0:
176,200,113333,1,0,0:0:0:0:
200,288,113666,1,0,0:0:0:0:
416,88,114500,1,0,0:0:0:0:
404,288,114833,1,0,0:0:0:0:
156,68,115666,1,0,0:0:0:0:
128,232,115833,1,0,0:0:0:0:
344,280,116166,1,0,0:0:0:0:
352,96,116500,1,0,0:0:0:0:
156,252,116833,1,0,0:0:0:0:
256,192,118500,12,0,125833,0:0:0:0:
120,104,128000,5,0,0:0:0:0:
396,228,128833,1,0,0:0:0:0:
320,276,128999,1,0,0:0:0:0:
92,280,129166,1,0,0:0:0:0:
112,28,129666,1,0,0:0:0:0:
412,244,129999,1,0,0:0:0:0:
108,240,130499,1,0,0:0:0:0:
384,80,130666,1,0,0:0:0:0:
392,88,130833,1,0,0:0:0:0:
68,68,131333,1,0,0:0:0:0:
296,264,131500,1,0,0:0:0:0:
456,132,131666,1,0,0:0:0:0:
252,28,132000,1,0,0:0:0:0:
116,208,132166,1,0,0:0:0:0:
336,312,132333,1,0,0:0:0:0:
436,128,132666,1,0,0:0:0:0:
340,176,132833,1,0,0:0:0:0:
152,232,133166,1,0,0:0:0:0:
92,32,133666,1,0,0:0:0:0:
324,288,133833,1,0,0:0:0:0:
324,292,134000,1,0,0:0:0:0:
336,72,134500,1,0,0:0:0:0:
144,304,134666,1,0,0:0:0:0:
304,352,134833,1,0,0:0:0:0:
388,228,135166,1,0,0:0:0:0:
300,184,135333,1,0,0:0:0:0:
256,160,135500,1,0,0:0:0:0:
80,144,135833,1,0,0:0:0:0:
120,264,136000,1,0,0:0:0:0:
396,312,136333,1,0,0:0:0:0:
352,64,136833,1,0,0:0:0:0:
152,200,137000,1,0,0:0:0:0:
232,284,137166,1,0,0:0:0:0:
424,112,137666,1,0,0:0:0:0:
192,156,137833,1,0,0:0:0:0:
268,240,138000,1,0,0:0:0:0:
416,296,138500,1,0,0:0:0:0:
124,344,138666,1,0,0:0:0:0:
140,104,139166,1,0,0:0:0:0:
396,200,139333,1,0,0:0:0:0:
412,320,139666,1,0,0:0:0:0:
48,196,140000,1,0,0:0:0:0:
248,72,140166,1,0,0:0:0:0:
296,316,140500,1,0,0:0:0:0:
136,192,141000,1,0,0:0:0:0:
168,192,141166,1,0,0:0:0:0:
408,176,141666,1,0,0:0:0:0:
128,320,142500,1,0,0:0:0:0:
256,116,142833,1,0,0:0:0:0:
404,296,143166,1,0,0:0:0:0:
200,296,143333,1,0,0:0:0:0:
136,200,143500,1,0,0:0:0:0:
368,88,144000,1,0,0:0:0:0:
436,328,144166,1,0,0:0:0:0:
256,352,144333,1,0,0:0:0:0:
324,104,144833,1,0,0:0:0:0:
384,244,145000,1,0,0:0:0:0:
152,296,145166,1,0,0:0:0:0:
112,120,145666,1,0,0:0:0:0:
192,140,145833,1,0,0:0:0:0:
312,264,146333,1,0,0:0:0:0:
336,96,146833,1,0,0:0:0:0:
156,176,147166,1,0,0:0:0:0:
288,336,147500,1,0,0:0:0:0:
244,136,148000,1,0,0:0:0:0:
244,136,148166,1,0,0:0:0:0:
244,136,148333,1,0,0:0:0:0:
244,136,148500,1,0,0:0:0:0:
244,136,148666,1,0,0:0:0:0:
384,212,148833,1,0,0:0:0:0:
272,308,149166,1,0,0:0:0:0:
152,80,149666,1,0,0:0:0:0:
304,228,150000,1,0,0:0:0:0:
128,240,150500,1,0,0:0:0:0:
300,332,150666,1,0,0:0:0:0:
408,112,150833,1,0,0:0:0:0:
244,64,151166,1,0,0:0:0:0:
288,252,151333,1,0,0:0:0:0:
392,236,151500,1,0,0:0:0:0:
184,124,152000,1,0,0:0:0:0:
276,240,152166,1,0,0:0:0:0:
348,248,152333,1,0,0:0:0:0:
192,148,152833,1,0,0:0:0:0:
244,216,153000,1,0,0:0:0:0:
424,24,153166,1,0,0:0:0:0:
64,88,153666,1,0,0:0:0:0:
244,224,153833,1,0,0:0:0:0:
392,184,154000,1,0,0:0:0:0:
120,96,154333,1,0,0:0:0:0:
120,100,154500,1,0,0:0:0:0:
120,100,154666,1,0,0:0:0:0:
140,120,154833,1,0,0:0:0:0:
284,180,155333,1,0,0:0:0:0:
336,208,155666,1,0,0:0:0:0:
280,280,156166,1,0,0:0:0:0:
120,256,156500,1,0,0:0:0:0:
144,140,156833,1,0,0:0:0:0:
144,140,157000,1,0,0:0:0:0:
144,140,157166,1,0,0:0:0:0:
184,152,157333,1,0,0:0:0:0:
184,152,157500,1,0,0:0:0:0:
184,152,157666,1,0,0:0:0:0:
188,156,157833,1,0,0:0:0:0:
204,168,158000,1,0,0:0:0:0:
332,256,158500,1,0,0:0:0:0:
332,256,158833,1,0,0:0:0:0:
312,216,159166,1,0,0:0:0:0:
260,168,159333,1,0,0:0:0:0:
168,236,159666,1,0,0:0:0:0:
200,260,159833,1,0,0:0:0:0:
204,260,160000,1,0,0:0:0:0:
352,132,160333,1,0,0:0:0:0:
292,152,160500,1,0,0:0:0:0:
80,128,160833,1,0,0:0:0:0:
108,156,161000,1,0,0:0:0:0:
128,188,161166,1,0,0:0:0:0:
360,296,161666,1,0,0:0:0:0:
364,304,162000,1,0,0:0:0:0:
360,304,162500,1,0,0:0:0:0:
364,304,162833,1,0,0:0:0:0:
116,72,163166,1,0,0:0:0:0:
116,72,163333,1,0,0:0:0:0:
116,72,163500,1,0,0:0:0:0:
112,80,163666,1,0,0:0:0:0:
144,192,164000,1,0,0:0:0:0:
184,212,164166,1,0,0:0:0:0:
264,192,164333,1,0,0:0:0:0:
304,168,164500,1,0,0:0:0:0:
240,248,164833,1,0,0:0:0:0:
240,248,165000,1,0,0:0:0:0:
232,248,165166,1,0,0:0:0:0:
184,228,165333,1,0,0:0:0:0:
120,92,165666,1,0,0:0:0:0:
140,88,165833,1,0,0:0:0:0:
160,124,166000,1,0,0:0:0:0:
336,180,166500,1,0,0:0:0:0:
336,192,166666,1,0,0:0:0:0:
312,240,166833,1,0,0:0:0:0:
304,256,167000,1,0,0:0:0:0:
176,272,167333,1,0,0:0:0:0:
176,272,167500,1,0,0:0:0:0:
144,240,167666,1,0,0:0:0:0:
240,36,169666,1,0,0:0:0:0:
468,224,170500,1,0,0:0:0:0:
76,320,171166,1,0,0:0:0:0:
496,12,172000,1,0,0:0:0:0:
468,324,172833,1,0,0:0:0:0:
56,24,173666,1,0,0:0:0:0:
304,164,174000,1,0,0:0:0:0:
284,236,174333,1,0,0:0:0:0:
264,232,174500,1,0,0:0:0:0:
88,52,175333,1,0,0:0:0:0:
96,232,175666,1,0,0:0:0:0:
344,156,176000,1,0,0:0:0:0:
360,240,176500,1,0,0:0:0:0:
356,296,176833,1,0,0:0:0:0:
304,328,177333,1,0,0:0:0:0:
208,316,177666,1,0,0:0:0:0:
72,28,178333,1,0,0:0:0:0:
256,116,179166,1,0,0:0:0:0:
472,112,180000,1,0,0:0:0:0:
372,276,180500,1,0,0:0:0:0:
176,156,180833,1,0,0:0:0:0:
232,212,181666,1,0,0:0:0:0:
336,252,182500,1,0,0:0:0:0:
420,140,183333,1,0,0:0:0:0:
256,192,184833,12,0,190878,0:0:0:0:
