osu file format v14

[General]
AudioFilename: Date A Live OST - Ground Zero (2).mp3
AudioLeadIn: 0
PreviewTime: -1
Countdown: 1
SampleSet: None
StackLeniency: 0.7
Mode: 3
LetterboxInBreaks: 1
SpecialStyle: 0
WidescreenStoryboard: 0

[Editor]
DistanceSpacing: 0.8
BeatDivisor: 4
GridSize: 32
TimelineZoom: 1

[Metadata]
Title:Date a live OST Rage Mode
TitleUnicode:Date a live OST Rage Mode
Artist:Date a live
ArtistUnicode:Date a live
Creator:Reikafernanda
Version:Easy
Source:
Tags:Rage Mode
BeatmapID:1366969
BeatmapSetID:645053

[Difficulty]
HPDrainRate:5
CircleSize:4
OverallDifficulty:2
ApproachRate:5
SliderMultiplier:1.4
SliderTickRate:1

[Events]
//Background and Video events
0,0,"wpe.jpg",0,0
//Break Periods
//Storyboard Layer 0 (Background)
//Storyboard Layer 1 (Fail)
//Storyboard Layer 2 (Pass)
//Storyboard Layer 3 (Foreground)
//Storyboard Sound Samples

[TimingPoints]
0,342.857142857143,4,1,0,100,1,0

[HitObjects]
192,192,771,5,0,0:0:0:0:
320,192,1200,1,0,0:0:0:0:
192,192,1542,1,0,0:0:0:0:
64,192,2057,1,0,0:0:0:0:
320,192,2571,1,0,0:0:0:0:
192,192,2914,1,0,0:0:0:0:
320,192,3428,1,0,0:0:0:0:
448,192,3942,1,0,0:0:0:0:
320,192,4285,1,0,0:0:0:0:
192,192,4800,1,0,0:0:0:0:
320,192,5314,1,0,0:0:0:0:
192,192,5625,1,0,0:0:0:0:
64,192,6171,1,0,0:0:0:0:
192,192,6685,1,0,0:0:0:0:
320,192,7028,1,0,0:0:0:0:
448,192,7542,1,0,0:0:0:0:
320,192,8057,1,0,0:0:0:0:
192,192,8400,1,0,0:0:0:0:
64,192,8914,1,0,0:0:0:0:
192,192,9428,1,0,0:0:0:0:
320,192,9771,1,0,0:0:0:0:
448,192,10285,1,0,0:0:0:0:
320,192,10714,1,0,0:0:0:0:
320,192,11125,1,0,0:0:0:0:
320,192,11571,128,0,15085:0:0:0:0:
320,192,15342,1,0,0:0:0:0:
192,192,15685,1,0,0:0:0:0:
64,192,16028,1,0,0:0:0:0:
192,192,16371,1,0,0:0:0:0:
320,192,16714,1,0,0:0:0:0:
448,192,17057,1,0,0:0:0:0:
320,192,17400,1,0,0:0:0:0:
192,192,17742,1,0,0:0:0:0:
64,192,18085,1,0,0:0:0:0:
320,192,18428,128,0,21600:0:0:0:0:
320,192,21857,1,0,0:0:0:0:
448,192,22200,1,0,0:0:0:0:
320,192,22542,1,0,0:0:0:0:
192,192,22885,1,0,0:0:0:0:
64,192,23228,1,0,0:0:0:0:
192,192,23571,1,0,0:0:0:0:
320,192,23914,1,0,0:0:0:0:
192,192,24514,1,0,0:0:0:0:
192,192,24857,1,0,0:0:0:0:
320,192,27085,1,0,0:0:0:0:
192,192,27428,1,0,0:0:0:0:
320,192,27771,1,0,0:0:0:0:
320,192,28800,1,0,0:0:0:0:
448,192,29142,1,0,0:0:0:0:
320,192,29485,1,0,0:0:0:0:
320,192,30514,1,0,0:0:0:0:
192,192,30857,1,0,0:0:0:0:
320,192,31200,1,0,0:0:0:0:
192,192,32250,1,0,0:0:0:0:
320,192,32571,1,0,0:0:0:0:
192,192,32914,1,0,0:0:0:0:
320,192,34000,1,0,0:0:0:0:
192,192,34285,1,0,0:0:0:0:
320,192,34628,1,0,0:0:0:0:
192,192,35657,1,0,0:0:0:0:
320,192,36000,1,0,0:0:0:0:
192,192,36342,1,0,0:0:0:0:
320,192,37371,1,0,0:0:0:0:
192,192,37714,1,0,0:0:0:0:
320,192,38057,1,0,0:0:0:0:
192,192,39000,1,0,0:0:0:0:
320,192,39342,1,0,0:0:0:0:
192,192,39685,1,0,0:0:0:0:
64,192,40628,1,0,0:0:0:0:
192,192,40971,1,0,0:0:0:0:
320,192,41314,1,0,0:0:0:0:
448,192,41657,1,0,0:0:0:0:
320,192,42000,1,0,0:0:0:0:
192,192,42342,1,0,0:0:0:0:
64,192,42685,1,0,0:0:0:0:
192,192,43028,1,0,0:0:0:0:
320,192,43371,1,0,0:0:0:0:
448,192,43714,1,0,0:0:0:0:
320,192,44057,1,0,0:0:0:0:
192,192,44400,1,0,0:0:0:0:
320,192,44750,128,0,48000:0:0:0:0:
320,192,48257,1,0,0:0:0:0:
192,192,48600,1,0,0:0:0:0:
64,192,48942,1,0,0:0:0:0:
192,192,49285,1,0,0:0:0:0:
320,192,49628,1,0,0:0:0:0:
448,192,49971,1,0,0:0:0:0:
320,192,50314,1,0,0:0:0:0:
192,192,50742,1,0,0:0:0:0:
192,192,51514,1,0,0:0:0:0:
320,192,52200,1,0,0:0:0:0:
192,192,52875,1,0,0:0:0:0:
64,192,53571,1,0,0:0:0:0:
192,192,54257,1,0,0:0:0:0:
320,192,54942,1,0,0:0:0:0:
448,192,55628,1,0,0:0:0:0:
320,192,56314,1,0,0:0:0:0:
192,192,57000,1,0,0:0:0:0:
64,192,57600,1,0,0:0:0:0:
192,192,58285,1,0,0:0:0:0:
320,192,58971,1,0,0:0:0:0:
448,192,59657,1,0,0:0:0:0:
320,192,60342,1,0,0:0:0:0:
192,192,61028,1,0,0:0:0:0:
64,192,61714,1,0,0:0:0:0:
64,192,62375,1,0,0:0:0:0:
192,192,63085,1,0,0:0:0:0:
192,192,63771,128,0,74400:0:0:0:0:
320,192,74742,1,0,0:0:0:0:
192,192,75342,1,0,0:0:0:0:
64,192,75857,1,0,0:0:0:0:
192,192,76714,1,0,0:0:0:0:
320,192,77400,1,0,0:0:0:0:
448,192,78085,1,0,0:0:0:0:
320,192,78600,1,0,0:0:0:0:
192,192,79714,1,0,0:0:0:0:
64,192,80142,1,0,0:0:0:0:
192,192,80828,1,0,0:0:0:0:
320,192,81342,1,0,0:0:0:0:
192,192,82114,1,0,0:0:0:0:
64,192,82885,1,0,0:0:0:0:
192,192,83571,1,0,0:0:0:0:
320,192,84257,1,0,0:0:0:0:
192,192,84942,1,0,0:0:0:0:
64,192,85628,1,0,0:0:0:0:
192,192,86571,1,0,0:0:0:0:
320,192,88285,1,0,0:0:0:0:
448,192,89314,1,0,0:0:0:0:
320,192,91028,1,0,0:0:0:0:
192,192,92057,1,0,0:0:0:0:
64,192,93771,1,0,0:0:0:0:
448,192,94457,1,0,0:0:0:0:
64,192,95142,1,0,0:0:0:0:
448,192,95828,1,0,0:0:0:0:
320,192,96500,128,0,97750:0:0:0:0:
320,192,97885,1,0,0:0:0:0:
192,192,98400,1,0,0:0:0:0:
320,192,98914,1,0,0:0:0:0:
320,192,99600,1,0,0:0:0:0:
192,192,100028,1,0,0:0:0:0:
320,192,100542,1,0,0:0:0:0:
192,192,101228,1,0,0:0:0:0:
320,192,101657,1,0,0:0:0:0:
192,192,102171,1,0,0:0:0:0:
64,192,102600,1,0,0:0:0:0:
192,192,103371,1,0,0:0:0:0:
64,192,103885,1,0,0:0:0:0:
192,192,104314,1,0,0:0:0:0:
192,192,105000,1,0,0:0:0:0:
192,192,105342,1,0,0:0:0:0:
192,192,106028,1,0,0:0:0:0:
320,192,106542,1,0,0:0:0:0:
448,192,107742,1,0,0:0:0:0:
192,192,108257,1,0,0:0:0:0:
64,192,109371,1,0,0:0:0:0:
192,192,109971,1,0,0:0:0:0:
320,192,110750,1,0,0:0:0:0:
448,192,111514,1,0,0:0:0:0:
320,192,112200,1,0,0:0:0:0:
192,192,112885,1,0,0:0:0:0:
320,192,113571,1,0,0:0:0:0:
448,192,114257,1,0,0:0:0:0:
320,192,114857,1,0,0:0:0:0:
192,192,115542,1,0,0:0:0:0:
64,192,116228,1,0,0:0:0:0:
192,192,116914,1,0,0:0:0:0:
320,192,117600,1,0,0:0:0:0:
448,192,118285,1,0,0:0:0:0:
320,192,118971,1,0,0:0:0:0:
192,192,119657,1,0,0:0:0:0:
64,192,120342,1,0,0:0:0:0:
192,192,121028,1,0,0:0:0:0:
192,192,121750,128,0,129625:0:0:0:0:
320,192,129875,1,0,0:0:0:0:
192,192,130114,1,0,0:0:0:0:
