osu file format v14

[General]
AudioFilename: audio.mp3
AudioLeadIn: 0
PreviewTime: 218
Countdown: 0
SampleSet: Soft
StackLeniency: 0.2
Mode: 0
LetterboxInBreaks: 0
WidescreenStoryboard: 0

[Editor]
Bookmarks: 13940,27646,55075,82503,96217,109932,137360,151075,164789,192217,205932,220075
DistanceSpacing: 1.6
BeatDivisor: 8
GridSize: 8
TimelineZoom: 2.499999

[Metadata]
Title:Everything I Need
TitleUnicode:Everything I Need
Artist:DatPhoria
ArtistUnicode:DatPhoria
Creator:nitsuga5124
Version:Is a TAG2
Source:
Tags:
BeatmapID:1573211
BeatmapSetID:746433

[Difficulty]
HPDrainRate:5
CircleSize:4
OverallDifficulty:7
ApproachRate:8
SliderMultiplier:1.4
SliderTickRate:1

[Events]
//Background and Video events
0,0,"Resident Evil Vector Wallpaper by In2umniaKillH3r on DeviantArt.png",0,0
//Break Periods
//Storyboard Layer 0 (Background)
//Storyboard Layer 1 (Fail)
//Storyboard Layer 2 (Pass)
//Storyboard Layer 3 (Foreground)
//Storyboard Sound Samples

[TimingPoints]
218,857.142857142857,4,2,0,80,1,0

[Colours]
Combo1 : 18,124,255
Combo2 : 221,227,136

[HitObjects]
136,192,218,5,0,0:0:0:0:
384,192,325,5,0,0:0:0:0:
136,192,539,5,0,0:0:0:0:
384,192,646,5,0,0:0:0:0:
136,192,967,5,0,0:0:0:0:
384,192,1289,5,0,0:0:0:0:
136,192,1396,5,0,0:0:0:0:
384,192,1503,5,0,0:0:0:0:
136,192,1718,5,0,0:0:0:0:
384,192,1932,5,0,0:0:0:0:
136,192,2039,5,0,0:0:0:0:
384,192,2253,5,0,0:0:0:0:
136,192,2360,5,0,0:0:0:0:
384,192,2682,5,0,0:0:0:0:
136,192,3003,5,0,0:0:0:0:
384,192,3217,5,0,0:0:0:0:
136,192,3432,5,0,0:0:0:0:
384,192,3646,5,0,0:0:0:0:
136,192,3753,5,0,0:0:0:0:
384,192,3967,5,0,0:0:0:0:
136,192,4075,5,0,0:0:0:0:
384,192,4396,5,0,0:0:0:0:
136,192,4717,5,0,0:0:0:0:
384,192,4824,5,0,0:0:0:0:
136,192,4932,5,0,0:0:0:0:
384,192,5146,5,0,0:0:0:0:
136,192,5360,5,0,0:0:0:0:
384,192,5467,5,0,0:0:0:0:
136,192,5575,5,0,0:0:0:0:
384,192,5789,5,0,0:0:0:0:
136,192,6003,5,0,0:0:0:0:
384,192,6110,5,0,0:0:0:0:
136,192,6217,5,0,0:0:0:0:
384,192,6432,5,0,0:0:0:0:
136,192,6539,5,0,0:0:0:0:
384,192,6646,6,0,L|384:248,1,52.5,4|0,0:0|0:0,0:0:0:0:
256,72,7075,5,0,0:0:0:0:
256,320,7182,5,0,0:0:0:0:
256,72,7396,5,0,0:0:0:0:
256,320,7503,5,0,0:0:0:0:
256,72,7824,5,0,0:0:0:0:
256,320,8146,5,0,0:0:0:0:
256,72,8253,5,0,0:0:0:0:
256,320,8360,5,0,0:0:0:0:
256,72,8575,5,0,0:0:0:0:
256,320,8789,5,0,0:0:0:0:
256,72,8896,5,0,0:0:0:0:
256,320,9110,5,0,0:0:0:0:
256,72,9217,5,0,0:0:0:0:
256,320,9539,5,0,0:0:0:0:
256,72,9860,5,0,0:0:0:0:
256,320,10074,5,0,0:0:0:0:
256,72,10289,5,0,0:0:0:0:
256,320,10503,5,0,0:0:0:0:
256,72,10610,5,0,0:0:0:0:
256,320,10824,5,0,0:0:0:0:
256,72,10932,5,0,0:0:0:0:
256,320,11253,5,0,0:0:0:0:
256,72,11574,5,0,0:0:0:0:
256,320,11681,5,0,0:0:0:0:
256,72,11789,5,0,0:0:0:0:
256,320,12003,5,0,0:0:0:0:
256,72,12217,5,0,0:0:0:0:
256,320,12432,5,0,0:0:0:0:
256,72,12646,5,0,0:0:0:0:
256,320,12753,5,0,0:0:0:0:
256,72,12967,5,0,0:0:0:0:
256,320,13182,5,0,0:0:0:0:
256,72,13289,5,0,0:0:0:0:
256,320,13396,5,0,0:0:0:0:
256,72,13503,5,0,0:0:0:0:
256,320,13717,5,0,0:0:0:0:
256,72,13931,5,0,0:0:0:0:
262,99,14039,1,0,0:0:0:0:
278,152,14253,1,0,0:0:0:0:
285,179,14360,1,0,0:0:0:0:
309,259,14681,1,0,0:0:0:0:
325,340,15003,1,0,0:0:0:0:
330,312,15110,1,0,0:0:0:0:
336,284,15217,1,0,0:0:0:0:
351,230,15432,1,0,0:0:0:0:
365,175,15646,5,0,0:0:0:0:
372,147,15753,1,0,0:0:0:0:
392,94,15967,1,0,0:0:0:0:
403,68,16074,1,0,0:0:0:0:
337,121,16396,1,0,0:0:0:0:
274,176,16717,1,0,0:0:0:0:
234,215,16931,1,0,0:0:0:0:
191,251,17146,1,0,0:0:0:0:
151,290,17360,5,0,0:0:0:0:
129,308,17467,1,0,0:0:0:0:
83,340,17681,1,0,0:0:0:0:
60,357,17789,1,0,0:0:0:0:
85,276,18110,1,0,0:0:0:0:
115,197,18431,1,0,0:0:0:0:
118,169,18538,1,0,0:0:0:0:
122,141,18646,1,0,0:0:0:0:
384,192,18860,1,0,0:0:0:0:
136,192,19074,5,0,0:0:0:0:
384,192,19181,1,0,0:0:0:0:
136,192,19289,1,0,0:0:0:0:
384,192,19503,1,0,0:0:0:0:
136,192,19717,1,0,0:0:0:0:
384,192,19824,1,0,0:0:0:0:
136,192,19931,1,0,0:0:0:0:
384,192,20146,1,0,0:0:0:0:
136,192,20253,1,0,0:0:0:0:
384,192,20360,6,0,L|384:248,1,52.5,4|0,0:0|0:0,0:0:0:0:
256,72,20789,5,0,0:0:0:0:
256,320,20896,1,0,0:0:0:0:
256,72,21110,1,0,0:0:0:0:
256,320,21217,1,0,0:0:0:0:
256,72,21538,1,0,0:0:0:0:
256,320,21860,1,0,0:0:0:0:
256,72,21967,1,0,0:0:0:0:
256,320,22074,1,0,0:0:0:0:
256,72,22289,1,0,0:0:0:0:
256,320,22503,5,0,0:0:0:0:
256,72,22610,1,0,0:0:0:0:
256,320,22824,1,0,0:0:0:0:
256,72,22931,1,0,0:0:0:0:
256,320,23253,1,0,0:0:0:0:
256,72,23574,1,0,0:0:0:0:
256,320,23788,1,0,0:0:0:0:
256,72,24003,1,0,0:0:0:0:
256,320,24217,5,0,0:0:0:0:
256,72,24324,1,0,0:0:0:0:
256,320,24538,1,0,0:0:0:0:
256,72,24646,1,0,0:0:0:0:
256,320,24967,1,0,0:0:0:0:
256,72,25288,1,0,0:0:0:0:
256,320,25395,1,0,0:0:0:0:
256,72,25503,1,0,0:0:0:0:
256,320,25717,1,0,0:0:0:0:
256,72,25931,5,0,0:0:0:0:
256,320,26146,1,0,0:0:0:0:
256,72,26360,1,0,0:0:0:0:
256,320,26467,1,0,0:0:0:0:
256,72,26681,1,0,0:0:0:0:
256,320,26896,5,0,0:0:0:0:
256,72,27003,1,0,0:0:0:0:
256,320,27110,1,0,0:0:0:0:
256,72,27217,1,0,0:0:0:0:
256,320,27431,5,0,0:0:0:0:
256,72,27645,5,0,0:0:0:0:
