osu file format v14

[General]
AudioFilename: audio.mp3
AudioLeadIn: 0
PreviewTime: -1
Countdown: 1
SampleSet: None
StackLeniency: 0.7
Mode: 0
LetterboxInBreaks: 0
WidescreenStoryboard: 1

[Editor]
DistanceSpacing: 1
BeatDivisor: 16
GridSize: 4
TimelineZoom: 1

[Metadata]
Title:Busta Rhymes Goes To The Wii Shop Channel
TitleUnicode:Busta Rhymes Goes To The Wii Shop Channel
Artist:DatNiggaOvaDer
ArtistUnicode:DatNiggaOvaDer
Creator:Endigoo
Version:Gonna busta me?
Source:Wii Shop Channel
Tags:wii shop channel nintendo rap remix
BeatmapID:1450189
BeatmapSetID:685246

[Difficulty]
HPDrainRate:5
CircleSize:5
OverallDifficulty:5
ApproachRate:5
SliderMultiplier:1.99999990463257
SliderTickRate:1

[Events]
//Background and Video events
0,0,"indeks.jpg",0,0
//Break Periods
//Storyboard Layer 0 (Background)
//Storyboard Layer 1 (Fail)
//Storyboard Layer 2 (Pass)
//Storyboard Layer 3 (Foreground)
//Storyboard Sound Samples

[TimingPoints]
15841,500,4,2,0,100,1,0

[HitObjects]
83,153,91,1,0,0:0:0:0:
83,153,591,1,0,0:0:0:0:
115,148,872,1,0,0:0:0:0:
139,115,1559,1,8,0:0:0:0:
177,105,1778,1,8,0:0:0:0:
220,104,1966,1,0,0:0:0:0:
257,115,2153,1,0,0:0:0:0:
266,126,2372,1,0,0:0:0:0:
237,155,2809,1,8,0:0:0:0:
196,157,2966,1,0,0:0:0:0:
166,177,3153,1,0,0:0:0:0:
174,198,3372,1,0,0:0:0:0:
202,213,3559,1,0,0:0:0:0:
228,145,4591,1,8,0:0:0:0:
132,152,5247,1,0,0:0:0:0:
158,182,5434,1,0,0:0:0:0:
252,206,5841,1,0,0:0:0:0:
225,123,6216,1,8,0:0:0:0:
208,114,6403,1,0,0:0:0:0:
179,149,6591,1,0,0:0:0:0:
226,190,6997,1,0,0:0:0:0:
252,148,7216,1,0,0:0:0:0:
237,113,7403,1,0,0:0:0:0:
162,128,7809,1,0,0:0:0:0:
191,151,8028,1,0,0:0:0:0:
222,164,8216,1,0,0:0:0:0:
263,161,8434,1,0,0:0:0:0:
264,112,8653,1,0,0:0:0:0:
205,97,8841,1,4,0:0:0:0:
174,124,9059,1,0,0:0:0:0:
183,162,9278,1,0,0:0:0:0:
199,171,9497,1,0,0:0:0:0:
248,168,9716,1,0,0:0:0:0:
255,138,9872,1,0,0:0:0:0:
179,104,10247,1,0,0:0:0:0:
123,146,10622,1,0,0:0:0:0:
246,189,11028,1,8,0:0:0:0:
221,104,11466,1,0,0:0:0:0:
182,98,11622,1,0,0:0:0:0:
133,124,11841,1,0,0:0:0:0:
130,157,12059,1,0,0:0:0:0:
171,171,12247,1,0,0:0:0:0:
211,107,12622,1,0,0:0:0:0:
255,90,12841,1,0,0:0:0:0:
285,111,13059,1,0,0:0:0:0:
292,146,13278,1,8,0:0:0:0:
300,168,13466,1,0,0:0:0:0:
320,136,13841,1,2,0:0:0:0:
303,109,14028,1,0,0:0:0:0:
268,89,14247,1,0,0:0:0:0:
188,132,14653,1,2,0:0:0:0:
268,168,15059,1,0,0:0:0:0:
232,173,15247,1,0,0:0:0:0:
225,188,15466,1,8,0:0:0:0:
225,188,15653,1,8,0:0:0:0:
185,225,15809,1,8,0:0:0:0:
155,199,16247,1,0,0:0:0:0:
220,129,16653,1,8,0:0:0:0:
220,120,16841,1,8,0:0:0:0:
183,80,17028,1,8,0:0:0:0:
133,82,17434,1,2,0:0:0:0:
145,107,17622,1,2,0:0:0:0:
197,141,17841,1,0,0:0:0:0:
230,164,18059,1,0,0:0:0:0:
224,191,18278,1,2,0:0:0:0:
122,186,18466,1,2,0:0:0:0:
134,155,18684,1,2,0:0:0:0:
173,105,18903,1,0,0:0:0:0:
185,64,19091,1,0,0:0:0:0:
154,50,19278,1,0,0:0:0:0:
143,73,19497,1,0,0:0:0:0:
151,90,19778,1,0,0:0:0:0:
212,138,20247,1,2,0:0:0:0:
212,138,20403,1,2,0:0:0:0:
188,142,20622,1,2,0:0:0:0:
174,142,21028,1,4,0:0:0:0:
135,142,21403,1,0,0:0:0:0:
134,153,21622,1,0,0:0:0:0:
134,174,21809,1,0,0:0:0:0:
138,173,22028,1,4,0:0:0:0:
145,166,22216,1,4,0:0:0:0:
127,124,22622,1,0,0:0:0:0:
171,86,23028,1,0,0:0:0:0:
168,80,23216,1,4,0:0:0:0:
144,72,23372,1,4,0:0:0:0:
122,83,23591,1,4,0:0:0:0:
126,116,23872,1,0,0:0:0:0:
178,162,24247,1,0,0:0:0:0:
145,171,24653,1,12,0:0:0:0:
140,158,24841,1,0,0:0:0:0:
132,146,25028,1,0,0:0:0:0:
132,146,25184,1,0,0:0:0:0:
132,146,25403,1,8,0:0:0:0:
132,146,25841,1,12,0:0:0:0:
132,146,26247,1,12,0:0:0:0:
132,146,26653,1,12,0:0:0:0:
121,162,27059,1,0,0:0:0:0:
139,177,27247,1,0,0:0:0:0:
171,196,27466,1,0,0:0:0:0:
183,202,27622,1,0,0:0:0:0:
219,202,27809,1,0,0:0:0:0:
208,149,28247,1,0,0:0:0:0:
93,122,30247,1,0,0:0:0:0:
161,122,30466,1,0,0:0:0:0:
205,138,30684,1,0,0:0:0:0:
135,158,31059,1,8,0:0:0:0:
220,186,31434,1,0,0:0:0:0:
220,186,31591,1,0,0:0:0:0:
138,187,32028,1,8,0:0:0:0:
138,187,32184,1,8,0:0:0:0:
138,187,32653,1,4,0:0:0:0:
138,187,33059,1,4,0:0:0:0:
187,171,33497,1,2,0:0:0:0:
89,122,34059,1,0,0:0:0:0:
86,148,34247,1,0,0:0:0:0:
163,200,34622,1,2,0:0:0:0:
212,133,35216,1,0,0:0:0:0:
245,122,35434,1,0,0:0:0:0:
214,119,35841,1,2,0:0:0:0:
145,122,36247,1,0,0:0:0:0:
136,140,36466,1,2,0:0:0:0:
139,144,36653,1,2,0:0:0:0:
207,149,37278,1,0,0:0:0:0:
217,110,37497,1,0,0:0:0:0:
129,92,37841,1,2,0:0:0:0:
190,164,38403,1,2,0:0:0:0:
165,166,38591,1,2,0:0:0:0:
162,123,38997,1,2,0:0:0:0:
195,103,39184,1,2,0:0:0:0:
196,94,39309,1,0,0:0:0:0:
187,84,39434,1,0,0:0:0:0:
161,75,39591,1,0,0:0:0:0:
146,77,39747,1,0,0:0:0:0:
121,95,39872,1,0,0:0:0:0:
188,158,40434,1,0,0:0:0:0:
192,111,40716,1,0,0:0:0:0:
130,97,41028,1,0,0:0:0:0:
283,227,41653,1,0,0:0:0:0:
201,191,41872,1,0,0:0:0:0:
250,117,42184,1,0,0:0:0:0:
265,55,42591,1,0,0:0:0:0:
210,56,42778,1,0,0:0:0:0:
166,83,42966,1,0,0:0:0:0:
181,126,43216,1,0,0:0:0:0:
234,150,43434,1,0,0:0:0:0:
261,171,43622,1,0,0:0:0:0:
274,200,43809,1,0,0:0:0:0:
245,226,43997,1,0,0:0:0:0:
175,177,44278,1,0,0:0:0:0:
199,149,44466,1,0,0:0:0:0:
237,124,44684,1,2,0:0:0:0:
207,76,44809,1,0,0:0:0:0:
161,92,44966,1,0,0:0:0:0:
154,127,45216,1,0,0:0:0:0:
248,171,45466,1,0,0:0:0:0:
248,124,45684,1,0,0:0:0:0:
231,71,45809,1,0,0:0:0:0:
196,84,46278,1,2,0:0:0:0:
183,101,46434,1,0,0:0:0:0:
166,129,46591,1,0,0:0:0:0:
159,153,46747,1,0,0:0:0:0:
166,167,46903,1,0,0:0:0:0:
224,175,47059,1,0,0:0:0:0:
219,155,47216,1,2,0:0:0:0:
233,114,47372,1,0,0:0:0:0:
221,82,47559,1,0,0:0:0:0:
203,71,47716,1,2,0:0:0:0:
190,71,47841,1,2,0:0:0:0:
168,88,48028,1,2,0:0:0:0:
165,102,48153,1,0,0:0:0:0:
206,148,48528,1,0,0:0:0:0:
206,148,48934,1,0,0:0:0:0:
206,148,49341,1,0,0:0:0:0:
206,148,49559,1,0,0:0:0:0:
206,148,49747,1,0,0:0:0:0:
206,148,50091,1,2,0:0:0:0:
206,148,50372,1,0,0:0:0:0:
206,148,50559,1,0,0:0:0:0:
200,148,51716,1,0,0:0:0:0:
200,148,51841,1,0,0:0:0:0:
200,148,51903,1,0,0:0:0:0:
200,148,51997,1,0,0:0:0:0:
200,148,52716,1,0,0:0:0:0:
200,148,53091,1,0,0:0:0:0:
200,148,53278,1,0,0:0:0:0:
200,148,53434,1,2,0:0:0:0:
200,148,53841,1,0,0:0:0:0:
200,148,54434,1,0,0:0:0:0:
200,148,54622,1,0,0:0:0:0:
200,148,55028,1,0,0:0:0:0:
196,149,58247,1,0,0:0:0:0:
196,149,58341,1,0,0:0:0:0:
196,149,58434,1,0,0:0:0:0:
196,149,58528,1,0,0:0:0:0:
196,149,58622,1,0,0:0:0:0:
