osu file format v14

[General]
AudioFilename: audio.mp3
AudioLeadIn: 0
PreviewTime: -1
Countdown: 1
SampleSet: Soft
StackLeniency: 0.7
Mode: 0
LetterboxInBreaks: 0
WidescreenStoryboard: 0

[Editor]
Bookmarks: 33059
DistanceSpacing: 1.7
BeatDivisor: 4
GridSize: 8
TimelineZoom: 1

[Metadata]
Title:Busta Rhymes Goes To The Wii Shop Channel
TitleUnicode:Busta Rhymes Goes To The Wii Shop Channel
Artist:DatManOvaDer
ArtistUnicode:DatManOvaDer
Creator:Doomsdaddy
Version:Gangsta
Source:
Tags:rap wii soundtrack
BeatmapID:1792211
BeatmapSetID:857798

[Difficulty]
HPDrainRate:4
CircleSize:4
OverallDifficulty:8
ApproachRate:9.5
SliderMultiplier:2.5
SliderTickRate:1

[Events]
//Background and Video events
0,0,"maxresdefault (13).jpg",0,0
//Break Periods
//Storyboard Layer 0 (Background)
//Storyboard Layer 1 (Fail)
//Storyboard Layer 2 (Pass)
//Storyboard Layer 3 (Foreground)
//Storyboard Sound Samples

[TimingPoints]
1459,400,4,2,0,70,1,0
4659,-333.333333333333,4,2,0,70,0,0
7859,-100,4,2,0,70,0,0

[HitObjects]
51,153,1459,5,0,0:0:0:0:
246,232,1659,1,0,0:0:0:0:
118,265,1859,1,0,0:0:0:0:
214,107,2059,1,0,0:0:0:0:
204,332,2259,1,0,0:0:0:0:
204,332,2659,5,0,0:0:0:0:
371,187,2859,1,0,0:0:0:0:
330,323,3059,1,0,0:0:0:0:
246,122,3259,1,0,0:0:0:0:
421,285,3459,1,0,0:0:0:0:
421,285,3859,5,0,0:0:0:0:
333,250,3959,1,0,0:0:0:0:
246,215,4059,1,0,0:0:0:0:
159,180,4159,1,0,0:0:0:0:
72,145,4259,1,0,0:0:0:0:
72,145,4659,6,0,P|81:135|102:117,1,37.4999988555909
289,101,5059,1,0,0:0:0:0:
173,43,5259,1,0,0:0:0:0:
251,168,5459,2,0,P|272:177|297:177,1,37.4999988555909
369,56,5859,1,0,0:0:0:0:
209,109,6059,1,0,0:0:0:0:
359,226,6259,5,0,0:0:0:0:
126,313,6659,1,0,0:0:0:0:
246,329,6859,1,0,0:0:0:0:
132,194,7059,1,0,0:0:0:0:
126,313,7459,2,0,P|142:278|138:247,1,56.2499982833863
58,171,7859,6,0,P|67:141|127:88,1,62.5
158,56,8059,1,0,0:0:0:0:
356,188,8259,1,0,0:0:0:0:
180,181,8459,1,0,0:0:0:0:
238,160,8559,1,0,0:0:0:0:
278,113,8659,1,0,0:0:0:0:
332,83,8759,1,0,0:0:0:0:
393,87,8859,1,0,0:0:0:0:
442,125,8959,1,0,0:0:0:0:
463,183,9059,1,0,0:0:0:0:
450,211,9159,1,0,0:0:0:0:
438,240,9259,1,0,0:0:0:0:
426,269,9359,1,0,0:0:0:0:
413,298,9459,5,0,0:0:0:0:
334,337,9559,1,0,0:0:0:0:
265,281,9659,1,0,0:0:0:0:
288,195,9759,1,0,0:0:0:0:
327,184,9859,1,0,0:0:0:0:
353,154,9959,1,0,0:0:0:0:
340,65,10059,1,0,0:0:0:0:
252,51,10159,1,0,0:0:0:0:
225,136,10259,6,0,P|177:161|56:152,1,125
36,88,10559,1,0,0:0:0:0:
141,90,10659,2,0,P|164:128|147:241,1,125
106,333,10959,1,0,0:0:0:0:
97,235,11059,2,0,L|197:225,1,62.5
235,287,11259,5,0,0:0:0:0:
426,193,11459,2,0,P|394:137|287:138,1,125
251,169,11759,1,0,0:0:0:0:
308,253,11859,2,0,P|338:224|348:179,1,62.5
251,169,12059,2,0,P|240:128|206:97,1,62.5
121,142,12259,6,0,P|79:150|58:45,1,125
115,41,12559,1,0,0:0:0:0:
121,142,12659,2,0,B|116:190|116:190|142:298,1,125
199,329,12959,1,0,0:0:0:0:
255,263,13059,5,0,0:0:0:0:
292,214,13159,1,0,0:0:0:0:
349,190,13259,1,0,0:0:0:0:
411,198,13359,1,0,0:0:0:0:
459,236,13459,6,0,P|423:239|407:138,1,125
420,106,13759,1,0,0:0:0:0:
389,39,13859,1,0,0:0:0:0:
389,39,14059,1,0,0:0:0:0:
389,39,14259,2,0,P|348:42|305:78,1,62.5
254,123,14459,1,0,0:0:0:0:
44,98,14659,5,0,0:0:0:0:
94,62,14759,1,0,0:0:0:0:
155,54,14859,1,0,0:0:0:0:
213,76,14959,1,0,0:0:0:0:
254,123,15059,1,0,0:0:0:0:
213,166,15159,1,0,0:0:0:0:
155,151,15259,1,0,0:0:0:0:
141,93,15359,1,0,0:0:0:0:
185,53,15459,5,0,0:0:0:0:
403,112,15659,1,0,0:0:0:0:
231,253,15859,1,0,0:0:0:0:
311,79,16059,1,0,0:0:0:0:
329,138,16159,1,0,0:0:0:0:
347,198,16259,2,0,L|323:293,1,62.5
244,156,16459,2,0,L|228:95,1,62.5
107,232,16659,5,0,0:0:0:0:
137,237,16759,1,0,0:0:0:0:
168,242,16859,1,0,0:0:0:0:
199,247,16959,1,0,0:0:0:0:
230,252,17059,1,0,0:0:0:0:
88,122,17259,5,0,0:0:0:0:
149,341,17459,1,0,0:0:0:0:
319,213,17659,1,0,0:0:0:0:
320,181,17759,1,0,0:0:0:0:
332,153,17859,1,0,0:0:0:0:
312,95,17959,1,0,0:0:0:0:
259,65,18059,1,0,0:0:0:0:
199,78,18159,1,0,0:0:0:0:
193,136,18259,5,0,0:0:0:0:
227,219,18359,1,0,0:0:0:0:
177,294,18459,1,0,0:0:0:0:
87,295,18559,1,0,0:0:0:0:
36,221,18659,6,0,P|71:200|124:208,1,62.5
267,299,18859,2,0,P|302:320|355:312,1,62.5
464,176,19059,2,0,B|443:163|443:163|424:174|424:174|349:216|259:143,1,187.5
229,92,19459,1,0,0:0:0:0:
393,154,19659,5,0,0:0:0:0:
405,181,19759,1,0,0:0:0:0:
398,211,19859,1,0,0:0:0:0:
348,247,19959,1,0,0:0:0:0:
287,243,20059,1,0,0:0:0:0:
226,233,20159,1,0,0:0:0:0:
169,256,20259,2,0,P|164:292|183:325,1,62.5
266,160,20459,2,0,P|275:142|255:102,1,62.5
170,47,20659,5,0,0:0:0:0:
143,63,20759,1,0,0:0:0:0:
124,88,20859,1,0,0:0:0:0:
114,117,20959,1,0,0:0:0:0:
113,148,21059,1,0,0:0:0:0:
171,125,21159,1,0,0:0:0:0:
231,137,21259,1,0,0:0:0:0:
277,178,21359,1,0,0:0:0:0:
293,238,21459,5,0,0:0:0:0:
267,200,21559,1,0,0:0:0:0:
270,155,21659,1,0,0:0:0:0:
302,122,21759,1,0,0:0:0:0:
348,117,21859,1,0,0:0:0:0:
378,70,21959,1,0,0:0:0:0:
330,42,22059,5,0,0:0:0:0:
324,102,22159,1,0,0:0:0:0:
363,148,22259,1,0,0:0:0:0:
387,205,22359,1,0,0:0:0:0:
369,263,22459,1,0,0:0:0:0:
300,307,22559,1,0,0:0:0:0:
229,264,22659,5,0,0:0:0:0:
199,252,22759,1,0,0:0:0:0:
168,249,22859,1,0,0:0:0:0:
138,253,22959,1,0,0:0:0:0:
109,264,23059,1,0,0:0:0:0:
54,238,23159,1,0,0:0:0:0:
34,181,23259,1,0,0:0:0:0:
60,126,23359,1,0,0:0:0:0:
118,107,23459,5,0,0:0:0:0:
171,139,23559,1,0,0:0:0:0:
233,148,23659,1,0,0:0:0:0:
293,133,23759,1,0,0:0:0:0:
342,95,23859,1,0,0:0:0:0:
287,67,23959,1,0,0:0:0:0:
225,68,24059,1,0,0:0:0:0:
171,97,24159,1,0,0:0:0:0:
136,149,24259,5,0,0:0:0:0:
144,179,24359,1,0,0:0:0:0:
152,209,24459,1,0,0:0:0:0:
128,266,24559,1,0,0:0:0:0:
79,303,24659,5,0,0:0:0:0:
116,255,24759,1,0,0:0:0:0:
176,252,24859,1,0,0:0:0:0:
228,286,24959,1,0,0:0:0:0:
289,294,25059,1,0,0:0:0:0:
333,252,25159,1,0,0:0:0:0:
334,191,25259,1,0,0:0:0:0:
301,141,25359,1,0,0:0:0:0:
325,86,25459,6,0,P|386:105|445:292,2,250
205,187,26459,1,0,0:0:0:0:
174,192,26559,1,0,0:0:0:0:
143,197,26659,1,0,0:0:0:0:
145,288,26759,1,0,0:0:0:0:
214,347,26859,1,0,0:0:0:0:
304,333,26959,1,0,0:0:0:0:
352,256,27059,5,0,0:0:0:0:
337,229,27159,1,0,0:0:0:0:
329,199,27259,1,0,0:0:0:0:
330,167,27359,1,0,0:0:0:0:
338,138,27459,1,0,0:0:0:0:
317,160,27559,1,0,0:0:0:0:
290,176,27659,1,0,0:0:0:0:
260,186,27759,1,0,0:0:0:0:
229,188,27859,5,0,0:0:0:0:
170,179,27959,1,0,0:0:0:0:
127,222,28059,1,0,0:0:0:0:
137,281,28159,1,0,0:0:0:0:
190,309,28259,1,0,0:0:0:0:
246,281,28359,1,0,0:0:0:0:
308,272,28459,2,0,B|343:237|343:237|372:243|401:227|401:227|469:184|412:121|341:191,1,250
285,161,28959,1,0,0:0:0:0:
210,140,29059,5,0,0:0:0:0:
179,135,29159,1,0,0:0:0:0:
148,138,29259,1,0,0:0:0:0:
119,150,29359,1,0,0:0:0:0:
94,168,29459,1,0,0:0:0:0:
131,197,29559,1,0,0:0:0:0:
168,225,29659,1,0,0:0:0:0:
153,281,29759,1,0,0:0:0:0:
95,280,29859,5,0,0:0:0:0:
81,224,29959,1,0,0:0:0:0:
131,197,30059,1,0,0:0:0:0:
192,211,30159,1,0,0:0:0:0:
252,226,30259,1,0,0:0:0:0:
313,241,30359,1,0,0:0:0:0:
374,255,30459,5,0,0:0:0:0:
317,278,30559,1,0,0:0:0:0:
260,258,30659,1,0,0:0:0:0:
230,205,30759,1,0,0:0:0:0:
243,145,30859,1,0,0:0:0:0:
266,125,30959,1,0,0:0:0:0:
296,119,31059,5,0,0:0:0:0:
254,98,31159,1,0,0:0:0:0:
208,90,31259,1,0,0:0:0:0:
162,97,31359,1,0,0:0:0:0:
120,117,31459,1,0,0:0:0:0:
168,154,31559,1,0,0:0:0:0:
165,214,31659,5,0,0:0:0:0:
111,239,31759,1,0,0:0:0:0:
111,298,31859,1,0,0:0:0:0:
165,326,31959,1,0,0:0:0:0:
226,315,32059,5,0,0:0:0:0:
253,238,32159,1,0,0:0:0:0:
323,194,32259,1,0,0:0:0:0:
404,202,32359,1,0,0:0:0:0:
443,277,32459,5,0,0:0:0:0:
362,259,32559,1,0,0:0:0:0:
301,204,32659,2,0,P|265:170|157:147,1,125
114,210,32959,1,0,0:0:0:0:
188,265,33059,1,0,0:0:0:0:
125,72,33259,1,0,0:0:0:0:
71,297,33459,1,0,0:0:0:0:
337,236,33659,6,0,P|316:216|256:214,1,62.5
358,324,33859,2,0,P|400:298|406:258,1,62.5
383,169,34059,1,0,0:0:0:0:
383,169,34159,1,0,0:0:0:0:
383,169,34259,6,0,P|388:130|366:98,1,62.5
223,211,34459,2,0,P|253:215|292:202,1,62.5
283,110,34659,1,0,0:0:0:0:
283,110,34759,1,0,0:0:0:0:
283,110,34859,6,0,P|250:95|218:98,1,62.5
100,140,35059,2,0,P|121:158|126:192,1,62.5
71,338,35259,1,0,0:0:0:0:
62,308,35359,1,0,0:0:0:0:
71,279,35459,2,0,P|128:268|237:308,1,125
264,338,35759,1,0,0:0:0:0:
332,280,35859,1,0,0:0:0:0:
196,152,36059,2,0,B|254:131|254:131|316:188|316:188|216:224|216:224|181:307,1,312.5
114,335,36659,5,0,0:0:0:0:
47,159,36859,2,0,L|128:178,1,62.5
234,64,37059,2,0,L|167:90,1,62.5
229,191,37259,1,0,0:0:0:0:
229,191,37359,1,0,0:0:0:0:
229,191,37459,6,0,P|249:216|250:259,1,62.5
165,346,37659,2,0,P|171:298|187:269,1,62.5
331,214,37859,1,0,0:0:0:0:
331,214,37959,1,0,0:0:0:0:
331,214,38059,6,0,L|427:222,1,62.5
479,114,38259,2,0,L|397:122,1,62.5
281,77,38459,1,0,0:0:0:0:
450,262,38659,2,0,P|465:230|445:172,1,62.5
398,47,38859,1,0,0:0:0:0:
450,262,39059,6,0,B|420:250|420:250|271:289,1,125
247,306,39359,1,0,0:0:0:0:
169,332,39459,1,0,0:0:0:0:
359,346,39659,1,0,0:0:0:0:
136,238,39859,1,0,0:0:0:0:
136,238,39959,1,0,0:0:0:0:
136,238,40059,6,0,P|126:204|153:150,1,62.5
266,164,40259,2,0,P|279:133|326:110,1,62.5
440,176,40459,1,0,0:0:0:0:
440,176,40559,1,0,0:0:0:0:
440,176,40659,6,0,P|424:205|369:232,1,62.5
233,271,40859,2,0,P|275:249|310:245,1,62.5
398,335,41059,1,0,0:0:0:0:
398,335,41159,1,0,0:0:0:0:
398,335,41259,6,0,P|375:317|346:250,1,62.5
240,187,41459,2,0,P|264:167|268:69,1,125
191,48,41759,1,0,0:0:0:0:
121,98,41859,1,0,0:0:0:0:
115,128,41959,1,0,0:0:0:0:
109,159,42059,1,0,0:0:0:0:
104,190,42159,1,0,0:0:0:0:
98,221,42259,6,0,P|127:252|184:247,1,62.5
221,323,42459,2,0,B|272:293|272:293|466:331,1,250
409,343,42959,1,0,0:0:0:0:
418,292,43059,1,0,0:0:0:0:
427,245,43159,1,0,0:0:0:0:
434,194,43259,6,0,P|420:172|355:175,1,62.5
269,90,43459,2,0,P|242:91|213:148,1,62.5
294,219,43659,1,0,0:0:0:0:
294,219,43859,6,0,L|317:152,1,62.5
196,279,44059,2,0,L|189:193,1,62.5
113,339,44259,1,0,0:0:0:0:
113,339,44459,6,0,L|195:347,1,62.5
54,228,44659,2,0,L|134:217,1,62.5
46,115,44859,1,0,0:0:0:0:
59,87,44959,1,0,0:0:0:0:
85,70,45059,1,0,0:0:0:0:
321,194,45259,5,0,0:0:0:0:
125,142,45459,2,0,P|164:134|211:109,1,62.5
287,77,45659,2,0,P|264:58|203:23,1,62.5
245,174,45859,2,0,P|243:206|261:241,1,62.5
335,290,46059,1,0,0:0:0:0:
335,290,46259,5,0,0:0:0:0:
340,243,46359,1,0,0:0:0:0:
364,203,46459,1,0,0:0:0:0:
401,176,46559,1,0,0:0:0:0:
447,166,46659,1,0,0:0:0:0:
404,185,46759,1,0,0:0:0:0:
358,186,46859,1,0,0:0:0:0:
314,170,46959,1,0,0:0:0:0:
281,137,47059,5,0,0:0:0:0:
231,175,47159,1,0,0:0:0:0:
180,212,47259,1,0,0:0:0:0:
130,249,47359,1,0,0:0:0:0:
80,286,47459,5,0,0:0:0:0:
136,268,47559,1,0,0:0:0:0:
138,210,47659,1,0,0:0:0:0:
124,150,47759,1,0,0:0:0:0:
152,96,47859,1,0,0:0:0:0:
182,106,47959,1,0,0:0:0:0:
213,108,48059,1,0,0:0:0:0:
263,90,48159,1,0,0:0:0:0:
300,50,48259,5,0,0:0:0:0:
355,75,48359,1,0,0:0:0:0:
384,129,48459,1,0,0:0:0:0:
374,190,48559,1,0,0:0:0:0:
329,232,48659,1,0,0:0:0:0:
348,175,48759,1,0,0:0:0:0:
405,158,48859,1,0,0:0:0:0:
451,196,48959,1,0,0:0:0:0:
446,256,49059,6,0,P|396:305|324:320,1,125
262,293,49359,1,0,0:0:0:0:
186,251,49459,1,0,0:0:0:0:
163,229,49559,1,0,0:0:0:0:
149,201,49659,1,0,0:0:0:0:
146,170,49759,1,0,0:0:0:0:
155,140,49859,1,0,0:0:0:0:
167,112,49959,1,0,0:0:0:0:
166,81,50059,1,0,0:0:0:0:
153,53,50159,1,0,0:0:0:0:
130,32,50259,5,0,0:0:0:0:
181,90,50359,1,0,0:0:0:0:
252,121,50459,1,0,0:0:0:0:
329,117,50559,1,0,0:0:0:0:
397,80,50659,1,0,0:0:0:0:
464,117,50759,1,0,0:0:0:0:
483,191,50859,1,0,0:0:0:0:
442,255,50959,1,0,0:0:0:0:
368,270,51059,6,0,P|329:259|156:294,1,187.5
250,345,51459,2,0,P|280:287|200:186,1,187.5
135,137,51859,2,0,B|158:109|158:109|263:73,1,125
313,112,52159,1,0,0:0:0:0:
387,138,52259,2,0,B|406:125|405:98|405:98|386:126|349:132|349:132|376:169|351:248,1,187.5
344,282,52659,1,0,0:0:0:0:
344,282,52859,6,0,L|252:275,1,62.5
120,328,53059,2,0,L|234:325,1,62.5
285,204,53259,5,0,0:0:0:0:
253,201,53359,1,0,0:0:0:0:
219,194,53459,2,0,L|207:100,1,62.5
298,33,53659,2,0,L|306:103,1,62.5
124,162,53859,1,0,0:0:0:0:
121,130,53959,1,0,0:0:0:0:
118,99,54059,1,0,0:0:0:0:
115,68,54159,1,0,0:0:0:0:
112,37,54259,6,0,P|87:53|62:117,1,62.5
124,162,54459,2,0,P|127:202|170:242,1,62.5
248,237,54659,2,0,P|277:258|314:255,1,62.5
443,174,54859,6,0,L|351:187,1,62.5
374,269,55059,2,0,L|477:255,1,62.5
449,94,55259,2,0,L|349:110,1,62.5
348,352,55459,2,0,L|457:337,1,62.5
435,260,55659,1,0,0:0:0:0:
313,58,55859,1,0,0:0:0:0:
214,218,56059,6,0,P|263:209|276:188,1,62.5
131,151,56259,2,0,P|111:146|66:197,1,62.5
50,262,56459,1,0,0:0:0:0:
226,124,56659,1,0,0:0:0:0:
330,342,56859,1,0,0:0:0:0:
284,331,56959,1,0,0:0:0:0:
238,321,57059,1,0,0:0:0:0:
192,311,57159,1,0,0:0:0:0:
146,301,57259,1,0,0:0:0:0:
149,241,57359,1,0,0:0:0:0:
199,207,57459,6,0,P|233:212|309:190,1,62.5
334,148,57659,1,0,0:0:0:0:
78,74,57859,1,0,0:0:0:0:
199,207,58059,1,0,0:0:0:0:
403,47,58259,1,0,0:0:0:0:
315,79,58359,1,0,0:0:0:0:
227,111,58459,1,0,0:0:0:0:
139,144,58559,1,0,0:0:0:0:
51,176,58659,1,0,0:0:0:0:
