osu file format v14

[General]
AudioFilename: audio.mp3
AudioLeadIn: 0
PreviewTime: 55655
Countdown: 0
SampleSet: Soft
StackLeniency: 0.7
Mode: 0
LetterboxInBreaks: 0
EpilepsyWarning: 1
WidescreenStoryboard: 1

[Editor]
DistanceSpacing: 2
BeatDivisor: 4
GridSize: 8
TimelineZoom: 1.4

[Metadata]
Title:Nakakapagpabagabag
TitleUnicode:Nakakapagpabagabag
Artist:Dasu feat. Kagamine Len
ArtistUnicode:Dasu feat. 鏡音レン
Creator:Spicy
Version:Troublesome
Source:
Tags:Tagalog Vocaloid
BeatmapID:1787521
BeatmapSetID:855497

[Difficulty]
HPDrainRate:6.2
CircleSize:4.2
OverallDifficulty:8
ApproachRate:9.2
SliderMultiplier:2.3
SliderTickRate:1

[Events]
//Background and Video events
0,0,"background.jpg",0,0
Video,0,"muvideo.net_【Kagamine Len鏡音レン】 Nakakapagpabagabag 【Original】.mp4"
//Break Periods
2,53165,55292
//Storyboard Layer 0 (Background)
//Storyboard Layer 1 (Fail)
//Storyboard Layer 2 (Pass)
//Storyboard Layer 3 (Foreground)
//Storyboard Sound Samples

[TimingPoints]
0,413.793103448276,4,2,0,100,1,0
6620,-66.6666666666667,4,2,0,100,0,0
7034,-100,4,2,0,100,0,0
13241,-100,4,1,0,100,0,0
47172,-66.6666666666667,4,1,0,100,0,0
47689,-100,4,1,0,100,0,0
56275,-100,4,1,0,100,0,1
58758,-66.6666666666667,4,1,0,100,0,1
59172,-100,4,1,0,100,0,1
70344,-66.6666666666667,4,1,0,100,0,1
70758,-100,4,1,0,100,0,1
72000,-66.6666666666667,4,1,0,100,0,1
72620,-100,4,1,0,100,0,1
76965,-66.6666666666667,4,1,0,100,0,1
77379,-100,4,1,0,100,0,1
82758,-25,4,1,0,100,0,0
83793,-100,4,1,0,100,0,0
84413,-66.6666666666667,4,1,0,100,0,0
85241,-100,4,1,0,100,0,0
96827,-66.6666666666667,4,3,0,100,0,0
110068,-100,4,1,0,100,0,1
136551,-100,4,1,0,100,0,0
149793,-100,4,1,0,100,0,1
163034,-100,4,1,0,100,0,0

[Colours]
Combo1 : 250,48,153
Combo2 : 242,5,88
Combo3 : 255,255,255
Combo4 : 255,0,0
Combo5 : 249,86,7

[HitObjects]
120,128,0,5,4,0:0:0:0:
304,64,206,1,0,0:0:0:0:
120,128,413,5,2,0:0:0:0:
304,184,620,1,0,0:0:0:0:
160,320,827,6,0,P|232:304|256:248,1,115,8|0,0:0|0:0,0:0:0:0:
152,192,1241,1,2,0:0:0:0:
304,128,1448,1,0,0:0:0:0:
104,32,1655,6,8,P|176:56|224:112,1,115,8|0,0:0|0:0,0:0:0:0:
344,112,2068,1,2,0:0:0:0:
264,216,2275,6,0,P|280:296|312:328,1,115,0|8,0:0|0:0,0:0:0:0:
384,160,2689,2,0,P|344:112|280:96,1,115,0|2,0:0|0:0,0:0:0:0:
192,248,3103,1,8,0:0:0:0:
104,152,3310,6,4,P|160:96|200:80,1,115,8|0,0:0|0:0,0:0:0:0:
312,240,3724,2,0,P|400:232|432:168,1,115,2|0,0:0|0:0,0:0:0:0:
296,72,4137,5,8,0:0:0:0:
120,56,4344,1,0,0:0:0:0:
232,232,4551,5,2,0:0:0:0:
408,160,4758,2,2,P|408:248|384:280,1,115,0|8,0:0|0:0,0:0:0:0:
224,328,5172,5,0,0:0:0:0:
336,216,5379,1,2,0:0:0:0:
176,160,5586,5,0,0:0:0:0:
288,64,5793,2,0,P|200:32|144:48,1,115,8|2,0:0|0:0,0:0:0:0:
104,160,6206,5,8,0:0:0:0:
248,200,6413,1,8,0:0:0:0:
344,304,6620,6,0,B|416:288|416:288|384:264|384:264|416:240|416:240|384:216|384:216|416:192|416:192|384:168|384:168|416:144|416:144|384:120|384:120,1,345.000013160706,4|2,0:0|0:0,0:0:0:0:
256,56,7241,2,0,P|192:112|160:112,1,115,0|8,0:0|0:0,0:0:0:0:
56,192,7655,5,0,0:0:0:0:
200,280,7862,1,2,0:0:0:0:
64,336,8068,1,0,0:0:0:0:
152,200,8275,6,8,P|208:152|264:160,1,115
280,320,8689,2,0,P|368:304|400:264,1,115,2|0,0:0|0:0,0:0:0:0:
256,184,9103,5,8,0:0:0:0:
384,80,9310,1,0,0:0:0:0:
448,256,9517,2,0,P|400:304|344:320,1,115,2|0,0:0|0:0,0:0:0:0:
304,184,9931,6,0,P|352:128|344:72,1,115,8|0,0:0|0:0,0:0:0:0:
176,64,10344,1,2,0:0:0:0:
56,160,10551,1,0,0:0:0:0:
192,240,10758,1,8,0:0:0:0:
344,120,10965,6,0,P|400:168|400:216,1,115,8|2,0:0|0:0,0:0:0:0:
248,224,11379,2,0,P|176:256|152:304,1,115,0|8,0:0|0:0,0:0:0:0:
432,304,11793,5,0,0:0:0:0:
352,112,12000,1,0,0:0:0:0:
272,264,12206,1,2,0:0:0:0:
64,240,12413,2,0,B|136:312|256:312|256:312|264:272|264:272|368:288|464:208,1,460,8|4,0:0|0:0,0:0:0:0:
312,64,13448,5,0,0:0:0:0:
144,96,13655,2,0,P|96:152|88:200,1,115
280,280,14068,5,8,0:0:0:0:
304,240,14172,1,0,0:0:0:0:
344,224,14275,1,8,0:0:0:0:
360,184,14379,1,0,0:0:0:0:
400,160,14482,2,0,P|368:104|312:80,1,115,2|8,0:0|0:0,0:0:0:0:
128,80,14896,5,8,0:0:0:0:
192,184,15103,2,0,P|216:248|192:304,1,115
72,256,15517,1,8,0:0:0:0:
112,136,15724,1,2,0:0:0:0:
96,104,15827,1,0,0:0:0:0:
104,72,15931,1,0,0:0:0:0:
256,56,16137,6,8,P|320:104|336:152,1,115
144,192,16551,1,4,0:0:0:0:
256,288,16758,1,0,0:0:0:0:
392,176,16965,2,0,P|432:112|400:48,1,115,0|8,0:0|0:0,0:0:0:0:
240,64,17379,5,2,0:0:0:0:
216,104,17482,1,0,0:0:0:0:
240,144,17586,1,8,0:0:0:0:
224,184,17689,1,0,0:0:0:0:
248,224,17793,6,0,P|152:256|120:232,1,115,8|8,0:0|0:0,0:0:0:0:
64,152,18206,1,2,0:0:0:0:
176,48,18413,1,0,0:0:0:0:
248,160,18620,5,8,0:0:0:0:
128,256,18827,1,2,0:0:0:0:
280,296,19034,2,8,P|344:264|376:208,1,115
360,176,19344,1,8,0:0:0:0:
312,160,19448,2,0,P|216:136|184:80,1,115,2|8,0:0|0:0,0:0:0:0:
184,96,19758,1,8,0:0:0:0:
144,96,19862,2,4,P|128:184|136:208,1,115,4|0,0:0|0:0,0:0:0:0:
272,304,20275,5,0,0:0:0:0:
368,160,20482,1,8,0:0:0:0:
344,128,20586,1,8,0:0:0:0:
312,104,20689,2,0,P|272:152|224:176,1,115,2|0,0:0|0:0,0:0:0:0:
80,120,21103,5,0,0:0:0:0:
216,48,21310,1,8,0:0:0:0:
352,128,21517,6,0,P|320:200|272:232,1,115,2|0,0:0|0:0,0:0:0:0:
136,136,21931,2,0,P|200:144|256:112,1,115,0|8,0:0|0:0,0:0:0:0:
352,88,22344,1,2,0:0:0:0:
200,176,22551,1,0,0:0:0:0:
368,224,22758,1,2,0:0:0:0:
184,304,22965,5,8,0:0:0:0:
152,288,23068,1,8,0:0:0:0:
136,256,23172,2,0,P|136:192|160:144,1,115,4|0,0:0|0:0,0:0:0:0:
264,208,23586,6,0,P|328:160|352:120,1,115,0|8,0:0|0:0,0:0:0:0:
360,248,24000,2,0,P|440:264|464:304,1,115,2|0,0:0|0:0,0:0:0:0:
264,328,24413,1,0,0:0:0:0:
176,176,24620,1,0,0:0:0:0:
224,168,24724,1,0,0:0:0:0:
264,192,24827,1,8,0:0:0:0:
408,248,25034,6,0,P|464:168|448:104,1,115,0|8,0:0|0:0,0:0:0:0:
272,96,25448,1,2,0:0:0:0:
440,208,25655,1,8,0:0:0:0:
216,264,25965,1,8,0:0:0:0:
184,312,26068,1,2,0:0:0:0:
416,256,26275,1,8,0:0:0:0:
336,80,26482,6,0,P|256:64|192:80,1,115,4|0,0:0|0:0,0:0:0:0:
120,176,26896,2,0,P|176:232|224:232,1,115
360,120,27310,1,0,0:0:0:0:
208,235,27517,1,8,0:0:0:0:
424,272,27724,2,0,P|344:320|288:312,1,115,2|8,0:0|0:0,0:0:0:0:
144,264,28137,5,8,0:0:0:0:
304,192,28344,1,0,0:0:0:0:
128,112,28551,2,0,P|176:72|240:64,1,115,2|0,0:0|0:0,0:0:0:0:
312,168,28965,1,8,0:0:0:0:
224,280,29172,5,8,0:0:0:0:
256,304,29275,1,0,0:0:0:0:
288,312,29379,2,0,P|392:288|408:248,1,115,2|8,0:0|0:0,0:0:0:0:
320,160,29793,2,0,P|232:104|176:120,1,115,8|0,0:0|0:0,0:0:0:0:
96,200,30206,2,0,P|160:184|232:208,1,115,2|0,0:0|0:0,0:0:0:0:
184,304,30620,5,0,0:0:0:0:
264,192,30827,1,8,0:0:0:0:
384,288,31034,1,2,0:0:0:0:
424,152,31241,2,0,P|376:112|312:104,1,115,8|8,0:0|0:0,0:0:0:0:
168,72,31655,5,0,0:0:0:0:
104,184,31862,2,0,P|128:264|184:296,1,115,2|0,0:0|0:0,0:0:0:0:
288,296,32275,1,8,0:0:0:0:
208,168,32482,1,8,0:0:0:0:
248,152,32586,1,8,0:0:0:0:
296,152,32689,2,0,P|360:192|400:184,1,115,2|2,0:0|0:0,0:0:0:0:
432,152,33000,1,0,0:0:0:0:
416,112,33103,2,0,P|344:96|304:56,1,115,4|0,0:0|0:0,0:0:0:0:
112,80,33517,5,2,0:0:0:0:
48,200,33724,1,0,0:0:0:0:
208,216,33931,5,8,0:0:0:0:
336,160,34137,1,8,0:0:0:0:
424,272,34344,6,0,P|336:336|288:328,1,115,2|0,0:0|0:0,0:0:0:0:
296,336,34655,1,0,0:0:0:0:
256,320,34758,2,0,P|232:256|160:208,1,115,4|0,0:0|0:0,0:0:0:0:
80,144,35172,5,2,0:0:0:0:
256,80,35379,1,0,0:0:0:0:
336,232,35586,5,8,0:0:0:0:
208,280,35793,2,0,P|144:216|96:200,1,115,0|8,0:0|0:0,0:0:0:0:
208,80,36206,1,8,0:0:0:0:
384,104,36413,2,0,B|464:240|312:320,1,230,2|8,0:0|0:0,0:0:0:0:
304,320,36931,1,0,0:0:0:0:
264,304,37034,1,0,0:0:0:0:
96,176,37241,6,0,P|136:104|208:96,1,115,8|0,0:0|0:0,0:0:0:0:
328,104,37655,1,2,0:0:0:0:
184,208,37862,1,0,0:0:0:0:
360,248,38068,6,0,P|288:200|272:144,1,115,8|0,0:0|0:0,0:0:0:0:
120,72,38482,1,0,0:0:0:0:
416,88,38689,1,0,0:0:0:0:
128,208,38896,5,8,0:0:0:0:
296,136,39206,1,8,0:0:0:0:
344,168,39310,1,2,0:0:0:0:
336,312,39517,6,0,P|256:336|208:304,1,115,0|4,0:0|0:0,0:0:0:0:
120,216,39931,1,0,0:0:0:0:
240,160,40137,1,2,0:0:0:0:
320,64,40344,6,0,P|224:48|176:80,1,115,0|8,0:0|0:0,0:0:0:0:
368,208,40758,2,0,P|416:272|472:288,1,115,8|2,0:0|0:0,0:0:0:0:
256,336,41172,1,2,0:0:0:0:
136,248,41379,1,8,0:0:0:0:
120,64,41586,6,0,P|216:96|256:72,1,115,0|2,0:0|0:0,0:0:0:0:
352,144,42000,2,0,P|352:208|312:264,1,115,0|8,0:0|0:0,0:0:0:0:
192,272,42413,5,8,0:0:0:0:
80,144,42620,1,2,0:0:0:0:
264,104,42827,1,8,0:0:0:0:
440,216,43034,2,0,P|416:296|384:320,1,115,8|0,0:0|0:0,0:0:0:0:
296,120,43448,5,2,0:0:0:0:
256,104,43551,1,0,0:0:0:0:
216,104,43655,2,0,P|128:136|96:192,1,115
136,280,44068,2,0,P|200:328|248:320,1,115,8|8,0:0|0:0,0:0:0:0:
240,208,44482,5,8,0:0:0:0:
424,120,44689,1,2,0:0:0:0:
216,80,44896,1,0,0:0:0:0:
448,232,45103,1,0,0:0:0:0:
272,296,45310,6,0,P|176:264|152:232,1,115
152,216,45620,1,0,0:0:0:0:
184,192,45724,2,0,P|248:168|296:96,1,115,0|8,0:0|0:0,0:0:0:0:
144,64,46137,5,8,0:0:0:0:
320,40,46344,1,4,0:0:0:0:
360,200,46551,6,0,P|336:280|272:304,1,115,0|8,0:0|0:0,0:0:0:0:
112,216,46965,1,8,0:0:0:0:
160,80,47172,2,0,B|192:40|192:40|224:80|224:80|256:40|256:40|288:80|288:80|320:40|320:40|352:80|352:80|384:40|384:40|416:88,1,345,4|0,0:0|0:0,0:0:0:0:
400,184,47793,1,2,0:0:0:0:
288,208,48000,2,8,P|200:248|176:312,1,115,8|0,0:0|0:0,0:0:0:0:
136,344,48413,5,0,0:0:0:0:
64,272,48620,2,0,P|32:208|56:136,1,115,2|8,0:0|0:0,0:0:0:0:
176,72,49034,1,8,0:0:0:0:
320,192,49241,5,8,0:0:0:0:
360,208,49344,1,8,0:0:0:0:
384,184,49448,1,8,0:0:0:0:
400,152,49551,1,8,0:0:0:0:
432,144,49655,2,0,P|456:208|432:288,1,115,4|0,0:0|0:0,0:0:0:0:
272,320,50068,5,2,0:0:0:0:
232,304,50172,1,0,0:0:0:0:
200,272,50275,2,0,P|160:208|176:160,1,115
400,56,50689,5,8,0:0:0:0:
160,112,50896,1,2,0:0:0:0:
432,160,51103,5,8,0:0:0:0:
224,48,51310,1,4,0:0:0:0:
184,224,51517,5,0,0:0:0:0:
400,56,51724,1,0,0:0:0:0:
368,248,51931,6,0,P|296:304|232:304,1,115
144,256,52344,1,0,0:0:0:0:
128,216,52448,1,8,0:0:0:0:
144,176,52551,2,0,P|208:144|240:80,1,115,2|0,0:0|0:0,0:0:0:0:
232,64,52862,1,0,0:0:0:0:
184,48,52965,1,0,0:0:0:0:
424,224,55862,5,0,0:0:0:0:
264,288,56068,1,0,0:0:0:0:
104,184,56275,6,0,P|160:104|216:96,1,115,8|0,0:0|0:0,0:0:0:0:
312,184,56689,2,0,P|408:144|408:104,1,115
192,128,57103,1,8,0:0:0:0:
160,160,57206,1,0,0:0:0:0:
176,200,57310,1,8,0:0:0:0:
160,240,57413,1,0,0:0:0:0:
192,272,57517,2,0,P|248:312|312:312,1,115,2|8,0:0|0:0,0:0:0:0:
376,136,57931,6,0,P|320:104|312:56,1,115,8|0,0:0|0:0,0:0:0:0:
176,56,58344,2,0,P|144:144|104:160,1,115,2|0,0:0|0:0,0:0:0:0:
208,264,58758,5,8,0:0:0:0:
336,192,58965,1,8,0:0:0:0:
270,74,59172,2,0,P|215:65|168:96,1,115,2|0,0:0|0:0,0:0:0:0:
136,128,59482,1,8,0:0:0:0:
152,168,59586,2,0,P|240:240|240:288,1,115,8|0,0:0|0:0,0:0:0:0:
96,296,60000,5,2,0:0:0:0:
256,336,60206,2,0,P|344:328|376:288,1,115
232,192,60620,1,8,0:0:0:0:
360,80,60827,1,2,0:0:0:0:
192,40,61034,1,8,0:0:0:0:
64,120,61241,6,0,P|32:200|48:256,1,115,2|0,0:0|0:0,0:0:0:0:
56,264,61551,1,8,0:0:0:0:
88,296,61655,2,0,P|152:304|200:336,1,115,8|0,0:0|0:0,0:0:0:0:
240,320,61965,1,0,0:0:0:0:
240,272,62068,2,0,P|192:224|192:160,1,115,0|8,0:0|0:0,0:0:0:0:
328,72,62482,5,8,0:0:0:0:
360,88,62586,1,2,0:0:0:0:
376,120,62689,2,0,P|408:192|400:240,1,115,0|8,0:0|0:0,0:0:0:0:
192,312,63103,5,0,0:0:0:0:
40,232,63310,1,0,0:0:0:0:
288,160,63517,5,0,0:0:0:0:
208,80,63724,1,0,0:0:0:0:
176,112,63827,1,0,0:0:0:0:
152,152,63931,1,8,0:0:0:0:
168,192,64034,1,0,0:0:0:0:
208,216,64137,2,0,P|288:248|344:208,1,115,2|8,0:0|0:0,0:0:0:0:
400,80,64551,6,0,P|304:48|264:48,1,115,8|0,0:0|0:0,0:0:0:0:
120,104,64965,1,2,0:0:0:0:
360,176,65172,1,0,0:0:0:0:
272,304,65379,6,8,P|200:320|136:272,1,115
136,264,65689,1,0,0:0:0:0:
160,224,65793,2,0,P|192:176|256:168,1,115
288,144,66103,1,8,0:0:0:0:
280,96,66206,2,0,P|192:72|144:96,1,115,8|0,0:0|0:0,0:0:0:0:
64,216,66620,6,0,P|112:280|160:288,1,115,8|0,0:0|0:0,0:0:0:0:
296,208,67034,1,0,0:0:0:0:
112,80,67241,5,8,0:0:0:0:
392,128,67448,1,2,0:0:0:0:
232,24,67655,5,8,0:0:0:0:
312,232,67862,1,8,0:0:0:0:
272,264,67965,1,0,0:0:0:0:
232,288,68068,2,0,P|128:288|88:256,1,115,0|2,0:0|0:0,0:0:0:0:
32,192,68482,1,0,0:0:0:0:
112,80,68689,6,0,P|176:144|248:144,1,115
224,152,69000,1,8,0:0:0:0:
248,152,69103,1,2,0:0:0:0:
376,272,69310,1,8,0:0:0:0:
352,296,69413,1,8,0:0:0:0:
320,312,69517,2,0,P|240:288|224:240,1,115,4|0,0:0|0:0,0:0:0:0:
80,144,69931,5,2,0:0:0:0:
288,168,70137,1,0,0:0:0:0:
72,272,70344,5,0,0:0:0:0:
240,320,70551,1,8,0:0:0:0:
368,304,70758,6,0,P|424:240|408:176,1,115,2|8,0:0|0:0,0:0:0:0:
288,160,71172,1,8,0:0:0:0:
160,56,71379,1,0,0:0:0:0:
80,168,71586,2,0,P|136:200|152:256,1,115,2|0,0:0|0:0,0:0:0:0:
280,336,72000,5,8,0:0:0:0:
432,232,72206,1,8,0:0:0:0:
243,198,72413,1,2,0:0:0:0:
384,72,72620,5,0,0:0:0:0:
368,112,72724,1,0,0:0:0:0:
336,136,72827,2,0,P|248:192|232:224,1,115
104,272,73241,5,2,0:0:0:0:
272,328,73448,1,0,0:0:0:0:
408,232,73655,1,0,0:0:0:0:
280,120,73862,6,8,P|200:88|136:104,1,115
96,208,74275,1,8,0:0:0:0:
248,256,74482,6,0,P|344:256|376:296,1,115,2|0,0:0|0:0,0:0:0:0:
400,256,74793,1,0,0:0:0:0:
424,216,74896,2,0,P|376:168|384:104,1,115,2|0,0:0|0:0,0:0:0:0:
352,80,75206,1,0,0:0:0:0:
304,96,75310,2,0,P|248:176|184:184,1,115,0|8,0:0|0:0,0:0:0:0:
192,192,75620,1,8,0:0:0:0:
160,192,75724,1,2,0:0:0:0:
184,320,75931,5,8,0:0:0:0:
224,296,76034,1,8,0:0:0:0:
248,264,76137,2,0,P|312:248|376:272,1,115,4|0,0:0|0:0,0:0:0:0:
440,152,76551,1,2,0:0:0:0:
272,48,76758,1,0,0:0:0:0:
96,72,76965,5,0,0:0:0:0:
176,264,77172,1,0,0:0:0:0:
312,112,77379,5,2,0:0:0:0:
472,272,77586,1,8,0:0:0:0:
296,320,77793,2,0,P|200:328|160:296,1,115,2|0,0:0|0:0,0:0:0:0:
88,192,78206,5,0,0:0:0:0:
176,104,78413,1,0,0:0:0:0:
256,216,78620,2,8,P|328:200|360:152,1,115
424,88,79034,1,2,0:0:0:0:
456,184,79241,2,0,P|432:264|376:296,1,115,8|4,0:0|0:0,0:0:0:0:
200,296,79655,5,0,0:0:0:0:
168,280,79758,1,0,0:0:0:0:
144,256,79862,2,0,P|112:160|136:120,1,115
256,64,80275,2,0,L|392:48,1,115,0|8,0:0|0:0,0:0:0:0:
440,160,80689,1,2,0:0:0:0:
352,240,80896,2,0,L|224:176,1,115,8|2,0:0|0:0,0:0:0:0:
64,184,81310,5,0,0:0:0:0:
328,112,81517,1,0,0:0:0:0:
96,64,81724,5,0,0:0:0:0:
272,248,81931,1,0,0:0:0:0:
168,216,82137,5,0,0:0:0:0:
152,256,82241,1,0,0:0:0:0:
136,296,82344,1,0,0:0:0:0:
328,280,82551,1,0,0:0:0:0:
256,96,82758,2,0,L|320:56,5,57.5
344,136,82965,2,0,L|408:96,6,57.5
280,288,83379,5,0,0:0:0:0:
152,192,83586,1,4,0:0:0:0:
272,88,83793,2,8,P|344:104|384:152,1,115
152,232,84206,1,0,0:0:0:0:
328,320,84413,2,0,B|368:296|368:296|328:272|328:272|368:248|368:248|328:224|328:224|368:200|368:200|328:176|328:176|368:152|368:152|328:136|328:136|304:104,1,345.000013160706,4|0,0:0|0:0,0:0:0:0:
224,40,85034,5,0,0:0:0:0:
112,128,85241,2,0,P|56:208|152:304,1,230,4|0,0:0|0:0,0:0:0:0:
320,256,85862,1,0,0:0:0:0:
352,224,85965,1,0,0:0:0:0:
360,184,86068,2,0,P|352:112|392:72,1,115,2|0,0:0|0:0,0:0:0:0:
480,160,86482,5,0,0:0:0:0:
392,296,86689,1,0,0:0:0:0:
216,256,86896,2,0,B|224:192|224:192|168:168|168:168|256:104,1,230,4|0,0:0|0:0,0:0:0:0:
264,96,87413,1,0,0:0:0:0:
272,88,87517,1,0,0:0:0:0:
384,232,87724,5,2,0:0:0:0:
352,256,87827,1,0,0:0:0:0:
312,272,87931,1,0,0:0:0:0:
208,208,88137,5,0,0:0:0:0:
200,176,88241,1,0,0:0:0:0:
216,144,88344,1,0,0:0:0:0:
408,80,88551,6,0,B|352:48|352:48|296:112|296:112|320:176|320:176|304:200,1,230,4|0,0:0|0:0,0:0:0:0:
288,224,89172,1,0,0:0:0:0:
152,288,89379,5,2,0:0:0:0:
16,152,89586,1,0,0:0:0:0:
168,24,89793,5,2,0:0:0:0:
256,248,90000,1,2,0:0:0:0:
432,96,90206,1,4,0:0:0:0:
424,240,90413,5,0,0:0:0:0:
400,272,90517,1,0,0:0:0:0:
360,288,90620,1,0,0:0:0:0:
208,288,90827,2,0,P|136:248|120:200,1,115,0|8,0:0|0:0,0:0:0:0:
224,80,91241,5,0,0:0:0:0:
264,80,91344,1,0,0:0:0:0:
296,104,91448,2,0,P|368:160|384:200,1,115
312,288,91862,6,0,B|232:296|208:256|208:256|136:264|136:264|112:216,1,230,4|0,0:0|0:0,0:0:0:0:
96,200,92379,1,0,0:0:0:0:
72,160,92482,1,0,0:0:0:0:
80,120,92586,1,0,0:0:0:0:
112,96,92689,1,0,0:0:0:0:
200,88,92896,5,0,0:0:0:0:
248,160,93103,1,0,0:0:0:0:
280,160,93206,1,0,0:0:0:0:
312,152,93310,2,0,P|392:168|424:200,1,115,0|4,0:0|0:0,0:0:0:0:
336,288,93724,6,0,B|256:296|256:296|216:240|144:248|144:248|96:216,1,230
128,88,94344,1,0,0:0:0:0:
328,72,94655,5,0,0:0:0:0:
352,88,94758,1,0,0:0:0:0:
208,168,94965,1,0,0:0:0:0:
344,216,95172,6,0,P|312:280|248:304,1,115
240,312,95482,1,0,0:0:0:0:
216,288,95586,2,0,P|176:240|176:176,1,115
184,160,95896,1,0,0:0:0:0:
208,136,96000,1,0,0:0:0:0:
376,72,96206,5,0,0:0:0:0:
408,96,96310,1,0,0:0:0:0:
416,136,96413,1,0,0:0:0:0:
400,176,96517,1,0,0:0:0:0:
376,200,96620,1,0,0:0:0:0:
336,216,96724,1,0,0:0:0:0:
296,224,96827,6,0,B|208:240|208:240|152:320,1,172.500006580353,8|0,0:0|0:0,0:0:0:0:
80,160,97241,1,2,0:0:0:0:
256,88,97448,1,0,0:0:0:0:
440,272,97655,5,8,0:0:0:0:
184,152,97862,1,8,0:0:0:0:
392,80,98068,6,0,P|352:192|296:232,1,172.500006580353,2|8,0:0|0:0,0:0:0:0:
144,80,98482,1,8,0:0:0:0:
368,264,98689,1,0,0:0:0:0:
336,80,98896,5,2,0:0:0:0:
160,264,99103,1,0,0:0:0:0:
128,128,99310,6,8,P|256:152|304:208,1,172.500006580353
280,312,99724,1,2,0:0:0:0:
176,192,99931,1,8,0:0:0:0:
424,120,100137,5,8,0:0:0:0:
384,112,100240,1,8,0:0:0:0:
336,112,100343,1,0,0:0:0:0:
288,120,100447,1,0,0:0:0:0:
256,152,100551,2,0,B|192:248|192:248|136:208,1,172.500006580353,2|0,0:0|0:0,0:0:0:0:
112,80,100965,5,8,0:0:0:0:
416,296,101172,1,8,0:0:0:0:
344,64,101379,5,2,0:0:0:0:
232,336,101586,1,8,0:0:0:0:
448,144,101793,5,8,0:0:0:0:
104,216,102000,1,0,0:0:0:0:
160,48,102206,5,2,0:0:0:0:
416,304,102413,1,0,0:0:0:0:
368,80,102620,5,0,0:0:0:0:
360,120,102724,1,0,0:0:0:0:
344,160,102827,2,0,P|288:248|216:240,1,172.500006580353,8|2,0:0|0:0,0:0:0:0:
144,120,103241,6,0,P|240:64|304:80,1,172.500006580353,8|10,0:0|0:0,0:0:0:0:
400,176,103655,2,0,P|352:256|272:288,1,172.500006580353,0|2,0:0|0:0,0:0:0:0:
232,280,103965,1,0,0:0:0:0:
200,240,104068,2,0,P|144:160|72:184,1,172.500006580353
56,208,104379,1,0,0:0:0:0:
96,232,104482,2,0,P|216:240|280:176,1,172.500006580353,8|2,0:0|0:0,0:0:0:0:
240,80,104896,5,8,0:0:0:0:
448,184,105103,1,8,0:0:0:0:
208,288,105310,5,0,0:0:0:0:
448,64,105517,1,2,0:0:0:0:
400,296,105724,5,0,0:0:0:0:
208,48,105931,1,0,0:0:0:0:
88,176,106137,5,8,0:0:0:0:
400,72,106344,1,8,0:0:0:0:
336,232,106551,5,0,0:0:0:0:
312,264,106655,1,0,0:0:0:0:
272,280,106758,2,0,P|152:296|96:256,1,172.500006580353,8|0,0:0|0:0,0:0:0:0:
160,80,107172,5,2,0:0:0:0:
440,152,107379,1,0,0:0:0:0:
168,304,107586,5,0,0:0:0:0:
432,256,107793,1,8,0:0:0:0:
112,120,108000,5,2,0:0:0:0:
352,280,108206,1,8,0:0:0:0:
416,112,108413,6,0,P|312:64|248:80,1,172.500006580353,2|0,0:0|0:0,0:0:0:0:
152,192,108827,2,0,P|232:248|328:232,1,172.500006580353,2|0,0:0|0:0,0:0:0:0:
344,224,109137,1,0,0:0:0:0:
368,176,109241,1,8,0:0:0:0:
224,64,109448,5,8,0:0:0:0:
88,192,109655,1,2,0:0:0:0:
312,288,109862,1,2,0:0:0:0:
416,136,110068,6,0,P|336:96|280:96,1,115,4|0,0:0|0:0,0:0:0:0:
272,96,110379,1,0,0:0:0:0:
224,112,110482,1,0,0:0:0:0:
120,224,110689,1,0,0:0:0:0:
344,304,110896,5,8,0:0:0:0:
384,288,111000,1,0,0:0:0:0:
376,248,111103,1,8,0:0:0:0:
400,216,111206,1,0,0:0:0:0:
392,176,111310,2,0,P|320:136|272:144,1,115,2|0,0:0|0:0,0:0:0:0:
112,248,111724,5,8,0:0:0:0:
312,96,111931,1,0,0:0:0:0:
136,80,112137,6,0,P|192:128|232:176,1,115,2|0,0:0|0:0,0:0:0:0:
320,304,112551,1,8,0:0:0:0:
464,128,112758,1,8,0:0:0:0:
320,304,112965,2,0,P|216:320|184:304,1,115,2|0,0:0|0:0,0:0:0:0:
168,304,113275,1,0,0:0:0:0:
160,264,113379,2,0,L|256:144,1,115,8|0,0:0|0:0,0:0:0:0:
416,72,113793,6,0,P|312:48|264:56,1,115,2|0,0:0|0:0,0:0:0:0:
128,96,114206,1,0,0:0:0:0:
384,240,114413,1,8,0:0:0:0:
184,288,114620,5,2,0:0:0:0:
416,104,114827,1,8,0:0:0:0:
264,104,115034,6,0,P|168:128|136:176,1,115,4|0,0:0|0:0,0:0:0:0:
128,168,115344,1,0,0:0:0:0:
128,216,115448,2,0,P|216:192|240:144,1,115,2|0,0:0|0:0,0:0:0:0:
256,144,115758,1,0,0:0:0:0:
280,120,115862,1,0,0:0:0:0:
408,224,116068,5,8,0:0:0:0:
240,80,116275,1,2,0:0:0:0:
208,288,116482,1,0,0:0:0:0:
168,288,116586,1,0,0:0:0:0:
128,272,116689,2,0,P|72:232|48:176,1,115,4|0,0:0|0:0,0:0:0:0:
176,72,117103,6,0,P|240:112|304:112,1,115,2|0,0:0|0:0,0:0:0:0:
416,128,117517,1,0,0:0:0:0:
392,160,117620,1,0,0:0:0:0:
416,184,117724,1,8,0:0:0:0:
392,208,117827,1,0,0:0:0:0:
416,240,117931,2,0,P|368:296|304:296,1,115,2|8,0:0|0:0,0:0:0:0:
184,192,118344,6,0,B|136:144|136:144|176:104,1,115,4|0,0:0|0:0,0:0:0:0:
352,88,118758,1,2,0:0:0:0:
416,248,118965,5,0,0:0:0:0:
144,104,119172,1,8,0:0:0:0:
112,320,119379,5,8,0:0:0:0:
408,128,119586,1,2,0:0:0:0:
320,288,119793,5,8,0:0:0:0:
256,232,120000,2,0,P|264:160|304:128,1,115,4|0,0:0|0:0,0:0:0:0:
184,40,120413,6,0,P|88:96|80:136,1,115,2|0,0:0|0:0,0:0:0:0:
128,272,120827,1,0,0:0:0:0:
424,96,121034,5,8,0:0:0:0:
256,328,121241,1,10,0:0:0:0:
272,64,121448,5,8,0:0:0:0:
464,312,121655,2,0,P|416:216|392:208,1,115,2|0,0:0|0:0,0:0:0:0:
384,200,121965,1,0,0:0:0:0:
352,200,122068,1,2,0:0:0:0:
136,112,122275,5,0,0:0:0:0:
272,328,122482,1,0,0:0:0:0:
432,88,122689,5,0,0:0:0:0:
392,96,122793,1,0,0:0:0:0:
360,120,122896,1,0,0:0:0:0:
128,256,123103,5,8,0:0:0:0:
152,224,123206,1,8,0:0:0:0:
184,200,123310,2,0,P|248:176|296:192,1,115,4|0,0:0|0:0,0:0:0:0:
424,288,123724,1,2,0:0:0:0:
392,88,123931,6,0,P|296:88|248:112,1,115
104,200,124344,2,0,P|192:216|232:216,1,115,8|2,0:0|0:0,0:0:0:0:
424,112,124758,5,8,0:0:0:0:
160,328,124965,1,8,0:0:0:0:
192,72,125172,5,0,0:0:0:0:
448,296,125379,1,2,0:0:0:0:
104,176,125586,1,0,0:0:0:0:
304,64,125793,6,8,P|352:112|376:176,1,115
376,192,126103,1,0,0:0:0:0:
344,224,126206,1,2,0:0:0:0:
264,256,126413,2,0,P|200:248|168:200,1,115,8|4,0:0|0:0,0:0:0:0:
200,56,126827,5,0,0:0:0:0:
440,280,127034,1,2,0:0:0:0:
464,56,127241,5,0,0:0:0:0:
176,296,127448,1,0,0:0:0:0:
120,104,127655,6,8,P|208:88|248:112,1,115,8|2,0:0|0:0,0:0:0:0:
424,256,128068,2,0,P|352:280|304:272,1,115,8|4,0:0|0:0,0:0:0:0:
128,176,128482,1,0,0:0:0:0:
376,64,128689,5,2,0:0:0:0:
272,312,128896,1,0,0:0:0:0:
224,72,129103,2,0,P|280:120|288:176,1,115
288,192,129413,1,8,0:0:0:0:
288,224,129517,1,2,0:0:0:0:
112,272,129724,5,0,0:0:0:0:
152,288,129827,1,2,0:0:0:0:
184,256,129931,2,0,P|184:192|224:136,1,115,8|0,0:0|0:0,0:0:0:0:
408,96,130344,5,2,0:0:0:0:
96,272,130551,1,0,0:0:0:0:
408,288,130758,5,0,0:0:0:0:
184,72,130965,1,8,0:0:0:0:
216,336,131172,5,2,0:0:0:0:
440,72,131379,1,8,0:0:0:0:
112,176,131586,6,0,P|216:200|232:224,1,115,4|0,0:0|0:0,0:0:0:0:
280,256,132000,1,2,0:0:0:0:
360,208,132206,2,0,P|400:152|384:80,1,115,0|8,0:0|0:0,0:0:0:0:
200,64,132620,1,8,0:0:0:0:
136,224,132827,6,0,P|192:272|248:272,1,115,2|8,0:0|0:0,0:0:0:0:
280,288,133137,1,0,0:0:0:0:
320,256,133241,2,0,P|320:184|352:128,1,115,4|0,0:0|0:0,0:0:0:0:
136,88,133655,6,0,P|240:64|272:80,1,115,2|0,0:0|0:0,0:0:0:0:
208,216,134068,1,0,0:0:0:0:
448,328,134275,1,8,0:0:0:0:
424,56,134482,5,2,0:0:0:0:
120,160,134689,1,8,0:0:0:0:
168,272,134896,5,4,0:0:0:0:
440,208,135103,1,0,0:0:0:0:
296,112,135310,6,0,P|240:144|200:200,1,115,2|0,0:0|0:0,0:0:0:0:
312,280,135724,2,0,P|360:256|392:200,1,115
400,168,136034,1,8,0:0:0:0:
408,128,136137,1,2,0:0:0:0:
232,56,136344,5,2,0:0:0:0:
208,80,136448,1,2,0:0:0:0:
184,112,136551,2,0,P|160:176|168:240,1,115,4|0,0:0|0:0,0:0:0:0:
352,272,136965,1,0,0:0:0:0:
384,72,137172,1,0,0:0:0:0:
296,184,137379,5,4,0:0:0:0:
96,104,137586,1,0,0:0:0:0:
136,248,137793,2,0,P|216:272|272:272,1,115
344,128,138206,5,4,0:0:0:0:
456,224,138413,1,0,0:0:0:0:
304,320,138620,2,0,B|216:320|168:272,1,115,0|8,0:0|0:0,0:0:0:0:
208,72,139034,2,0,P|264:112|288:168,1,115
368,280,139448,5,0,0:0:0:0:
320,80,139655,1,0,0:0:0:0:
208,240,139862,2,0,P|128:200|80:152,1,115,4|0,0:0|0:0,0:0:0:0:
128,96,140275,5,4,0:0:0:0:
400,256,140482,1,0,0:0:0:0:
416,72,140689,5,4,0:0:0:0:
112,280,140896,1,0,0:0:0:0:
248,48,141103,5,4,0:0:0:0:
296,288,141310,1,0,0:0:0:0:
464,112,141517,5,4,0:0:0:0:
120,80,141724,1,0,0:0:0:0:
232,248,141931,5,2,0:0:0:0:
272,256,142034,1,2,0:0:0:0:
320,248,142137,1,2,0:0:0:0:
360,72,142344,6,0,P|272:56|128:136,1,230,4|2,0:0|0:0,0:0:0:0:
144,152,142862,1,0,0:0:0:0:
176,160,142965,2,0,B|280:192|328:144,1,115,0|4,0:0|0:0,0:0:0:0:
400,280,143379,6,0,P|296:304|256:296,1,115,0|4,0:0|0:0,0:0:0:0:
128,320,143793,1,0,0:0:0:0:
120,192,144000,2,8,P|208:160|264:168,1,115,8|0,0:0|0:0,0:0:0:0:
448,112,144413,2,0,P|344:80|296:80,1,115,8|0,0:0|0:0,0:0:0:0:
136,88,144827,6,0,P|96:160|96:232,1,115,2|0,0:0|0:0,0:0:0:0:
216,280,145241,2,0,P|192:208|208:168,1,115,2|0,0:0|0:0,0:0:0:0:
232,152,145551,1,0,0:0:0:0:
272,136,145655,1,2,0:0:0:0:
400,272,145965,5,8,0:0:0:0:
432,256,146068,1,2,0:0:0:0:
376,72,146275,1,8,0:0:0:0:
264,312,146482,5,4,0:0:0:0:
336,80,146689,1,0,0:0:0:0:
136,288,146896,5,4,0:0:0:0:
400,224,147103,1,0,0:0:0:0:
152,72,147310,5,8,0:0:0:0:
344,288,147517,1,0,0:0:0:0:
120,240,147724,5,8,0:0:0:0:
360,104,147931,1,0,0:0:0:0:
368,304,148137,6,0,P|336:232|296:208,1,115,2|0,0:0|0:0,0:0:0:0:
272,200,148448,1,8,0:0:0:0:
240,200,148551,1,2,0:0:0:0:
136,56,148758,1,2,0:0:0:0:
336,88,148965,2,8,P|384:144|360:240,2,172.5
184,144,149793,6,0,P|120:208|128:264,1,115,4|0,0:0|0:0,0:0:0:0:
128,264,150103,1,0,0:0:0:0:
160,288,150206,1,2,0:0:0:0:
256,160,150413,1,0,0:0:0:0:
384,272,150620,5,0,0:0:0:0:
416,240,150724,1,0,0:0:0:0:
392,208,150827,1,8,0:0:0:0:
424,176,150931,1,0,0:0:0:0:
400,144,151034,2,0,P|336:96|272:96,1,115,2|8,0:0|0:0,0:0:0:0:
184,176,151448,6,0,P|256:232|280:288,1,115,8|0,0:0|0:0,0:0:0:0:
400,288,151862,1,2,0:0:0:0:
384,112,152068,5,0,0:0:0:0:
344,96,152172,1,0,0:0:0:0:
304,96,152275,2,8,P|224:120|192:144,1,115
112,240,152689,1,2,0:0:0:0:
280,280,152896,2,0,P|352:272|384:232,1,115,8|8,0:0|0:0,0:0:0:0:
224,152,153310,2,0,P|264:88|336:80,1,115,0|2,0:0|0:0,0:0:0:0:
424,272,153724,5,0,0:0:0:0:
136,96,153931,1,0,0:0:0:0:
192,304,154137,5,8,0:0:0:0:
432,80,154344,1,2,0:0:0:0:
112,232,154551,5,8,0:0:0:0:
400,280,154758,2,0,P|328:200|288:192,1,115,8|0,0:0|0:0,0:0:0:0:
200,176,155172,1,2,0:0:0:0:
264,56,155379,2,0,P|352:64|384:104,1,115
368,256,155793,5,0,0:0:0:0:
336,280,155896,1,8,0:0:0:0:
296,280,156000,2,0,P|232:264|152:256,1,115,2|2,0:0|0:0,0:0:0:0:
136,240,156310,1,0,0:0:0:0:
136,192,156413,2,4,P|184:120|208:72,1,115,4|0,0:0|0:0,0:0:0:0:
400,104,156827,5,2,0:0:0:0:
424,288,157034,1,0,0:0:0:0:
104,216,157241,6,0,P|176:152|240:136,1,115,0|8,0:0|0:0,0:0:0:0:
408,272,157655,2,0,P|344:248|280:248,1,115,2|8,0:0|0:0,0:0:0:0:
376,88,158068,2,0,P|312:72|248:88,1,115,8|0,0:0|0:0,0:0:0:0:
72,120,158482,5,2,0:0:0:0:
424,320,158689,1,0,0:0:0:0:
432,96,158896,5,8,0:0:0:0:
80,304,159103,1,8,0:0:0:0:
264,72,159310,5,2,0:0:0:0:
408,264,159517,1,8,0:0:0:0:
408,264,159724,5,4,0:0:0:0:
144,144,159931,1,0,0:0:0:0:
184,128,160034,1,0,0:0:0:0:
224,136,160137,1,2,0:0:0:0:
392,200,160344,5,0,0:0:0:0:
280,304,160551,2,0,P|176:296|144:272,1,115,0|8,0:0|0:0,0:0:0:0:
128,152,160965,1,2,0:0:0:0:
224,80,161172,2,0,L|344:80,1,115,8|2,0:0|0:0,0:0:0:0:
368,96,161482,1,0,0:0:0:0:
400,128,161586,2,0,P|424:200|416:256,1,115
208,192,162000,5,0,0:0:0:0:
368,296,162206,2,8,B|424:248|448:192|448:192|400:176|400:176|392:120,1,230
264,56,162827,5,0,0:0:0:0:
224,56,162931,1,0,0:0:0:0:
184,64,163034,2,0,P|120:104|88:168,1,115,4|0,0:0|0:0,0:0:0:0:
112,248,163448,2,0,P|176:280|232:272,1,115
392,208,163862,2,0,P|336:152|304:144,1,115,2|0,0:0|0:0,0:0:0:0:
224,96,164275,6,0,P|184:160|192:208,1,115
176,304,164689,2,8,P|248:280|272:232,1,115,8|0,0:0|0:0,0:0:0:0:
352,192,165103,2,0,P|304:152|240:152,1,115
112,160,165517,5,2,0:0:0:0:
280,48,165724,1,0,0:0:0:0:
416,176,165931,1,0,0:0:0:0:
280,48,166137,1,0,0:0:0:0:
240,192,166344,6,0,P|264:264|320:280,1,115,4|0,0:0|0:0,0:0:0:0:
328,184,166758,2,0,P|288:112|232:104,1,115
176,80,167172,2,0,P|184:136|224:192,1,115,2|0,0:0|0:0,0:0:0:0:
240,304,167586,5,0,0:0:0:0:
440,296,167793,1,0,0:0:0:0:
416,128,168000,5,8,0:0:0:0:
440,296,168206,1,0,0:0:0:0:
248,168,168413,5,0,0:0:0:0:
440,296,168620,1,0,0:0:0:0:
400,120,168827,6,2,P|352:72|304:72,1,115,2|0,0:0|0:0,0:0:0:0:
176,96,169241,2,0,P|160:168|176:208,1,115,8|0,0:0|0:0,0:0:0:0:
192,232,169551,1,2,0:0:0:0:
224,248,169655,1,4,0:0:0:0:
416,152,169862,5,0,0:0:0:0:
392,128,169965,1,0,0:0:0:0:
352,104,170068,2,0,P|280:96|216:112,1,115,2|8,0:0|0:0,0:0:0:0:
144,176,170482,5,0,0:0:0:0:
136,224,170586,1,0,0:0:0:0:
184,240,170689,1,8,0:0:0:0:
200,280,170793,1,0,0:0:0:0:
248,264,170896,2,0,P|320:232|336:184,1,115,2|8,0:0|0:0,0:0:0:0:
160,64,171310,5,4,0:0:0:0:
416,288,171517,1,0,0:0:0:0:
424,48,171724,5,2,0:0:0:0:
176,272,171931,1,0,0:0:0:0:
448,176,172137,5,8,0:0:0:0:
112,120,172344,1,8,0:0:0:0:
304,304,172551,5,2,0:0:0:0:
320,40,172758,1,8,0:0:0:0:
184,240,172965,2,0,P|240:184|296:184,1,115,4|0,0:0|0:0,0:0:0:0:
408,224,173379,2,0,P|400:152|360:128,1,115,2|0,0:0|0:0,0:0:0:0:
136,80,173793,5,0,0:0:0:0:
384,312,174000,1,8,0:0:0:0:
384,72,174206,5,2,0:0:0:0:
256,296,174413,1,8,0:0:0:0:
200,104,174620,5,4,0:0:0:0:
424,256,174827,1,0,0:0:0:0:
336,48,175034,5,2,0:0:0:0:
112,240,175241,1,0,0:0:0:0:
88,104,175448,1,8,0:0:0:0:
312,112,175655,5,8,0:0:0:0:
280,80,175758,1,8,0:0:0:0:
240,56,175862,1,2,0:0:0:0:
264,320,176068,1,2,0:0:0:0:
