osu file format v14

[General]
AudioFilename: audio.mp3
AudioLeadIn: 0
PreviewTime: 55655
Countdown: 0
SampleSet: Soft
StackLeniency: 0.7
Mode: 0
LetterboxInBreaks: 0
EpilepsyWarning: 1
WidescreenStoryboard: 0

[Editor]
DistanceSpacing: 3.9
BeatDivisor: 4
GridSize: 8
TimelineZoom: 1.4

[Metadata]
Title:Nakakapagpabagabag
TitleUnicode:Nakakapagpabagabag
Artist:Dasu feat. Kagamine Len
ArtistUnicode:Dasu feat. 鏡音レン
Creator:Spicy
Version:Insane
Source:
Tags:
BeatmapID:1787520
BeatmapSetID:855497

[Difficulty]
HPDrainRate:5
CircleSize:4.2
OverallDifficulty:6.5
ApproachRate:9
SliderMultiplier:1.5
SliderTickRate:1

[Events]
//Background and Video events
0,0,"background.jpg",0,0
Video,0,"muvideo.net_【Kagamine Len鏡音レン】 Nakakapagpabagabag 【Original】.mp4"
//Break Periods
//Storyboard Layer 0 (Background)
//Storyboard Layer 1 (Fail)
//Storyboard Layer 2 (Pass)
//Storyboard Layer 3 (Foreground)
//Storyboard Sound Samples

[TimingPoints]
0,413.793103448276,4,2,1,100,1,0
13241,-66.6666666666667,4,1,1,100,0,0
26689,-100,4,1,1,100,0,0
27206,-100,4,1,1,100,0,0
29586,-66.6666666666667,4,1,1,100,0,0
31448,-100,4,1,1,100,0,0
31862,-66.6666666666667,4,1,1,100,0,0
40551,-200,4,1,1,100,0,0
40758,-50,4,1,1,100,0,0
40862,-40,4,1,1,100,0,0
42000,-66.6666666666667,4,1,1,100,0,0
44896,-66.6666666666667,4,1,1,100,0,0
46758,-100,4,1,1,100,0,0
47172,-66.6666666666667,4,1,1,100,0,0
49034,-66.6666666666667,4,1,1,100,0,0
52965,-66.6666666666667,4,2,1,100,0,0
55655,-133.333333333333,4,1,1,100,0,0
56275,-66.6666666666667,4,1,1,100,0,1
56275,-66.6666666666667,4,1,1,100,0,1
59172,-66.6666666666667,4,1,1,100,0,1
64758,-66.6666666666667,4,1,1,100,0,1
67344,-100,4,1,1,100,0,1
68275,-66.6666666666667,4,1,1,100,0,1
69413,-66.6666666666667,4,1,1,100,0,0
69517,-66.6666666666667,4,1,1,100,0,1
71172,-66.6666666666667,4,1,1,100,0,1
75103,-66.6666666666667,4,1,1,100,0,1
78620,-66.6666666666667,4,1,1,100,0,1
79448,-66.6666666666667,4,1,1,100,0,1
82758,-25,4,1,1,100,0,0
83586,-66.6666666666667,4,1,1,100,0,0
84620,-66.6666666666667,4,1,1,100,0,0
88137,-66.6666666666667,4,1,1,100,0,0
89793,-66.6666666666667,4,1,1,100,0,0
93103,-66.6666666666667,4,1,1,100,0,0
96620,-66.6666666666667,4,3,1,100,0,0
98689,-66.6666666666667,4,3,1,100,0,0
100137,-66.6666666666667,4,3,1,100,0,0
101793,-66.6666666666667,4,3,1,100,0,0
110068,-66.6666666666667,4,1,1,100,0,1
111931,-66.6666666666667,4,1,1,100,0,1
118137,-66.6666666666667,4,1,1,100,0,1
119793,-66.6666666666667,4,1,1,100,0,1
121655,-66.6666666666667,4,1,1,100,0,1
126413,-66.6666666666667,4,1,1,100,0,1
128068,-66.6666666666667,4,1,1,100,0,1
131275,-66.6666666666667,4,1,1,100,0,1
132827,-66.6666666666667,4,1,1,100,0,1
136551,-66.6666666666667,4,1,1,100,0,0

[Colours]
Combo1 : 252,109,4
Combo2 : 242,5,88
Combo3 : 255,255,255
Combo4 : 255,0,0

[HitObjects]
128,184,6620,5,2,0:0:0:0:
256,216,6827,1,0,0:0:0:0:
216,72,7034,2,0,P|272:40|312:48,1,75
384,112,7448,2,0,B|408:200,1,75,2|0,0:0|0:0,0:0:0:0:
304,312,7862,2,0,L|216:336,1,75,2|0,0:0|0:0,0:0:0:0:
112,256,8275,5,8,0:0:0:0:
232,192,8482,1,8,0:0:0:0:
144,88,8689,2,0,B|192:64|248:64|296:88,1,150,2|8,0:0|0:0,0:0:0:0:
224,152,9310,5,8,0:0:0:0:
360,232,9517,1,2,0:0:0:0:
248,320,9724,2,0,L|168:352,1,75
128,224,10137,2,8,L|192:176,1,75,8|2,0:0|0:0,0:0:0:0:
112,72,10551,5,0,0:0:0:0:
280,48,10758,2,0,L|360:80,1,75,8|0,0:0|0:0,0:0:0:0:
288,264,11172,2,8,L|208:312,1,75,2|8,0:0|0:0,0:0:0:0:
120,296,11586,2,0,B|80:256|80:192|104:152,1,150,2|2,0:0|0:0,0:0:0:0:
168,56,12206,5,0,0:0:0:0:
208,176,12413,1,8,0:0:0:0:
304,80,12620,2,0,B|352:128|352:216|312:272,1,187.5
320,264,13241,2,0,P|280:312|200:312,1,105.000004005432,4|8,0:0|0:0,0:0:0:0:
96,272,13655,5,0,0:0:0:0:
240,192,13862,1,0,0:0:0:0:
272,72,14068,1,8,0:0:0:0:
304,64,14172,1,8,0:0:0:0:
336,72,14275,1,8,0:0:0:0:
368,88,14379,1,8,0:0:0:0:
392,112,14482,1,2,0:0:0:0:
264,184,14689,5,0,0:0:0:0:
376,272,14896,2,0,L|296:344,1,105.000004005432,4|8,0:0|0:0,0:0:0:0:
112,328,15310,2,0,P|64:272|64:232,1,112.500004291535
80,112,15724,5,4,0:0:0:0:
80,112,15827,1,4,0:0:0:0:
80,112,15931,2,0,L|176:40,1,105.000004005432,4|8,0:0|0:0,0:0:0:0:
208,160,16344,1,2,0:0:0:0:
104,232,16551,6,0,P|128:296|168:320,1,105.000004005432,4|0,0:0|0:0,0:0:0:0:
296,304,16965,2,0,P|272:240|232:216,1,105.000004005432
128,136,17379,5,8,0:0:0:0:
152,96,17482,1,2,0:0:0:0:
192,72,17586,1,8,0:0:0:0:
240,72,17689,1,2,0:0:0:0:
280,96,17793,1,2,0:0:0:0:
344,152,18000,6,0,L|448:232,1,105.000004005432,0|4,0:0|0:0,0:0:0:0:
400,304,18413,6,0,L|320:336,1,52.5000020027161,8|0,0:0|0:0,0:0:0:0:
328,336,18620,1,8,0:0:0:0:
240,216,18827,6,0,L|280:160,1,56.2500021457673,0|8,0:0|0:0,0:0:0:0:
288,152,19034,1,2,0:0:0:0:
256,48,19241,1,0,0:0:0:0:
152,56,19448,5,4,0:0:0:0:
112,160,19655,1,8,0:0:0:0:
120,192,19758,1,2,0:0:0:0:
144,224,19862,1,4,0:0:0:0:
208,312,20068,5,0,0:0:0:0:
256,192,20275,1,2,0:0:0:0:
336,304,20482,1,2,0:0:0:0:
336,304,20689,2,0,B|408:248|408:192|376:144|328:96,1,210.000008010865,4|0,0:0|0:0,0:0:0:0:
272,48,21310,1,0,0:0:0:0:
160,88,21517,2,0,L|72:168,1,105.000004005432,8|0,0:0|0:0,0:0:0:0:
136,240,21931,2,0,L|248:280,1,105.000004005432,0|8,0:0|0:0,0:0:0:0:
344,296,22344,5,4,0:0:0:0:
440,224,22551,1,4,0:0:0:0:
384,104,22758,5,8,0:0:0:0:
312,224,22965,1,0,0:0:0:0:
184,288,23172,6,0,L|53:261,1,105.000004005432,4|0,0:0|0:0,0:0:0:0:
24,144,23586,1,0,0:0:0:0:
128,40,23793,1,0,0:0:0:0:
128,200,24000,1,8,0:0:0:0:
224,144,24206,6,0,L|312:64,1,105.000004005432
416,128,24620,2,0,L|496:224,1,105.000004005432,0|4,0:0|0:0,0:0:0:0:
400,288,25034,5,0,0:0:0:0:
304,160,25241,1,0,0:0:0:0:
240,280,25448,2,0,L|136:336,1,105.000004005432,0|8,0:0|0:0,0:0:0:0:
96,192,25862,5,0,0:0:0:0:
112,168,25965,2,0,L|168:96,1,52.5000020027161,0|4,0:0|0:0,0:0:0:0:
232,64,26275,5,8,0:0:0:0:
352,144,26482,1,4,0:0:0:0:
192,176,26689,1,2,0:0:0:0:
168,272,26896,2,0,L|216:320,1,37.5
232,304,27103,2,0,L|264:272,1,37.5
304,296,27310,5,8,0:0:0:0:
456,176,27517,1,2,0:0:0:0:
320,104,27724,1,8,0:0:0:0:
248,192,27931,6,0,L|152:224,1,70,0|2,0:0|0:0,0:0:0:0:
88,120,28344,1,0,0:0:0:0:
184,64,28551,1,0,0:0:0:0:
176,176,28758,1,0,0:0:0:0:
72,264,28965,5,8,0:0:0:0:
192,336,29172,1,8,0:0:0:0:
280,216,29379,1,2,0:0:0:0:
368,328,29586,6,0,L|448:240,1,105.000004005432,0|4,0:0|0:0,0:0:0:0:
440,152,30000,5,0,0:0:0:0:
416,136,30103,1,0,0:0:0:0:
392,128,30206,2,0,P|336:104|280:96,1,105.000004005432,8|0,0:0|0:0,0:0:0:0:
184,40,30620,6,0,L|80:56,1,105.000004005432,8|8,0:0|0:0,0:0:0:0:
80,168,31034,1,0,0:0:0:0:
224,184,31241,1,0,0:0:0:0:
96,304,31448,6,0,L|176:336,1,70,2|0,0:0|0:0,0:0:0:0:
184,336,31758,1,8,0:0:0:0:
216,336,31862,2,0,L|320:320,1,105.000004005432
464,248,32275,1,8,0:0:0:0:
424,88,32482,5,8,0:0:0:0:
392,80,32586,1,4,0:0:0:0:
368,80,32689,2,0,L|232:96,1,105.000004005432
240,96,33000,1,4,0:0:0:0:
208,104,33103,2,0,P|158:141|148:202,1,112.500004291535,2|0,0:0|0:0,0:0:0:0:
32,192,33517,5,8,0:0:0:0:
224,216,33724,1,4,0:0:0:0:
96,304,33931,1,6,0:0:0:0:
256,320,34137,2,0,P|344:320|376:304,1,105.000004005432,4|8,0:0|0:0,0:0:0:0:
424,224,34551,2,0,P|440:160|416:104,1,105.000004005432,8|2,0:0|0:0,0:0:0:0:
352,56,34965,5,0,0:0:0:0:
200,104,35172,1,0,0:0:0:0:
304,232,35379,1,0,0:0:0:0:
136,176,35586,2,0,P|112:232|136:280,1,112.500004291535,8|8,0:0|0:0,0:0:0:0:
256,216,36000,5,2,0:0:0:0:
320,344,36206,1,0,0:0:0:0:
432,256,36413,2,0,P|440:144|360:64,1,225.000008583069,4|0,0:0|0:0,0:0:0:0:
336,56,36931,1,0,0:0:0:0:
336,56,37034,1,0,0:0:0:0:
208,56,37241,6,0,L|72:96,1,112.500004291535,4|0,0:0|0:0,0:0:0:0:
128,224,37655,2,0,L|288:200,1,112.500004291535,2|0,0:0|0:0,0:0:0:0:
360,48,38068,5,2,0:0:0:0:
512,184,38275,1,8,0:0:0:0:
352,272,38482,1,8,0:0:0:0:
248,128,38689,1,2,0:0:0:0:
112,240,38896,1,8,0:0:0:0:
168,80,39206,5,8,0:0:0:0:
128,64,39310,1,2,0:0:0:0:
248,160,39517,1,4,0:0:0:0:
376,168,39724,6,4,P|352:240|304:288,1,112.500004291535,4|0,0:0|0:0,0:0:0:0:
248,200,40137,1,0,0:0:0:0:
208,344,40344,1,0,0:0:0:0:
144,240,40551,5,2,0:0:0:0:
112,208,40655,1,8,0:0:0:0:
96,176,40758,2,0,P|80:120|144:40,1,150,2|0,0:0|0:0,0:0:0:0:
240,32,41172,5,8,0:0:0:0:
408,56,41379,1,8,0:0:0:0:
408,160,41586,5,0,0:0:0:0:
264,200,41793,1,2,0:0:0:0:
360,304,42000,2,0,P|272:336|240:328,1,112.500004291535,4|8,0:0|0:0,0:0:0:0:
112,248,42413,5,0,0:0:0:0:
120,88,42620,1,8,0:0:0:0:
208,192,42827,1,8,0:0:0:0:
224,72,43034,6,0,P|296:56|360:72,1,112.500004291535,4|2,0:0|0:0,0:0:0:0:
392,152,43448,1,8,0:0:0:0:
384,176,43551,1,0,0:0:0:0:
376,192,43655,2,0,P|320:240|264:256,1,112.500004291535,8|0,0:0|0:0,0:0:0:0:
176,168,44068,1,8,0:0:0:0:
56,224,44275,1,8,0:0:0:0:
64,64,44482,5,2,0:0:0:0:
176,168,44689,1,8,0:0:0:0:
264,64,44896,2,0,P|344:64|392:88,1,112.500004291535,0|8,0:0|0:0,0:0:0:0:
400,96,45206,2,0,P|448:160|424:248,1,168.750006437302,0|2,0:0|0:0,0:0:0:0:
408,272,45620,1,8,0:0:0:0:
384,288,45724,2,0,P|304:328|240:320,1,112.500004291535,8|8,0:0|0:0,0:0:0:0:
264,328,46034,1,2,0:0:0:0:
248,320,46137,1,2,0:0:0:0:
96,320,46344,5,4,0:0:0:0:
256,200,46551,1,2,0:0:0:0:
88,184,46758,2,0,P|120:128|152:112,1,75
224,72,47172,2,0,B|240:48|256:72|256:72|272:64|272:64|280:48|280:48|288:64|288:64|304:72|304:72|320:64|320:64|328:48|328:48|336:64|336:64|352:72|352:72|368:64|368:64|376:48|376:48|384:64|384:64|400:72|400:72|416:64|416:64|424:48|424:48|432:64|432:64|456:80,1,337.500012874604,4|0,0:0|0:0,0:0:0:0:
448,208,48000,6,0,P|424:264|368:296,1,112.500004291535,4|0,0:0|0:0,0:0:0:0:
320,192,48413,1,0,0:0:0:0:
224,304,48620,1,8,0:0:0:0:
104,184,48827,1,8,0:0:0:0:
152,72,49034,5,4,0:0:0:0:
184,64,49137,1,4,0:0:0:0:
216,64,49241,1,4,0:0:0:0:
248,72,49344,1,2,0:0:0:0:
280,88,49448,2,0,P|352:120|376:160,1,112.500004291535,4|4,0:0|0:0,0:0:0:0:
304,248,49862,6,0,L|360:312,3,56.2500021457673,2|8|8|0,0:0|0:0|0:0|0:0,0:0:0:0:
248,312,50275,1,0,0:0:0:0:
104,248,50482,1,0,0:0:0:0:
136,112,50689,2,0,L|224:32,1,112.500004291535
256,128,51103,2,8,L|360:184,1,112.500004291535
440,264,51517,5,0,0:0:0:0:
336,336,51724,1,0,0:0:0:0:
248,232,51931,1,0,0:0:0:0:
144,328,52137,2,0,P|112:280|120:200,1,112.500004291535,0|8,0:0|0:0,0:0:0:0:
112,208,52448,1,8,0:0:0:0:
112,192,52551,1,0,0:0:0:0:
168,88,52758,1,4,0:0:0:0:
312,72,52965,5,2,0:0:0:0:
480,208,53379,1,0,0:0:0:0:
312,304,53793,5,8,0:0:0:0:
184,96,54206,1,0,0:0:0:0:
80,288,54620,5,2,0:0:0:0:
336,168,55034,1,0,0:0:0:0:
40,208,55448,5,8,0:0:0:0:
144,88,55862,5,0,0:0:0:0:
248,176,56068,1,0,0:0:0:0:
296,56,56275,2,0,L|408:88,1,112.500004291535,4|0,0:0|0:0,0:0:0:0:
456,176,56689,2,0,L|328:232,1,112.500004291535
200,256,57103,1,2,0:0:0:0:
168,264,57206,1,8,0:0:0:0:
128,264,57310,1,8,0:0:0:0:
88,248,57413,1,2,0:0:0:0:
64,216,57517,2,0,P|48:152|56:96,1,112.500004291535,8|2,0:0|0:0,0:0:0:0:
136,32,57931,5,0,0:0:0:0:
208,168,58137,1,8,0:0:0:0:
296,48,58344,1,0,0:0:0:0:
424,152,58551,2,0,L|368:184,1,56.2500021457673
344,200,58758,1,8,0:0:0:0:
232,320,58965,1,8,0:0:0:0:
80,264,59172,5,0,0:0:0:0:
120,136,59379,1,2,0:0:0:0:
144,104,59482,1,2,0:0:0:0:
168,80,59586,1,4,0:0:0:0:
240,200,59793,1,0,0:0:0:0:
336,96,60000,6,0,L|440:144,1,112.500004291535,2|0,0:0|0:0,0:0:0:0:
432,248,60413,2,0,P|352:296|296:296,1,112.500004291535,8|2,0:0|0:0,0:0:0:0:
320,200,60827,1,0,0:0:0:0:
208,312,61034,1,0,0:0:0:0:
232,112,61241,1,2,0:0:0:0:
160,232,61448,2,0,P|72:208|48:176,1,112.500004291535,2|8,0:0|0:0,0:0:0:0:
88,88,61862,5,0,0:0:0:0:
248,24,62068,1,8,0:0:0:0:
240,152,62275,1,0,0:0:0:0:
216,176,62379,1,8,0:0:0:0:
200,208,62482,2,0,P|192:280|224:320,1,112.500004291535,2|2,0:0|0:0,0:0:0:0:
232,328,62793,1,2,0:0:0:0:
256,336,62896,2,0,P|336:320|392:248,1,168.750006437302,4|0,0:0|0:0,0:0:0:0:
400,232,63310,5,0,0:0:0:0:
240,176,63517,1,2,0:0:0:0:
320,72,63724,1,8,0:0:0:0:
208,44,63931,2,0,P|140:45|98:72,1,112.500004291535,0|8,0:0|0:0,0:0:0:0:
32,144,64344,5,0,0:0:0:0:
32,184,64448,1,8,0:0:0:0:
40,216,64551,1,8,0:0:0:0:
72,240,64655,1,0,0:0:0:0:
112,256,64758,1,0,0:0:0:0:
288,352,64965,1,0,0:0:0:0:
400,272,65172,1,2,0:0:0:0:
304,224,65379,6,0,P|296:160|320:112,1,112.500004291535,8|8,0:0|0:0,0:0:0:0:
400,128,65793,1,2,0:0:0:0:
312,32,66000,1,2,0:0:0:0:
280,40,66103,1,4,0:0:0:0:
256,56,66206,2,0,P|200:96|168:152,1,112.500004291535,4|0,0:0|0:0,0:0:0:0:
56,176,66620,5,0,0:0:0:0:
112,304,66827,1,0,0:0:0:0:
240,264,67034,2,2,P|320:232|344:208,1,112.500004291535
432,128,67448,5,8,0:0:0:0:
352,40,67655,1,8,0:0:0:0:
208,88,67862,5,8,0:0:0:0:
168,88,67965,1,8,0:0:0:0:
128,104,68068,1,2,0:0:0:0:
104,136,68172,1,8,0:0:0:0:
96,168,68275,2,0,P|104:256|136:288,1,112.500004291535,2|8,0:0|0:0,0:0:0:0:
248,288,68689,5,2,0:0:0:0:
400,240,68896,1,2,0:0:0:0:
240,160,69103,1,8,0:0:0:0:
384,72,69310,5,8,0:0:0:0:
352,56,69413,1,2,0:0:0:0:
312,48,69517,2,0,P|240:40|192:48,1,112.500004291535,4|2,0:0|0:0,0:0:0:0:
128,120,69931,5,0,0:0:0:0:
16,200,70137,1,2,0:0:0:0:
104,304,70344,1,8,0:0:0:0:
216,224,70551,1,8,0:0:0:0:
352,152,70758,5,0,0:0:0:0:
344,344,70965,1,8,0:0:0:0:
456,224,71172,2,0,P|464:160|432:112,1,112.500004291535,8|2,0:0|0:0,0:0:0:0:
264,48,71586,2,0,L|136:80,1,112.500004291535,0|2,0:0|0:0,0:0:0:0:
88,184,72000,2,0,P|112:256|176:272,1,112.500004291535,8|8,0:0|0:0,0:0:0:0:
200,176,72413,5,0,0:0:0:0:
280,296,72620,1,2,0:0:0:0:
312,288,72724,1,8,0:0:0:0:
344,272,72827,2,0,P|392:240|416:192,1,112.500004291535,4|8,0:0|0:0,0:0:0:0:
248,176,73241,5,0,0:0:0:0:
400,88,73448,1,0,0:0:0:0:
280,40,73655,2,2,P|192:24|144:40,1,112.500004291535
80,112,74068,2,0,P|144:160|160:224,2,112.500004291535,10|8|10,0:0|0:0|0:0,0:0:0:0:
24,232,74689,5,0,0:0:0:0:
152,336,74896,1,0,0:0:0:0:
152,184,75103,2,0,P|192:128|240:112,1,112.500004291535,0|8,0:0|0:0,0:0:0:0:
344,120,75517,5,8,0:0:0:0:
376,144,75620,1,2,0:0:0:0:
392,176,75724,2,0,P|384:248|352:288,1,112.500004291535,8|2,0:0|0:0,0:0:0:0:
336,304,76034,1,0,0:0:0:0:
304,312,76137,2,4,P|216:320|168:288,1,112.500004291535,4|8,0:0|0:0,0:0:0:0:
176,168,76551,5,0,0:0:0:0:
72,96,76758,1,0,0:0:0:0:
200,88,76965,6,8,L|248:40,1,56.2500021457673
272,48,77172,2,8,L|336:104,1,56.2500021457673
344,112,77379,5,0,0:0:0:0:
264,256,77586,1,2,0:0:0:0:
416,312,77793,1,2,0:0:0:0:
448,168,78000,5,0,0:0:0:0:
224,192,78206,1,8,0:0:0:0:
384,304,78413,1,2,0:0:0:0:
208,304,78620,6,8,P|152:280|128:216,1,112.500004291535
136,96,79034,1,8,0:0:0:0:
168,72,79137,1,2,0:0:0:0:
208,56,79241,1,8,0:0:0:0:
248,56,79344,1,2,0:0:0:0:
288,64,79448,2,0,B|368:96|416:176|400:264,1,225.000008583069,4|2,0:0|0:0,0:0:0:0:
288,312,80068,5,0,0:0:0:0:
208,200,80275,1,0,0:0:0:0:
120,320,80482,1,2,0:0:0:0:
24,232,80689,5,8,0:0:0:0:
152,160,80896,1,8,0:0:0:0:
40,80,81103,2,0,P|120:40|176:40,1,112.500004291535,8|2,0:0|0:0,0:0:0:0:
176,40,81413,1,2,0:0:0:0:
216,40,81517,2,0,L|312:88,2,56.2500021457673
168,144,81931,6,0,P|144:224|152:256,1,112.500004291535
248,216,82344,1,0,0:0:0:0:
336,304,82551,1,0,0:0:0:0:
320,104,82758,2,4,L|352:48,5,56.2500021457673
368,160,82965,2,4,L|424:152,6,56.2500021457673
256,272,83379,5,2,0:0:0:0:
432,192,83586,1,4,0:0:0:0:
200,128,83793,1,0,0:0:0:0:
352,56,84000,5,8,0:0:0:0:
376,88,84103,1,0,0:0:0:0:
392,128,84206,1,0,0:0:0:0:
392,168,84310,1,8,0:0:0:0:
376,208,84413,1,0,0:0:0:0:
328,272,84620,2,0,B|296:312|296:312|280:296|280:296|272:272|272:272|264:296|264:296|248:312|248:312|232:296|232:296|224:272|224:272|216:296|216:296|200:312|200:312|184:296|184:296|176:272|176:272|168:296|168:296|152:312|152:312|128:296,1,337.500012874604,4|0,0:0|0:0,0:0:0:0:
72,224,85448,5,2,0:0:0:0:
144,112,85655,1,8,0:0:0:0:
176,104,85758,1,2,0:0:0:0:
208,104,85862,1,8,0:0:0:0:
320,128,86068,6,4,B|384:152|376:224,1,112.500004291535
376,240,86379,1,2,0:0:0:0:
376,256,86482,2,0,P|344:320|304:328,1,112.500004291535,2|0,0:0|0:0,0:0:0:0:
152,328,86896,2,0,P|88:296|80:232,1,112.500004291535,4|0,0:0|0:0,0:0:0:0:
72,232,87206,1,2,0:0:0:0:
72,200,87310,2,8,P|104:160|168:144,1,112.500004291535,10|2,0:0|0:0,0:0:0:0:
240,232,87724,5,8,0:0:0:0:
352,80,87931,1,8,0:0:0:0:
384,216,88137,5,2,0:0:0:0:
376,248,88241,1,2,0:0:0:0:
352,280,88344,1,8,0:0:0:0:
320,304,88448,1,2,0:0:0:0:
288,320,88551,2,0,P|200:336|144:320,1,112.500004291535,4|0,0:0|0:0,0:0:0:0:
112,184,88965,6,8,L|80:136,1,56.2500021457673
104,96,89172,2,8,L|168:96,1,56.2500021457673
192,136,89379,2,2,L|136:208,1,56.2500021457673
128,208,89586,5,0,0:0:0:0:
152,320,89793,1,2,0:0:0:0:
272,272,90000,2,0,P|336:288|384:272,1,112.500004291535,0|4,0:0|0:0,0:0:0:0:
328,192,90413,1,0,0:0:0:0:
416,160,90620,2,0,P|344:104|296:104,1,112.500004291535
192,72,91034,5,0,0:0:0:0:
152,72,91137,1,0,0:0:0:0:
112,80,91241,1,2,0:0:0:0:
80,104,91344,1,8,0:0:0:0:
56,144,91448,1,2,0:0:0:0:
88,256,91655,6,0,P|168:296|216:296,1,112.500004291535,2|12,0:0|0:0,0:0:0:0:
256,184,92068,1,0,0:0:0:0:
360,240,92275,2,8,L|392:168,1,56.2500021457673
384,152,92482,2,8,L|352:96,1,56.2500021457673
336,72,92689,5,0,0:0:0:0:
232,168,92896,1,0,0:0:0:0:
112,64,93103,2,0,L|48:176,1,112.500004291535
136,256,93517,2,0,B|152:288|152:288|168:256|168:256|184:288|184:288|200:256|200:256|216:288|216:288|232:256|232:256|248:288|248:288|264:256|264:256|280:288|280:288|304:256|304:256,1,337.500012874604,4|8,0:0|0:0,0:0:0:0:
376,200,94344,1,8,0:0:0:0:
376,88,94551,5,0,0:0:0:0:
336,72,94655,1,0,0:0:0:0:
296,64,94758,2,0,P|224:56|160:64,1,112.500004291535,8|0,0:0|0:0,0:0:0:0:
144,72,95068,1,2,0:0:0:0:
120,96,95172,2,0,P|184:144|152:192,1,112.500004291535,8|0,0:0|0:0,0:0:0:0:
160,200,95482,1,8,0:0:0:0:
152,232,95586,2,0,P|192:296|248:304,1,112.500004291535,8|2,0:0|0:0,0:0:0:0:
392,320,96000,5,0,0:0:0:0:
296,224,96206,2,0,L|264:176,2,56.2500021457673
368,96,96620,1,2,0:0:0:0:
208,120,96827,1,4,0:0:0:0:
144,64,97034,5,0,0:0:0:0:
104,64,97137,1,0,0:0:0:0:
80,80,97241,2,0,P|80:160|112:192,1,112.500004291535
112,304,97655,1,2,0:0:0:0:
240,288,97862,2,0,P|320:280|360:248,1,112.500004291535,8|0,0:0|0:0,0:0:0:0:
416,176,98275,1,8,0:0:0:0:
296,72,98482,1,8,0:0:0:0:
120,104,98689,5,0,0:0:0:0:
96,232,98896,1,0,0:0:0:0:
128,272,99000,1,0,0:0:0:0:
176,288,99103,1,0,0:0:0:0:
296,256,99310,5,0,0:0:0:0:
448,160,99517,2,8,L|392:120,1,56.2500021457673
368,104,99724,5,0,0:0:0:0:
224,48,99931,1,8,0:0:0:0:
248,192,100137,1,2,0:0:0:0:
240,160,100241,1,8,0:0:0:0:
208,120,100344,1,2,0:0:0:0:
176,96,100448,1,0,0:0:0:0:
144,96,100551,2,0,P|96:144|80:224,1,112.500004291535,8|8,0:0|0:0,0:0:0:0:
152,296,100965,5,0,0:0:0:0:
192,136,101172,1,8,0:0:0:0:
352,208,101379,1,8,0:0:0:0:
376,72,101586,1,0,0:0:0:0:
264,48,101793,2,0,P|200:112|184:160,1,112.500004291535
80,288,102206,2,8,P|176:336|224:336,1,112.500004291535
216,200,102620,5,0,0:0:0:0:
376,272,102827,1,0,0:0:0:0:
360,104,103034,5,2,0:0:0:0:
320,88,103137,1,2,0:0:0:0:
280,80,103241,1,2,0:0:0:0:
240,80,103344,1,8,0:0:0:0:
200,96,103448,1,8,0:0:0:0:
72,184,103655,6,0,P|136:224|192:216,1,112.500004291535
280,152,104068,2,0,P|304:224|280:280,1,112.500004291535
192,184,104482,1,2,0:0:0:0:
80,88,104689,1,2,0:0:0:0:
80,240,104896,6,0,P|136:312|176:320,1,112.500004291535,0|8,0:0|0:0,0:0:0:0:
256,104,105310,2,0,P|320:96|352:136,1,112.500004291535
408,216,105724,2,8,P|464:160|472:112,1,112.500004291535
336,72,106137,1,2,0:0:0:0:
280,184,106344,1,2,0:0:0:0:
184,88,106551,6,0,P|112:112|104:176,1,112.500004291535,0|8,0:0|0:0,0:0:0:0:
64,272,106965,1,0,0:0:0:0:
192,344,107172,1,0,0:0:0:0:
296,216,107379,6,0,P|256:176|192:160,1,112.500004291535
344,48,107793,2,8,P|408:112|400:160,1,112.500004291535,8|2,0:0|0:0,0:0:0:0:
216,128,108206,1,0,0:0:0:0:
192,152,108310,1,0,0:0:0:0:
184,184,108413,2,8,P|208:272|264:304,1,112.500004291535
336,168,108827,6,8,P|408:240|392:288,1,112.500004291535
264,288,109241,2,2,P|176:272|144:232,1,112.500004291535,4|2,0:0|0:0,0:0:0:0:
144,152,109655,6,0,L|208:112,3,56.2500021457673
248,176,110068,1,4,0:0:0:0:
352,280,110275,1,0,0:0:0:0:
456,184,110482,5,4,0:0:0:0:
416,152,110586,1,8,0:0:0:0:
376,136,110689,1,4,0:0:0:0:
328,128,110793,1,4,0:0:0:0:
280,128,110896,2,0,P|208:128|168:96,1,112.500004291535,8|8,0:0|0:0,0:0:0:0:
88,104,111310,5,0,0:0:0:0:
216,192,111517,1,8,0:0:0:0:
80,288,111724,1,8,0:0:0:0:
320,312,111931,6,0,P|360:240|352:184,1,112.500004291535
248,144,112344,2,0,P|320:96|368:112,1,112.500004291535,0|8,0:0|0:0,0:0:0:0:
216,224,112758,5,8,0:0:0:0:
64,136,112965,1,0,0:0:0:0:
264,104,113172,5,2,0:0:0:0:
112,216,113379,1,4,0:0:0:0:
240,224,113586,6,0,P|304:288|376:288,1,112.500004291535,0|8,0:0|0:0,0:0:0:0:
360,288,113896,1,2,0:0:0:0:
400,272,114000,1,8,0:0:0:0:
432,232,114103,1,8,0:0:0:0:
440,192,114206,1,2,0:0:0:0:
360,72,114413,5,2,0:0:0:0:
144,120,114620,1,0,0:0:0:0:
432,184,114827,5,0,0:0:0:0:
208,56,115034,1,8,0:0:0:0:
168,216,115241,5,0,0:0:0:0:
352,72,115448,1,0,0:0:0:0:
320,224,115655,6,0,P|280:288|208:304,1,112.500004291535,0|8,0:0|0:0,0:0:0:0:
179,118,116068,1,8,0:0:0:0:
136,272,116275,1,4,0:0:0:0:
320,176,116482,1,2,0:0:0:0:
256,56,116689,6,0,P|184:96|184:144,1,112.500004291535,4|0,0:0|0:0,0:0:0:0:
88,208,117103,1,0,0:0:0:0:
352,136,117310,1,0,0:0:0:0:
168,72,117517,1,0,0:0:0:0:
408,224,117724,5,8,0:0:0:0:
192,272,117931,1,8,0:0:0:0:
144,104,118137,5,2,0:0:0:0:
184,88,118241,1,2,0:0:0:0:
224,88,118344,2,0,P|296:152|344:152,1,112.500004291535,8|2,0:0|0:0,0:0:0:0:
400,72,118758,5,0,0:0:0:0:
248,216,118965,1,0,0:0:0:0:
120,64,119172,5,8,0:0:0:0:
144,216,119379,1,8,0:0:0:0:
336,80,119586,5,0,0:0:0:0:
432,200,119793,2,0,P|352:256|304:240,1,112.500004291535,0|4,0:0|0:0,0:0:0:0:
128,216,120206,1,8,0:0:0:0:
264,328,120413,2,0,P|312:264|336:216,1,112.500004291535,0|8,0:0|0:0,0:0:0:0:
368,96,120827,5,2,0:0:0:0:
120,56,121034,1,2,0:0:0:0:
136,248,121241,5,10,0:0:0:0:
336,64,121448,1,10,0:0:0:0:
184,144,121655,5,0,0:0:0:0:
368,232,121862,2,0,P|304:288|232:296,1,112.500004291535,0|8,0:0|0:0,0:0:0:0:
240,304,122172,1,8,0:0:0:0:
200,296,122275,1,8,0:0:0:0:
160,280,122379,1,8,0:0:0:0:
120,248,122482,1,0,0:0:0:0:
168,80,122689,5,8,0:0:0:0:
200,56,122793,1,2,0:0:0:0:
240,48,122896,1,0,0:0:0:0:
320,184,123103,1,8,0:0:0:0:
112,216,123310,6,0,P|176:288|216:304,1,112.500004291535,4|2,0:0|0:0,0:0:0:0:
368,184,123724,1,0,0:0:0:0:
168,80,123931,1,0,0:0:0:0:
200,216,124137,5,8,0:0:0:0:
224,256,124241,1,8,0:0:0:0:
272,280,124344,1,8,0:0:0:0:
320,288,124448,1,8,0:0:0:0:
368,272,124551,1,2,0:0:0:0:
360,96,124758,6,0,P|288:64|224:64,1,112.500004291535
80,152,125172,2,2,P|136:192|184:200,1,112.500004291535
224,312,125586,1,0,0:0:0:0:
344,192,125793,5,8,0:0:0:0:
208,104,126000,1,8,0:0:0:0:
152,224,126206,5,0,0:0:0:0:
352,160,126413,1,8,0:0:0:0:
344,192,126517,1,2,0:0:0:0:
336,216,126620,2,4,P|288:264|232:272,1,112.500004291535,4|8,0:0|0:0,0:0:0:0:
72,296,127034,5,0,0:0:0:0:
192,48,127241,1,0,0:0:0:0:
112,208,127448,5,0,0:0:0:0:
320,216,127655,1,8,0:0:0:0:
176,104,127862,5,8,0:0:0:0:
240,304,128068,1,0,0:0:0:0:
312,104,128275,5,2,0:0:0:0:
120,280,128482,1,0,0:0:0:0:
344,240,128689,5,8,0:0:0:0:
312,256,128793,1,8,0:0:0:0:
280,264,128896,2,0,P|208:248|176:224,1,112.500004291535,2|8,0:0|0:0,0:0:0:0:
304,96,129310,5,0,0:0:0:0:
96,152,129517,1,0,0:0:0:0:
240,248,129724,5,8,0:0:0:0:
264,264,129827,1,8,0:0:0:0:
296,272,129931,2,0,P|376:280|416:256,1,112.500004291535,4|8,0:0|0:0,0:0:0:0:
176,64,130344,6,2,P|112:128|104:184,1,112.500004291535
312,136,130758,1,0,0:0:0:0:
176,296,130965,5,8,0:0:0:0:
360,248,131172,1,8,0:0:0:0:
272,136,131379,1,0,0:0:0:0:
248,96,131482,1,0,0:0:0:0:
224,56,131586,1,4,0:0:0:0:
128,184,131793,6,0,P|160:264|232:288,1,112.500004291535
256,168,132206,1,0,0:0:0:0:
304,288,132413,1,8,0:0:0:0:
424,192,132620,1,8,0:0:0:0:
184,88,132827,6,0,P|128:144|144:192,1,112.500004291535,2|8,0:0|0:0,0:0:0:0:
248,184,133241,1,8,0:0:0:0:
408,120,133448,2,0,P|352:80|296:80,1,112.500004291535
112,112,133862,5,0,0:0:0:0:
376,256,134068,1,0,0:0:0:0:
88,224,134275,5,0,0:0:0:0:
344,104,134482,1,8,0:0:0:0:
320,208,134689,5,8,0:0:0:0:
72,152,134896,1,8,0:0:0:0:
368,232,135103,5,0,0:0:0:0:
368,232,135206,1,0,0:0:0:0:
368,232,135310,2,0,P|304:224|240:240,1,112.500004291535
112,320,135724,6,0,P|48:288|48:248,1,112.500004291535
96,112,136137,2,0,P|192:104|232:112,1,112.500004291535
248,112,136448,1,0,0:0:0:0:
248,112,136551,1,4,0:0:0:0:
152,240,136758,6,0,P|232:296|352:248,1,225.000008583069,0|2,0:0|0:0,0:0:0:0:
456,176,137379,2,0,P|408:128|344:128,1,112.500004291535,8|8,0:0|0:0,0:0:0:0:
216,160,137793,5,2,0:0:0:0:
120,72,138000,1,0,0:0:0:0:
112,240,138206,6,0,P|192:288|232:272,1,112.500004291535
184,152,138620,2,0,P|240:128|288:144,1,112.500004291535,8|0,0:0|0:0,0:0:0:0:
240,240,139034,1,8,0:0:0:0:
376,144,139241,1,8,0:0:0:0:
448,264,139448,6,0,P|368:320|320:328,1,112.500004291535,2|8,0:0|0:0,0:0:0:0:
312,328,139758,1,8,0:0:0:0:
272,312,139862,2,0,P|216:272|200:224,1,112.500004291535,4|0,0:0|0:0,0:0:0:0:
112,72,140275,5,0,0:0:0:0:
304,64,140482,1,0,0:0:0:0:
224,144,140689,5,2,0:0:0:0:
64,232,140896,1,8,0:0:0:0:
184,104,141103,5,8,0:0:0:0:
368,144,141310,1,0,0:0:0:0:
296,256,141517,5,2,0:0:0:0:
152,208,141724,1,2,0:0:0:0:
328,144,141931,2,0,L|392:128,2,56.2500021457673,8|0|8,0:0|0:0|0:0,0:0:0:0:
320,288,142344,6,0,P|240:312|144:272,1,168.750006437302,8|0,0:0|0:0,0:0:0:0:
136,272,142758,2,0,P|88:208|104:160,1,112.500004291535,8|2,0:0|0:0,0:0:0:0:
112,144,143068,1,8,0:0:0:0:
152,128,143172,1,4,0:0:0:0:
288,232,143379,5,0,0:0:0:0:
432,104,143586,1,0,0:0:0:0:
240,72,143793,6,0,P|144:120|136:160,1,112.500004291535,2|0,0:0|0:0,0:0:0:0:
96,288,144206,2,0,P|192:320|224:304,1,112.500004291535,8|2,0:0|0:0,0:0:0:0:
304,192,144620,5,2,0:0:0:0:
448,304,144827,1,4,0:0:0:0:
296,312,145034,6,8,P|208:312|168:264,1,112.500004291535
264,168,145448,1,0,0:0:0:0:
80,160,145655,2,0,P|112:72|152:72,1,112.500004291535,0|2,0:0|0:0,0:0:0:0:
160,64,145965,1,8,0:0:0:0:
200,64,146068,1,8,0:0:0:0:
160,208,146275,1,8,0:0:0:0:
296,296,146482,6,0,P|384:256|384:200,1,112.500004291535,4|0,0:0|0:0,0:0:0:0:
248,144,146896,2,0,P|176:96|168:56,1,112.500004291535
88,240,147310,5,0,0:0:0:0:
288,328,147517,1,0,0:0:0:0:
376,120,147724,5,0,0:0:0:0:
144,96,147931,1,8,0:0:0:0:
232,192,148137,6,0,P|320:240|328:272,1,112.500004291535,4|0,0:0|0:0,0:0:0:0:
328,272,148448,1,8,0:0:0:0:
128,224,148758,1,8,0:0:0:0:
104,80,148965,6,0,P|168:56|216:64,1,112.500004291535,8|0,0:0|0:0,0:0:0:0:
256,72,149275,1,8,0:0:0:0:
128,224,149586,1,8,0:0:0:0:
304,296,149793,6,4,P|360:248|376:192,1,112.500004291535
240,184,150206,1,2,0:0:0:0:
328,104,150413,1,0,0:0:0:0:
136,48,150620,5,8,0:0:0:0:
104,64,150724,1,8,0:0:0:0:
80,96,150827,1,8,0:0:0:0:
72,136,150931,1,8,0:0:0:0:
80,176,151034,2,2,P|152:216|168:248,1,112.500004291535
360,240,151448,5,4,0:0:0:0:
232,88,151655,1,0,0:0:0:0:
104,192,151862,6,0,P|160:256|208:248,1,112.500004291535
240,104,152275,1,8,0:0:0:0:
280,112,152379,1,2,0:0:0:0:
312,128,152482,1,8,0:0:0:0:
384,264,152689,1,8,0:0:0:0:
168,240,152896,6,8,P|112:200|104:152,1,112.500004291535,8|4,0:0|0:0,0:0:0:0:
120,128,153206,1,2,0:0:0:0:
152,136,153310,2,0,P|240:168|288:144,1,112.500004291535,2|2,0:0|0:0,0:0:0:0:
304,304,153724,6,0,P|384:288|432:240,1,112.500004291535
160,208,154137,1,0,0:0:0:0:
368,120,154344,1,2,0:0:0:0:
112,112,154551,5,8,0:0:0:0:
352,232,154758,2,0,P|288:288|240:288,1,112.500004291535,8|0,0:0|0:0,0:0:0:0:
120,176,155172,6,0,P|160:120|224:112,1,112.500004291535,0|8,0:0|0:0,0:0:0:0:
232,112,155482,1,0,0:0:0:0:
232,152,155586,2,2,P|192:224|216:280,1,112.500004291535
224,272,155896,1,0,0:0:0:0:
392,176,156000,1,2,0:0:0:0:
136,152,156206,5,8,0:0:0:0:
136,184,156310,1,8,0:0:0:0:
144,216,156413,2,0,P|200:264|256:264,1,112.500004291535,4|0,0:0|0:0,0:0:0:0:
328,120,156827,2,0,P|336:184|280:232,1,112.500004291535
200,304,157241,5,2,0:0:0:0:
168,288,157344,1,2,0:0:0:0:
136,256,157448,1,2,0:0:0:0:
128,224,157551,1,2,0:0:0:0:
128,192,157655,2,0,P|176:208|232:160,1,112.500004291535,8|8,0:0|0:0,0:0:0:0:
416,160,158068,6,4,P|368:80|312:64,1,112.500004291535,4|2,0:0|0:0,0:0:0:0:
200,80,158482,1,0,0:0:0:0:
336,224,158689,1,0,0:0:0:0:
192,304,158896,1,8,0:0:0:0:
88,224,159103,1,8,0:0:0:0:
120,64,159310,5,2,0:0:0:0:
152,88,159413,1,8,0:0:0:0:
176,120,159517,2,0,P|232:80|288:88,1,112.500004291535,0|4,0:0|0:0,0:0:0:0:
240,248,159931,6,0,P|312:288|376:264,1,112.500004291535
432,160,160344,1,0,0:0:0:0:
136,112,160551,5,0,0:0:0:0:
376,272,160758,1,0,0:0:0:0:
240,56,160965,5,8,0:0:0:0:
296,312,161172,1,8,0:0:0:0:
80,248,161379,5,4,0:0:0:0:
400,160,161586,1,0,0:0:0:0:
264,104,161793,5,0,0:0:0:0:
248,96,161896,2,0,P|168:88|136:112,1,112.500004291535
128,136,162206,1,0,0:0:0:0:
144,160,162310,2,0,P|200:200|216:256,1,112.500004291535
240,256,162620,1,0,0:0:0:0:
416,152,162827,1,0,0:0:0:0:
248,80,163034,6,0,P|168:64|112:112,1,112.500004291535,4|0,0:0|0:0,0:0:0:0:
160,256,163448,2,0,P|240:312|296:304,1,112.500004291535
440,200,163862,5,2,0:0:0:0:
224,144,164068,1,0,0:0:0:0:
432,64,164275,1,0,0:0:0:0:
448,208,164482,2,0,P|408:304|368:320,1,112.500004291535,0|4,0:0|0:0,0:0:0:0:
352,208,164896,2,0,P|360:136|408:104,1,112.500004291535
224,64,165310,5,0,0:0:0:0:
120,152,165517,1,8,0:0:0:0:
256,240,165724,1,0,0:0:0:0:
112,280,165931,6,0,P|152:184|200:160,1,112.500004291535
280,312,166344,2,0,P|360:320|384:280,1,112.500004291535,4|0,0:0|0:0,0:0:0:0:
320,136,166758,2,0,P|264:96|200:88,1,112.500004291535
144,232,167172,5,2,0:0:0:0:
320,272,167379,1,0,0:0:0:0:
384,104,167586,1,0,0:0:0:0:
208,64,167793,5,0,0:0:0:0:
200,88,167896,1,0,0:0:0:0:
200,120,168000,1,4,0:0:0:0:
256,264,168206,6,0,P|352:280|384:248,1,112.500004291535
216,136,168620,2,0,P|160:160|128:208,1,112.500004291535,0|8,0:0|0:0,0:0:0:0:
224,304,169034,1,8,0:0:0:0:
400,168,169241,1,8,0:0:0:0:
264,88,169448,5,2,0:0:0:0:
224,96,169551,1,0,0:0:0:0:
192,120,169655,2,0,P|144:176|144:224,1,112.500004291535,4|0,0:0|0:0,0:0:0:0:
264,296,170068,5,2,0:0:0:0:
304,288,170172,1,0,0:0:0:0:
344,272,170275,1,0,0:0:0:0:
368,248,170379,1,0,0:0:0:0:
376,216,170482,2,8,P|304:192|272:136,1,112.500004291535,8|2,0:0|0:0,0:0:0:0:
160,88,170896,6,0,P|112:152|112:192,1,112.500004291535,0|8,0:0|0:0,0:0:0:0:
288,168,171310,2,8,P|288:232|256:264,1,112.500004291535,8|0,0:0|0:0,0:0:0:0:
120,216,171724,5,2,0:0:0:0:
344,112,171931,1,0,0:0:0:0:
360,272,172137,5,8,0:0:0:0:
328,264,172241,1,0,0:0:0:0:
296,248,172344,2,0,P|248:192|240:144,1,112.500004291535,8|2,0:0|0:0,0:0:0:0:
376,96,172758,5,0,0:0:0:0:
232,184,172965,1,4,0:0:0:0:
96,280,173172,6,0,P|168:320|216:304,1,112.500004291535,0|2,0:0|0:0,0:0:0:0:
256,152,173586,2,0,P|304:104|344:88,1,112.500004291535
352,256,174000,5,8,0:0:0:0:
152,168,174206,1,2,0:0:0:0:
376,96,174413,5,8,0:0:0:0:
168,272,174620,2,2,P|120:240|96:192,1,112.500004291535,4|0,0:0|0:0,0:0:0:0:
256,104,175034,5,2,0:0:0:0:
400,200,175241,1,0,0:0:0:0:
256,272,175448,2,0,P|176:232|160:192,1,112.500004291535,0|8,0:0|0:0,0:0:0:0:
160,192,175758,1,0,0:0:0:0:
168,168,175862,1,2,0:0:0:0:
416,144,176068,1,4,0:0:0:0:
