osu file format v14

[General]
AudioFilename: audio.mp3
AudioLeadIn: 0
PreviewTime: -1
Countdown: 1
SampleSet: None
StackLeniency: 0.7
Mode: 0
LetterboxInBreaks: 0
WidescreenStoryboard: 1

[Editor]
Bookmarks: 88,1667,1930,2193,2456,2719,2982,3246,3509,3772,84302
DistanceSpacing: 1.3
BeatDivisor: 4
GridSize: 16
TimelineZoom: 0.1

[Metadata]
Title:Nya nya song
TitleUnicode:Nya nya song
Artist:Dashi52
ArtistUnicode:Dashi52
Creator:Dashi52
Version:Dont be Move (haardcore)
Source:
Tags:
BeatmapID:1236386
BeatmapSetID:584436

[Difficulty]
HPDrainRate:4
CircleSize:4
OverallDifficulty:5
ApproachRate:5
SliderMultiplier:1.59999990463257
SliderTickRate:3

[Events]
//Background and Video events
Video,0,"Nya Nya Song (Flashing images).mp4"
//Break Periods
2,103713,108365
//Storyboard Layer 0 (Background)
//Storyboard Layer 1 (Fail)
//Storyboard Layer 2 (Pass)
//Storyboard Layer 3 (Foreground)
//Storyboard Sound Samples

[TimingPoints]
8250.1052631579,1052.63157894737,4,1,0,100,1,0

[Colours]
Combo1 : 253,2,9
Combo2 : 0,202,0
Combo3 : 242,24,248
Combo4 : 10,157,245

[HitObjects]
252,188,1934,5,0,0:0:0:0:
254,189,3513,1,0,0:0:0:0:
253,180,4565,1,0,0:0:0:0:
266,190,6144,1,0,0:0:0:0:
253,188,7723,1,0,0:0:0:0:
257,180,9039,1,0,0:0:0:0:
249,201,10355,1,0,0:0:0:0:
237,180,11144,1,0,0:0:0:0:
245,177,11671,1,0,0:0:0:0:
260,183,12197,1,0,0:0:0:0:
262,197,12723,1,0,0:0:0:0:
251,207,13250,1,0,0:0:0:0:
236,200,13513,1,0,0:0:0:0:
233,185,14039,1,0,0:0:0:0:
241,177,14565,1,0,0:0:0:0:
254,181,14829,1,0,0:0:0:0:
261,190,15618,1,0,0:0:0:0:
255,202,16144,1,0,0:0:0:0:
244,204,16408,1,0,0:0:0:0:
233,197,16934,1,0,0:0:0:0:
231,188,17460,1,0,0:0:0:0:
232,182,17723,1,0,0:0:0:0:
241,176,18250,1,0,0:0:0:0:
251,176,18513,1,0,0:0:0:0:
258,178,18776,1,0,0:0:0:0:
263,189,19302,1,0,0:0:0:0:
258,199,19565,1,0,0:0:0:0:
250,202,19829,1,0,0:0:0:0:
240,199,20092,1,0,0:0:0:0:
233,190,20618,1,0,0:0:0:0:
234,183,20881,1,0,0:0:0:0:
242,177,21144,1,0,0:0:0:0:
253,177,21408,1,0,0:0:0:0:
265,187,21671,1,0,0:0:0:0:
264,196,22197,1,0,0:0:0:0:
253,202,22460,1,0,0:0:0:0:
238,194,22723,1,0,0:0:0:0:
235,186,22986,1,0,0:0:0:0:
238,178,23250,1,0,0:0:0:0:
247,177,23513,1,0,0:0:0:0:
258,194,24039,1,0,0:0:0:0:
242,198,24302,1,0,0:0:0:0:
241,181,24829,1,0,0:0:0:0:
256,180,25092,1,0,0:0:0:0:
253,193,25618,1,0,0:0:0:0:
254,190,26144,1,0,0:0:0:0:
256,186,26671,1,0,0:0:0:0:
254,190,26934,1,0,0:0:0:0:
256,186,27197,1,0,0:0:0:0:
256,186,27460,1,0,0:0:0:0:
254,190,27723,1,0,0:0:0:0:
254,190,27986,1,0,0:0:0:0:
243,181,28250,1,0,0:0:0:0:
259,175,28776,1,0,0:0:0:0:
271,187,29039,1,0,0:0:0:0:
242,206,29302,1,0,0:0:0:0:
235,182,29565,1,0,0:0:0:0:
251,175,30092,1,0,0:0:0:0:
274,195,30355,1,0,0:0:0:0:
247,202,30618,1,0,0:0:0:0:
236,190,30881,1,0,0:0:0:0:
253,169,31144,1,0,0:0:0:0:
271,185,31671,1,0,0:0:0:0:
258,217,31934,1,0,0:0:0:0:
228,182,32197,1,0,0:0:0:0:
252,170,32460,1,0,0:0:0:0:
262,204,32723,1,0,0:0:0:0:
231,199,32986,1,0,0:0:0:0:
232,187,33250,1,0,0:0:0:0:
241,177,33513,1,0,0:0:0:0:
260,183,33776,1,0,0:0:0:0:
235,203,34039,1,0,0:0:0:0:
227,183,34302,1,0,0:0:0:0:
241,177,34565,1,0,0:0:0:0:
253,179,34829,1,0,0:0:0:0:
258,198,35092,1,0,0:0:0:0:
252,179,35355,1,0,0:0:0:0:
240,194,35618,1,0,0:0:0:0:
242,179,35881,1,0,0:0:0:0:
252,191,36144,1,0,0:0:0:0:
243,208,36408,1,0,0:0:0:0:
239,204,36934,1,0,0:0:0:0:
258,193,37197,1,0,0:0:0:0:
239,204,37460,1,0,0:0:0:0:
238,179,37723,1,0,0:0:0:0:
250,180,37986,1,0,0:0:0:0:
250,191,38250,1,0,0:0:0:0:
221,187,38513,1,0,0:0:0:0:
235,172,38776,1,0,0:0:0:0:
261,183,39039,1,0,0:0:0:0:
244,199,39302,1,0,0:0:0:0:
227,176,39565,1,0,0:0:0:0:
255,177,39829,1,0,0:0:0:0:
227,176,40092,1,0,0:0:0:0:
246,179,40355,1,0,0:0:0:0:
234,182,40618,1,0,0:0:0:0:
255,177,40881,1,0,0:0:0:0:
229,185,41144,1,0,0:0:0:0:
251,177,41671,1,0,0:0:0:0:
248,172,41934,1,0,0:0:0:0:
245,180,42197,1,0,0:0:0:0:
241,186,42460,1,0,0:0:0:0:
253,189,42723,1,0,0:0:0:0:
243,189,42986,1,0,0:0:0:0:
257,181,43250,1,0,0:0:0:0:
253,189,43513,1,0,0:0:0:0:
255,183,43776,1,0,0:0:0:0:
257,194,44302,1,0,0:0:0:0:
253,189,44565,1,0,0:0:0:0:
257,194,44829,1,0,0:0:0:0:
257,193,45355,1,0,0:0:0:0:
257,194,45618,1,0,0:0:0:0:
247,188,46144,1,0,0:0:0:0:
257,194,46408,1,0,0:0:0:0:
242,191,46671,1,0,0:0:0:0:
251,176,46934,1,0,0:0:0:0:
257,177,47197,1,0,0:0:0:0:
265,199,47460,1,0,0:0:0:0:
256,206,47723,1,0,0:0:0:0:
233,190,47986,1,0,0:0:0:0:
255,177,48250,1,0,0:0:0:0:
267,189,48513,1,0,0:0:0:0:
256,204,48776,1,0,0:0:0:0:
237,189,49039,1,0,0:0:0:0:
256,177,49302,1,0,0:0:0:0:
267,198,49565,1,0,0:0:0:0:
237,189,49829,1,0,0:0:0:0:
251,172,50092,1,0,0:0:0:0:
267,174,50355,1,0,0:0:0:0:
267,198,50618,1,0,0:0:0:0:
241,202,50881,1,0,0:0:0:0:
252,183,51144,1,0,0:0:0:0:
259,197,51671,1,0,0:0:0:0:
255,192,53250,1,0,0:0:0:0:
257,192,55355,1,0,0:0:0:0:
256,191,57197,1,0,0:0:0:0:
256,191,57460,1,0,0:0:0:0:
256,191,57723,1,0,0:0:0:0:
261,197,59565,1,0,0:0:0:0:
261,197,59829,1,0,0:0:0:0:
264,199,61144,1,0,0:0:0:0:
264,199,61408,1,0,0:0:0:0:
264,199,61671,1,0,0:0:0:0:
264,199,61934,1,0,0:0:0:0:
253,187,64302,1,0,0:0:0:0:
251,174,65881,1,0,0:0:0:0:
265,196,66408,1,0,0:0:0:0:
242,197,66671,1,0,0:0:0:0:
239,184,66934,1,0,0:0:0:0:
255,179,67197,1,0,0:0:0:0:
261,189,67460,1,0,0:0:0:0:
253,198,67986,1,0,0:0:0:0:
237,196,68250,1,0,0:0:0:0:
236,185,68513,1,0,0:0:0:0:
238,182,68776,1,0,0:0:0:0:
244,176,69039,1,0,0:0:0:0:
253,188,69565,1,0,0:0:0:0:
249,201,69829,1,0,0:0:0:0:
237,202,70092,1,0,0:0:0:0:
234,195,70355,1,0,0:0:0:0:
235,190,70618,1,0,0:0:0:0:
241,188,71144,1,0,0:0:0:0:
248,191,71408,1,0,0:0:0:0:
249,197,71934,1,0,0:0:0:0:
248,191,72197,1,0,0:0:0:0:
247,189,72723,1,0,0:0:0:0:
256,199,72986,1,0,0:0:0:0:
248,191,73250,1,0,0:0:0:0:
255,186,73513,1,0,0:0:0:0:
257,187,73776,1,0,0:0:0:0:
256,192,74302,1,0,0:0:0:0:
255,196,74565,1,0,0:0:0:0:
252,192,74829,1,0,0:0:0:0:
256,192,75092,1,0,0:0:0:0:
255,196,75355,1,0,0:0:0:0:
252,192,75881,1,0,0:0:0:0:
258,182,76144,1,0,0:0:0:0:
263,184,76408,1,0,0:0:0:0:
266,192,76671,1,0,0:0:0:0:
261,201,76934,1,0,0:0:0:0:
246,196,77460,1,0,0:0:0:0:
247,184,77723,1,0,0:0:0:0:
262,185,77986,1,0,0:0:0:0:
268,194,78250,1,0,0:0:0:0:
264,202,78513,1,0,0:0:0:0:
248,194,78776,1,0,0:0:0:0:
254,187,79039,1,0,0:0:0:0:
266,190,79302,1,0,0:0:0:0:
260,198,79565,1,0,0:0:0:0:
248,194,79829,1,0,0:0:0:0:
258,186,80092,1,0,0:0:0:0:
260,198,80618,1,0,0:0:0:0:
242,202,80881,1,0,0:0:0:0:
241,186,81144,1,0,0:0:0:0:
253,180,81408,1,0,0:0:0:0:
259,191,81671,1,0,0:0:0:0:
247,197,82197,1,0,0:0:0:0:
242,185,82460,1,0,0:0:0:0:
252,180,82723,1,0,0:0:0:0:
255,183,82986,1,0,0:0:0:0:
255,195,83250,1,0,0:0:0:0:
246,195,83776,1,0,0:0:0:0:
241,186,84039,1,0,0:0:0:0:
252,186,84302,1,0,0:0:0:0:
256,190,84829,1,0,0:0:0:0:
253,199,85092,1,0,0:0:0:0:
240,189,85355,1,0,0:0:0:0:
250,187,85618,1,0,0:0:0:0:
256,192,85881,1,0,0:0:0:0:
251,202,86144,1,0,0:0:0:0:
237,189,86408,1,0,0:0:0:0:
253,178,86671,1,0,0:0:0:0:
262,198,86934,1,0,0:0:0:0:
244,205,87197,1,0,0:0:0:0:
237,189,87460,1,0,0:0:0:0:
249,179,87986,1,0,0:0:0:0:
258,197,88250,1,0,0:0:0:0:
247,198,88513,1,0,0:0:0:0:
246,189,88776,1,0,0:0:0:0:
259,190,89039,1,0,0:0:0:0:
258,197,89302,1,0,0:0:0:0:
247,198,89565,1,0,0:0:0:0:
246,189,89829,1,0,0:0:0:0:
257,202,90092,1,0,0:0:0:0:
240,196,90355,1,0,0:0:0:0:
255,187,90618,1,0,0:0:0:0:
262,193,90881,1,0,0:0:0:0:
257,202,91144,1,0,0:0:0:0:
244,187,91408,1,0,0:0:0:0:
255,187,91671,1,0,0:0:0:0:
262,205,91934,1,0,0:0:0:0:
249,206,92197,1,0,0:0:0:0:
247,190,92460,1,0,0:0:0:0:
255,187,92723,1,0,0:0:0:0:
259,196,92986,1,0,0:0:0:0:
254,205,93250,1,0,0:0:0:0:
247,190,93513,1,0,0:0:0:0:
255,187,93776,1,0,0:0:0:0:
263,204,94039,1,0,0:0:0:0:
261,191,94302,1,0,0:0:0:0:
246,203,94565,1,0,0:0:0:0:
259,183,94829,1,0,0:0:0:0:
259,183,95618,1,0,0:0:0:0:
239,199,95881,1,0,0:0:0:0:
259,183,96408,1,0,0:0:0:0:
264,204,96671,1,0,0:0:0:0:
238,199,96934,1,0,0:0:0:0:
243,182,97197,1,0,0:0:0:0:
269,205,97460,1,0,0:0:0:0:
238,199,97723,1,0,0:0:0:0:
249,179,97986,1,0,0:0:0:0:
268,195,98250,1,0,0:0:0:0:
240,202,98513,1,0,0:0:0:0:
260,184,98776,1,0,0:0:0:0:
243,187,99039,1,0,0:0:0:0:
261,178,99302,1,0,0:0:0:0:
261,205,99565,1,0,0:0:0:0:
242,186,99829,1,0,0:0:0:0:
234,181,100092,1,0,0:0:0:0:
263,182,100355,1,0,0:0:0:0:
269,199,100618,1,0,0:0:0:0:
236,202,100881,1,0,0:0:0:0:
241,168,101144,1,0,0:0:0:0:
252,199,101408,1,0,0:0:0:0:
260,187,101671,1,0,0:0:0:0:
254,200,103250,1,0,0:0:0:0:
251,195,103513,1,0,0:0:0:0:
257,192,109565,5,0,0:0:0:0:
253,195,111671,1,0,0:0:0:0:
252,166,113250,1,0,0:0:0:0:
285,183,115092,1,0,0:0:0:0:
278,214,116144,1,0,0:0:0:0:
236,217,117197,1,0,0:0:0:0:
226,183,118513,1,0,0:0:0:0:
265,160,120092,1,0,0:0:0:0:
257,192,121934,1,0,0:0:0:0:
257,192,122197,1,0,0:0:0:0:
259,195,123513,1,0,0:0:0:0:
259,195,123776,1,0,0:0:0:0:
261,196,125092,1,0,0:0:0:0:
261,196,125355,1,0,0:0:0:0:
261,196,126408,1,0,0:0:0:0:
261,196,126671,1,0,0:0:0:0:
261,196,127723,1,0,0:0:0:0:
261,196,127986,1,0,0:0:0:0:
261,196,130618,1,0,0:0:0:0:
261,196,130881,1,0,0:0:0:0:
261,196,131408,1,0,0:0:0:0:
261,196,131671,1,0,0:0:0:0:
261,196,131934,1,0,0:0:0:0:
251,188,132197,1,0,0:0:0:0:
255,186,132723,1,0,0:0:0:0:
265,189,132986,1,0,0:0:0:0:
265,205,133250,1,0,0:0:0:0:
255,209,133513,1,0,0:0:0:0:
245,206,133776,1,0,0:0:0:0:
243,197,134302,1,0,0:0:0:0:
254,187,134565,1,0,0:0:0:0:
263,191,134829,1,0,0:0:0:0:
265,200,135092,1,0,0:0:0:0:
261,207,135355,1,0,0:0:0:0:
246,200,135881,1,0,0:0:0:0:
245,193,136144,1,0,0:0:0:0:
257,187,136671,1,0,0:0:0:0:
269,197,136934,1,0,0:0:0:0:
252,212,137460,1,0,0:0:0:0:
243,200,137723,1,0,0:0:0:0:
253,187,137986,1,0,0:0:0:0:
262,188,138250,1,0,0:0:0:0:
267,199,138513,1,0,0:0:0:0:
257,207,138776,1,0,0:0:0:0:
244,178,139302,1,0,0:0:0:0:
254,178,139565,1,0,0:0:0:0:
266,180,139829,1,0,0:0:0:0:
272,196,140092,1,0,0:0:0:0:
262,207,140618,1,0,0:0:0:0:
238,199,140881,1,0,0:0:0:0:
261,179,141144,1,0,0:0:0:0:
269,187,141408,1,0,0:0:0:0:
273,193,141671,1,0,0:0:0:0:
271,204,141934,1,0,0:0:0:0:
267,211,142197,1,0,0:0:0:0:
251,211,142460,1,0,0:0:0:0:
239,198,142723,1,0,0:0:0:0:
256,192,143250,1,0,0:0:0:0:
272,201,143513,1,0,0:0:0:0:
259,212,144039,1,0,0:0:0:0:
242,197,144302,1,0,0:0:0:0:
242,187,144565,1,0,0:0:0:0:
266,180,144829,1,0,0:0:0:0:
276,191,145092,1,0,0:0:0:0:
252,215,145618,1,0,0:0:0:0:
236,192,145881,1,0,0:0:0:0:
267,181,146144,1,0,0:0:0:0:
274,194,146408,1,0,0:0:0:0:
270,210,146934,1,0,0:0:0:0:
241,196,147197,1,0,0:0:0:0:
267,181,147460,1,0,0:0:0:0:
270,191,147723,1,0,0:0:0:0:
266,205,147986,1,0,0:0:0:0:
246,203,148513,1,0,0:0:0:0:
253,183,148776,1,0,0:0:0:0:
269,193,149039,1,0,0:0:0:0:
264,210,149565,1,0,0:0:0:0:
237,198,150092,1,0,0:0:0:0:
245,184,150355,1,0,0:0:0:0:
261,185,150618,1,0,0:0:0:0:
266,203,150881,1,0,0:0:0:0:
251,211,151144,1,0,0:0:0:0:
241,197,151671,1,0,0:0:0:0:
251,178,151934,1,0,0:0:0:0:
272,195,152197,1,0,0:0:0:0:
268,203,152460,1,0,0:0:0:0:
245,202,152723,1,0,0:0:0:0:
243,187,153250,1,0,0:0:0:0:
258,177,153513,1,0,0:0:0:0:
271,192,153776,1,0,0:0:0:0:
270,204,154039,1,0,0:0:0:0:
240,192,154302,1,0,0:0:0:0:
241,177,154565,1,0,0:0:0:0:
255,170,154829,1,0,0:0:0:0:
268,182,155092,1,0,0:0:0:0:
269,191,155355,1,0,0:0:0:0:
267,200,155618,1,0,0:0:0:0:
244,201,155881,1,0,0:0:0:0:
243,179,156144,1,0,0:0:0:0:
262,179,156671,1,0,0:0:0:0:
269,203,156934,1,0,0:0:0:0:
243,204,157197,1,0,0:0:0:0:
241,190,157460,1,0,0:0:0:0:
256,183,157986,1,0,0:0:0:0:
269,191,158250,1,0,0:0:0:0:
247,199,158513,1,0,0:0:0:0:
244,183,158776,1,0,0:0:0:0:
257,178,159039,1,0,0:0:0:0:
274,184,159302,1,0,0:0:0:0:
271,207,159829,1,0,0:0:0:0:
249,189,160092,1,0,0:0:0:0:
260,177,160355,1,0,0:0:0:0:
270,182,160618,1,0,0:0:0:0:
273,196,161144,1,0,0:0:0:0:
256,196,161408,1,0,0:0:0:0:
263,177,161934,1,0,0:0:0:0:
281,182,162197,1,0,0:0:0:0:
262,206,162986,1,0,0:0:0:0:
255,194,163250,1,0,0:0:0:0:
254,184,163513,1,0,0:0:0:0:
261,178,163776,1,0,0:0:0:0:
271,192,164302,1,0,0:0:0:0:
256,200,164565,1,0,0:0:0:0:
256,187,165355,1,0,0:0:0:0:
260,197,166144,1,0,0:0:0:0:
248,204,166671,1,0,0:0:0:0:
245,188,167197,1,0,0:0:0:0:
265,186,167723,1,0,0:0:0:0:
272,207,168250,1,0,0:0:0:0:
252,217,168513,1,0,0:0:0:0:
236,197,169039,1,0,0:0:0:0:
257,178,169302,1,0,0:0:0:0:
269,192,169565,1,0,0:0:0:0:
268,207,169829,1,0,0:0:0:0:
252,214,170092,1,0,0:0:0:0:
234,199,170618,1,0,0:0:0:0:
245,181,170881,1,0,0:0:0:0:
274,193,171408,1,0,0:0:0:0:
276,206,171671,1,0,0:0:0:0:
255,219,172460,1,0,0:0:0:0:
243,214,172723,1,0,0:0:0:0:
233,203,172986,1,0,0:0:0:0:
255,189,173250,1,0,0:0:0:0:
265,196,173513,1,0,0:0:0:0:
262,208,174039,1,0,0:0:0:0:
237,207,174302,1,0,0:0:0:0:
236,189,174565,1,0,0:0:0:0:
251,185,174829,1,0,0:0:0:0:
266,201,175092,1,0,0:0:0:0:
257,219,175355,1,0,0:0:0:0:
234,213,175618,1,0,0:0:0:0:
229,198,175881,1,0,0:0:0:0:
244,186,176144,1,0,0:0:0:0:
268,195,176408,1,0,0:0:0:0:
256,216,176671,1,0,0:0:0:0:
242,179,177197,1,0,0:0:0:0:
270,195,177723,1,0,0:0:0:0:
256,211,177986,1,0,0:0:0:0:
236,196,178250,1,0,0:0:0:0:
252,175,178513,1,0,0:0:0:0:
270,193,178776,1,0,0:0:0:0:
256,208,179039,1,0,0:0:0:0:
239,189,179302,1,0,0:0:0:0:
261,187,179565,1,0,0:0:0:0:
244,199,179829,1,0,0:0:0:0:
250,177,180092,1,0,0:0:0:0:
267,192,180355,1,0,0:0:0:0:
244,199,180881,1,0,0:0:0:0:
247,175,181144,1,0,0:0:0:0:
264,178,181408,1,0,0:0:0:0:
258,197,182197,1,0,0:0:0:0:
261,189,182986,1,0,0:0:0:0:
257,201,183513,1,0,0:0:0:0:
255,191,183776,1,0,0:0:0:0:
257,184,184302,1,0,0:0:0:0:
265,191,184565,1,0,0:0:0:0:
253,200,185092,1,0,0:0:0:0:
255,177,185355,1,0,0:0:0:0:
269,197,185881,1,0,0:0:0:0:
258,187,186144,1,0,0:0:0:0:
269,197,186671,1,0,0:0:0:0:
258,187,187197,1,0,0:0:0:0:
261,181,187460,1,0,0:0:0:0:
260,193,188250,1,0,0:0:0:0:
260,193,189039,1,0,0:0:0:0:
260,193,189829,1,0,0:0:0:0:
260,193,190092,1,0,0:0:0:0:
260,193,190355,1,0,0:0:0:0:
260,193,190618,1,0,0:0:0:0:
260,193,191144,1,0,0:0:0:0:
257,206,191934,1,0,0:0:0:0:
249,188,192723,1,0,0:0:0:0:
257,179,192986,1,0,0:0:0:0:
269,187,193513,1,0,0:0:0:0:
265,199,193776,1,0,0:0:0:0:
258,196,194039,1,0,0:0:0:0:
