osu file format v14

[General]
AudioFilename: audio.mp3
AudioLeadIn: 0
PreviewTime: 32313
Countdown: 0
SampleSet: Soft
StackLeniency: 0.7
Mode: 0
LetterboxInBreaks: 0
WidescreenStoryboard: 0

[Editor]
DistanceSpacing: 0.8
BeatDivisor: 4
GridSize: 4
TimelineZoom: 1

[Metadata]
Title:Adult Education
TitleUnicode:Adult Education
Artist:Daryl Hall & John Oates
ArtistUnicode:Daryl Hall & John Oates
Creator:Regraz
Version:Easy
Source:
Tags:Rock 'N Soul Part 1 gta grand theft auto ost original soundtrack non stop pop fm
BeatmapID:1442163
BeatmapSetID:680195

[Difficulty]
HPDrainRate:1.7
CircleSize:3
OverallDifficulty:2
ApproachRate:3.3
SliderMultiplier:1.3
SliderTickRate:1

[Events]
//Background and Video events
0,0,"timg.jpg",0,0
//Break Periods
//Storyboard Layer 0 (Background)
//Storyboard Layer 1 (Fail)
//Storyboard Layer 2 (Pass)
//Storyboard Layer 3 (Foreground)
//Storyboard Sound Samples

[TimingPoints]
1460,656.455142231947,4,2,1,30,1,0
11963,-100,4,2,1,45,0,0
74982,-100,4,2,1,55,0,1
95989,-100,4,2,1,45,0,0
105836,-100,4,2,1,20,0,0

[Colours]
Combo1 : 171,27,84
Combo2 : 26,189,95
Combo3 : 41,116,190

[HitObjects]
81,63,1460,6,0,L|70:209,1,130,2|0,0:0|0:0,0:0:0:0:
171,220,2772,2,0,L|180:90,1,130,2|0,0:0|0:0,0:0:0:0:
278,54,4085,2,0,P|381:77|464:29,2,195,2|0|8,0:0|0:0|0:0,0:0:0:0:
226,144,6711,6,0,P|215:220|241:277,1,130,4|0,0:3|0:0,0:0:0:0:
338,269,8024,2,0,P|358:208|346:145,1,130,2|8,0:0|0:0,0:0:0:0:
444,115,9337,2,0,P|458:248|424:329,2,195,4|0|8,0:3|0:0|0:0,0:0:0:0:
369,43,11963,6,0,L|261:52,1,97.5,4|8,0:0|0:0,0:0:0:0:
193,29,12947,2,0,L|42:38,1,130,4|4,0:3|0:3,0:0:0:0:
11,40,13932,1,8,0:0:0:0:
52,135,14589,2,0,P|23:218|63:318,1,195,4|0,0:3|0:0,0:0:0:0:
156,276,16230,2,0,P|214:264|294:287,1,130,4|4,0:3|0:3,0:0:0:0:
325,307,17214,6,0,L|320:200,1,97.5,4|8,0:3|0:0,0:0:0:0:
342,129,18199,2,0,P|265:154|208:132,1,130,4|4,0:3|0:3,0:0:0:0:
185,101,19184,1,8,0:0:0:0:
82,116,19840,2,0,P|46:223|116:290,2,195,4|0|8,0:3|0:0|0:0,0:0:0:0:
154,41,22466,6,0,P|227:28|264:32,1,97.5,4|8,0:3|0:0,0:0:0:0:
331,48,23451,2,0,L|325:196,1,130,4|4,0:3|0:3,0:0:0:0:
323,229,24435,1,8,0:0:0:0:
272,319,25092,2,0,P|204:308|163:193,1,195,4|0,0:3|0:0,0:0:0:0:
167,100,26733,2,0,P|228:81|289:100,1,130,4|4,0:3|0:3,0:0:0:0:
328,134,27718,6,0,L|446:127,1,97.5,4|8,0:3|0:0,0:0:0:0:
485,75,28702,2,0,L|478:215,1,130,4|4,0:3|0:3,0:0:0:0:
476,256,29687,1,8,0:0:0:0:
373,215,30344,1,8,0:0:0:0:
78,86,32969,6,0,P|155:101|196:94,1,97.5,4|8,0:3|0:0,0:0:0:0:
235,46,33954,2,0,L|377:57,1,130,0|4,0:0|0:3,0:0:0:0:
416,63,34939,1,8,0:0:0:0:
362,151,35595,2,0,P|426:167|475:150,2,97.5,4|8|0,0:3|0:0|0:0,0:0:0:0:
257,154,37236,2,0,L|191:165,1,65,4|8,0:3|0:0,0:0:0:0:
94,198,38221,6,0,P|81:274|98:313,1,97.5,4|8,0:3|0:0,0:0:0:0:
160,325,39206,2,0,P|207:305|290:327,1,130,0|4,0:0|0:3,0:0:0:0:
308,365,40190,1,8,0:0:0:0:
392,307,40847,2,0,L|510:315,1,97.5,4|8,0:3|0:0,0:0:0:0:
494,231,41831,2,0,P|474:173|490:108,1,130,0|4,0:0|0:3,0:0:0:0:
510,59,42816,1,8,0:0:0:0:
406,45,43473,6,0,P|347:68|296:52,1,97.5,4|8,0:3|0:0,0:0:0:0:
237,35,44457,2,0,P|171:30|111:82,1,130,0|4,0:0|0:3,0:0:0:0:
96,113,45442,1,8,0:0:0:0:
28,191,46098,2,0,L|24:298,2,97.5,4|8|0,0:3|0:0|0:0,0:0:0:0:
130,208,47740,2,0,P|175:214|195:232,1,65,4|8,0:3|0:0,0:0:0:0:
239,317,48724,6,0,L|360:328,1,97.5,4|8,0:3|0:0,0:0:0:0:
419,327,49709,2,0,P|435:274|413:188,1,130,0|4,0:0|0:3,0:0:0:0:
399,155,50694,1,8,0:0:0:0:
302,194,51350,2,0,L|308:77,1,97.5,4|8,0:3|0:0,0:0:0:0:
345,28,52335,2,0,P|265:48|217:27,1,130,0|4,0:0|0:3,0:0:0:0:
172,18,53319,1,8,0:0:0:0:
81,85,53976,6,0,P|80:141|45:187,1,97.5,4|8,0:0|0:0,0:0:0:0:
5,232,54961,2,0,P|68:218|144:240,1,130,0|4,0:0|0:3,0:0:0:0:
129,284,55945,1,8,0:0:0:0:
227,321,56602,2,0,P|296:312|347:329,1,97.5,4|8,0:3|0:0,0:0:0:0:
389,357,57586,2,0,L|386:213,1,130,0|4,0:0|0:3,0:0:0:0:
386,174,58571,1,8,0:0:0:0:
289,207,59228,6,0,P|218:228|173:211,1,97.5,4|8,0:3|0:0,0:0:0:0:
129,177,60212,2,0,L|139:38,1,130,0|4,0:0|0:3,0:0:0:0:
185,27,61197,1,8,0:0:0:0:
266,91,61853,2,0,L|390:83,1,97.5,4|8,0:3|0:0,0:0:0:0:
441,63,62838,2,0,P|424:128|454:183,1,130,0|4,0:0|0:3,0:0:0:0:
488,221,63823,1,8,0:0:0:0:
407,287,64479,6,0,L|296:276,1,97.5,4|8,0:3|0:0,0:0:0:0:
240,312,65464,2,0,L|94:330,1,130,0|4,0:0|0:3,0:0:0:0:
69,296,66449,1,8,0:0:0:0:
125,208,67105,2,0,P|134:148|104:93,1,97.5,4|8,0:3|0:0,0:0:0:0:
73,51,68090,2,0,P|140:13|202:28,1,130,0|4,0:0|0:3,0:0:0:0:
212,67,69074,1,8,0:0:0:0:
311,37,69731,6,0,P|346:84|348:143,1,97.5,4|8,0:3|0:0,0:0:0:0:
338,201,70716,2,0,P|281:200|194:236,1,130,0|4,0:0|0:3,0:0:0:0:
166,248,71700,1,8,0:0:0:0:
109,160,72357,2,0,P|94:111|112:46,2,97.5,4|8|0,0:3|0:0|0:0,0:0:0:0:
197,105,73998,1,4,0:3:0:0:
241,79,74326,2,0,L|323:85,1,65,8|4,0:0|0:3,0:0:0:0:
348,53,74982,6,0,L|459:45,1,97.5,4|8,0:0|0:0,0:0:0:0:
506,97,75967,2,0,B|519:164|519:164|503:233,1,130,4|4,0:3|0:3,0:0:0:0:
482,271,76952,1,8,0:0:0:0:
387,325,77608,2,0,L|269:317,1,97.5,4|8,0:3|0:0,0:0:0:0:
209,335,78593,2,0,L|69:348,1,130,0|4,0:0|0:3,0:0:0:0:
39,313,79578,2,0,P|36:273|44:238,1,65,8|4,0:0|0:3,0:0:0:0:
84,220,80234,6,0,P|95:165|78:103,1,97.5,4|8,0:3|0:0,0:0:0:0:
47,56,81219,2,0,P|115:77|182:49,1,130,4|4,0:3|0:3,0:0:0:0:
214,34,82203,1,8,0:0:0:0:
307,79,82860,2,0,P|373:68|422:89,1,97.5,4|8,0:3|0:0,0:0:0:0:
469,124,83845,2,0,L|463:262,1,130,0|4,0:0|0:3,0:0:0:0:
460,305,84829,2,0,L|380:291,1,65,8|4,0:0|0:3,0:0:0:0:
343,292,85486,6,0,P|291:334|239:336,1,97.5,4|8,0:3|0:0,0:0:0:0:
192,297,86470,2,0,P|123:285|63:304,1,130,4|4,0:3|0:3,0:0:0:0:
29,338,87455,1,8,0:0:0:0:
19,234,88112,2,0,P|11:173|17:120,1,97.5,4|8,0:3|0:0,0:0:0:0:
65,78,89096,2,0,P|139:101|204:92,1,130,0|4,0:0|0:3,0:0:0:0:
219,52,90081,2,0,L|299:46,1,65,8|4,0:0|0:3,0:0:0:0:
329,74,90737,6,0,L|444:72,1,97.5,4|8,0:3|0:0,0:0:0:0:
484,127,91722,2,0,P|495:204|470:257,1,130,4|4,0:3|0:3,0:0:0:0:
423,245,92707,1,8,0:0:0:0:
318,276,93363,2,0,P|241:309|208:304,1,97.5,4|8,0:3|0:0,0:0:0:0:
152,295,94348,2,0,L|154:160,1,130,0|4,0:0|0:3,0:0:0:0:
156,112,95333,1,8,0:0:0:0:
243,66,95989,6,0,B|306:57|306:57|392:75,1,130,4|0,0:0|0:0,0:0:0:0:
365,174,97302,2,0,B|302:183|302:183|237:169,1,130,0|8,0:0|0:0,0:0:0:0:
184,167,98287,1,0,0:0:0:0:
132,161,98615,2,0,P|122:254|132:277,1,97.5,4|8,0:3|0:0,0:0:0:0:
141,335,99600,2,0,L|275:324,1,130,0|4,0:0|0:3,0:0:0:0:
322,319,100584,1,8,0:0:0:0:
406,257,101241,6,0,P|421:182|392:110,1,130,4|0,0:3|0:0,0:0:0:0:
303,115,102554,2,0,P|228:142|166:127,1,130,0|8,0:0|0:0,0:0:0:0:
143,97,103538,2,0,L|62:104,1,65,0|12,0:0|0:0,0:0:0:0:
256,192,104031,12,0,105836,0:0:0:0:
