osu file format v14

[General]
AudioFilename: audio.mp3
AudioLeadIn: 0
PreviewTime: 40595
Countdown: 0
SampleSet: Normal
StackLeniency: 0.7
Mode: 0
LetterboxInBreaks: 0
WidescreenStoryboard: 0

[Editor]
DistanceSpacing: 0.7
BeatDivisor: 8
GridSize: 32
TimelineZoom: 5.000003

[Metadata]
Title:Radar Detector
TitleUnicode:Radar Detector
Artist:Darwin Deez
ArtistUnicode:Darwin Deez
Creator:sp00kem
Version:
Source:
Tags:
BeatmapID:1591416
BeatmapSetID:756220

[Difficulty]
HPDrainRate:6
CircleSize:4.2
OverallDifficulty:8
ApproachRate:9.6
SliderMultiplier:2
SliderTickRate:1

[Events]
//Background and Video events
0,0,"background.jpg",0,0
//Break Periods
//Storyboard Layer 0 (Background)
//Storyboard Layer 1 (Fail)
//Storyboard Layer 2 (Pass)
//Storyboard Layer 3 (Foreground)
//Storyboard Sound Samples

[TimingPoints]
5820,310.610829015544,4,1,0,33,1,0
5820,-66.6666666666667,4,1,0,22,0,0
6052,-100,4,1,0,33,0,0
6130,-133.333333333333,4,1,0,33,0,0
6441,-200,4,1,0,33,0,0
7373,-133.333333333333,4,1,0,33,0,0
7838,-200,4,1,0,33,0,0
8227,-200,4,1,0,5,0,0
8304,-200,4,1,0,33,0,0
9236,-100,4,1,0,33,0,0
9547,-200,4,1,0,33,0,0
9857,-100,4,1,0,33,0,0
10479,-200,4,1,0,33,0,0
10712,-200,4,1,0,5,0,0
10789,-200,4,1,0,33,0,0
11100,-200,4,1,0,33,0,0
11566,-200,4,1,0,33,0,0
11721,-142.857142857143,4,1,0,33,0,0
12342,-111.111111111111,4,1,0,33,0,0
13585,-142.857142857143,4,1,0,33,0,0
14206,-111.111111111111,4,1,0,33,0,0
14827,-90.9090909090909,4,1,0,33,0,0
14983,-133.333333333333,4,1,0,33,0,0
15759,-100,4,1,0,33,0,0
18477,-100,4,1,0,5,0,0
18555,-100,4,1,0,33,0,0
21039,-133.333333333333,4,1,0,33,0,0
25699,-100,4,1,0,33,0,0
26320,-100,4,1,0,33,0,0
26941,-100,4,1,0,33,0,0
27562,-100,4,1,0,33,0,0
28106,-100,4,1,0,5,0,0
28183,-100,4,1,0,33,0,0
28805,-133.333333333333,4,1,0,33,0,0
30358,-100,4,1,0,33,0,0
30979,-200,4,1,0,33,0,0
31600,-133.333333333333,4,1,0,33,0,0
32687,-133.333333333333,4,1,0,33,0,0
33153,-100,4,1,0,33,0,0
33464,-133.333333333333,4,1,0,33,0,0
35328,-100,4,1,0,33,0,0
35638,-83.3333333333333,4,1,0,33,0,0
36415,-133.333333333333,4,1,0,33,0,0
36881,-100,4,1,0,33,0,0
37114,-100,4,1,0,5,0,0
37191,-100,4,1,0,33,0,0
37657,-133.333333333333,4,1,0,33,0,0
38123,-100,4,1,0,33,0,0
38900,-133.333333333333,4,1,0,33,0,0
39365,-100,4,1,0,33,0,0
40608,-100,4,1,0,33,0,0
43167,310.610829015544,4,1,0,33,1,0
43167,-100,4,1,0,33,0,0
43788,-133.333333333333,4,1,0,33,0,0
44409,-100,4,1,0,33,0,0
45185,-100,4,1,0,33,0,0
45651,-100,4,1,0,33,0,0
46273,-133.333333333333,4,1,0,33,0,0
46894,-100,4,1,0,33,0,0
50000,-133.333333333333,4,1,0,33,0,0
50932,-200,4,1,0,33,0,0
52174,-100,4,1,0,33,0,0
52795,-66.6666666666667,4,1,0,33,0,0
53106,-100,4,1,0,33,0,0
53883,-66.6666666666667,4,1,0,33,0,0
54348,-100,4,1,0,33,0,0
55125,-66.6666666666667,4,1,0,33,0,0
55591,-200,4,1,0,33,0,0
55707,-200,4,1,0,5,0,0
56836,621.761658031088,4,1,0,5,1,0
56836,-200,4,1,0,5,0,0
56836,-100,4,1,0,5,0,0
57146,-100,4,1,0,8,0,0
57457,-100,4,1,0,12,0,0
57613,-100,4,1,0,33,0,0
57768,-100,4,1,0,66,0,0
58079,310.190829015542,4,1,0,33,1,0
58079,-100,4,1,0,33,0,0
58389,-200,4,1,0,33,0,0
58699,-100,4,1,0,33,0,0
60095,-66.6666666666667,4,1,0,33,0,0
60560,-100,4,1,0,33,0,0
61491,-100,4,1,0,33,0,0
61801,-117.647058823529,4,1,0,33,0,0
62111,-200,4,1,0,33,0,0
62421,-133.333333333333,4,1,0,33,0,0
62731,-100,4,1,0,33,0,0
63048,310.610829015544,4,1,0,33,1,0
63048,-83.3333333333333,4,1,0,33,0,0
63669,-100,4,1,0,33,0,0
64601,-133.333333333333,4,1,0,33,0,0
65066,-100,4,1,0,33,0,0
65532,-83.3333333333333,4,1,0,33,0,0
65843,-133.333333333333,4,1,0,33,0,0
66464,-100,4,1,0,33,0,0
67085,-200,4,1,0,33,0,0
67551,-100,4,1,0,33,0,0
68328,-200,4,1,0,33,0,0
68367,-200,4,1,0,5,0,0
68949,-200,4,1,0,33,0,0
68988,-200,4,1,0,5,0,0
69570,-200,4,1,0,33,0,0
69609,-133.333333333333,4,1,0,5,0,0
70036,-55.5555555555556,4,1,0,33,0,0
70075,-55.5555555555556,4,1,0,5,0,0
70502,-100,4,1,0,33,0,0
70813,-200,4,1,0,33,0,0
70854,-200,4,1,0,5,0,0
71434,-200,4,1,0,33,0,0
71475,-200,4,1,0,5,0,0
72055,-200,4,1,0,33,0,0
72096,-200,4,1,0,5,0,0
72521,-55.5555555555556,4,1,0,33,0,0
72562,-55.5555555555556,4,1,0,5,0,0
72661,-55.5555555555556,4,1,0,11,0,0
72816,-55.5555555555556,4,1,0,22,0,0
72987,-83.3333333333333,4,1,0,33,0,0
73919,-100,4,1,0,33,0,0
74540,-133.333333333333,4,1,0,33,0,0
74851,-76.9230769230769,4,1,0,33,0,0
75783,-76.9230769230769,4,1,0,22,0,0
75938,-76.9230769230769,4,1,0,11,0,0
76559,-200,4,1,0,5,0,0
77009,-200,4,1,0,11,0,0
77164,-200,4,1,0,22,0,0
77336,-100,4,1,0,33,0,0
77646,-76.9230769230769,4,1,0,33,0,0
77863,-83.3333333333333,4,1,0,5,0,0
77941,-83.3333333333333,4,1,0,33,0,0
78267,-76.9230769230769,4,1,0,33,0,0
78578,-90.9090909090909,4,1,0,33,0,0
78735,-111.111111111111,4,1,0,33,0,0
79199,-83.3333333333333,4,1,0,33,0,0
80752,-133.333333333333,4,1,0,33,0,0
81995,-133.333333333333,4,1,0,33,0,0
82616,-100,4,1,0,33,0,0
82927,-83.3333333333333,4,1,0,33,0,0
83703,-100,4,1,0,33,0,0
84169,-90.9090909090909,4,1,0,33,0,0
85411,-74.0740740740741,4,1,0,33,0,0
90451,310.610829015544,4,1,0,33,1,0
90451,-83.3333333333333,4,1,0,33,0,0
92459,-62.5,4,1,0,33,0,0
92935,-100,4,1,0,33,0,0
94178,-83.3333333333333,4,1,0,33,0,0
94799,-66.6666666666667,4,1,0,33,0,0
95420,-83.3333333333333,4,1,0,33,0,0
98216,-133.333333333333,4,1,0,33,0,0
98837,-200,4,1,0,33,0,0
99458,-100,4,1,0,33,0,0
100079,-66.6666666666667,4,1,0,33,0,0
100390,-66.6666666666667,4,1,0,33,0,0
100739,-50,4,1,0,5,0,0
100856,-50,4,1,0,33,0,0
100895,-50,4,1,0,5,0,0
101011,-66.6666666666667,4,1,0,33,0,0
102409,-50,4,1,0,33,0,0
102872,310.880829015544,4,1,0,33,1,0
105361,320.855614973262,4,1,0,11,1,0
105361,-500,4,1,0,11,0,0
106644,310.880829015544,4,1,0,11,1,0
107875,310.55900621118,4,1,0,11,1,0
110359,310.55900621118,4,1,0,11,1,0
112838,310.880829015544,4,1,0,11,1,0
115316,314.13612565445,4,1,0,11,1,0
116563,310.880829015544,4,1,0,11,1,0
117791,310.880829015544,4,1,0,11,1,0
120269,310.880829015544,4,1,0,11,1,0
122756,310.880829015544,4,1,0,11,1,0
127724,310.880829015544,4,1,0,11,1,0
128967,310.880829015544,4,1,0,11,1,0
132697,310.077519379845,4,1,0,11,1,0
135177,310.55900621118,4,1,0,11,1,0
140138,310.55900621118,4,1,0,11,1,0
142631,311.688311688312,4,1,0,11,1,0
145195,310.077519379845,4,1,0,11,1,0

[HitObjects]
268,50,5820,6,0,L|102:61,1,150
37,69,6130,5,8,0:0:0:0:
37,69,6285,1,8,0:0:0:0:
101,262,6441,5,0,0:0:0:0:
26,200,6596,1,0,0:0:0:0:
113,170,6751,2,0,P|127:158|109:162,1,50,8|0,0:0|0:0,0:0:0:0:
228,320,7062,5,0,0:0:0:0:
348,287,7217,1,0,0:0:0:0:
260,205,7373,2,0,P|260:179|263:205,1,75.0000028610231,8|0,0:0|0:0,0:0:0:0:
303,356,7683,5,0,0:0:0:0:
420,246,7838,1,8,0:0:0:0:
246,301,7994,2,0,B|208:301|208:301|243:283,1,75
328,252,8304,5,0,0:0:0:0:
250,110,8615,1,8,0:0:0:0:
250,110,8770,1,8,0:0:0:0:
250,110,8926,6,0,L|254:167,1,50
308,46,9236,2,0,P|263:26|204:34,1,100,8|0,0:0|0:0,0:0:0:0:
166,195,9547,6,0,L|170:138,1,50
224,259,9857,2,0,P|179:279|120:271,1,100,8|0,0:0|0:0,0:0:0:0:
254,185,10168,5,0,0:0:0:0:
92,104,10323,1,8,0:0:0:0:
271,105,10479,2,0,B|309:97|309:97|272:82,1,75
184,77,10789,5,0,0:0:0:0:
174,215,11100,6,0,L|171:275,1,50,8|0,0:0|0:0,0:0:0:0:
360,233,11410,5,0,0:0:0:0:
332,211,11566,1,0,0:0:0:0:
174,215,11721,6,0,P|162:253|165:284,1,69.9999978637696,8|0,0:0|0:0,0:0:0:0:
360,233,12032,5,0,0:0:0:0:
293,185,12187,1,0,0:0:0:0:
174,215,12342,6,0,B|143:255|167:297|167:297|176:297,1,89.9999972534181,8|0,0:0|0:0,0:0:0:0:
360,233,12653,1,0,0:0:0:0:
242,179,12808,5,8,0:0:0:0:
234,347,12964,1,0,0:0:0:0:
122,76,13274,5,0,0:0:0:0:
473,254,13585,6,0,L|389:257,1,69.9999978637696,8|0,0:0|0:0,0:0:0:0:
424,92,13895,5,0,0:0:0:0:
462,113,14051,1,0,0:0:0:0:
473,254,14206,6,0,B|422:267|389:249|389:249|388:237,1,89.9999972534181,8|0,0:0|0:0,0:0:0:0:
424,92,14517,5,0,0:0:0:0:
482,142,14672,1,0,0:0:0:0:
473,254,14827,6,0,B|445:268|404:267|378:240|378:240|381:213,1,110.000003356934,8|0,0:0|0:0,0:0:0:0:
457,83,15138,1,0,0:0:0:0:
503,183,15293,1,0,0:0:0:0:
318,157,15448,5,8,0:0:0:0:
26,336,15759,6,0,B|91:316|110:362|186:337,1,150
255,342,16070,5,0,0:0:0:0:
255,342,16225,1,0,0:0:0:0:
218,190,16380,5,8,0:0:0:0:
327,301,16536,1,0,0:0:0:0:
329,146,16691,5,8,0:0:0:0:
327,301,16846,1,0,0:0:0:0:
222,256,17001,5,8,0:0:0:0:
411,257,17157,1,0,0:0:0:0:
327,135,17312,5,8,0:0:0:0:
327,301,17467,1,0,0:0:0:0:
460,183,17623,5,0,0:0:0:0:
330,302,17778,2,0,B|351:348|351:348|374:302,1,100
51,187,18244,6,0,P|119:164|200:189,1,150
272,162,18555,5,8,0:0:0:0:
272,162,18710,1,0,0:0:0:0:
316,37,18865,5,8,0:0:0:0:
339,203,19020,1,0,0:0:0:0:
472,92,19176,6,0,L|372:98,1,100,8|0,0:0|0:0,0:0:0:0:
219,102,19486,1,8,0:0:0:0:
411,171,19642,1,0,0:0:0:0:
294,101,19797,5,8,0:0:0:0:
254,256,19952,1,0,0:0:0:0:
376,146,20108,1,8,0:0:0:0:
175,160,20263,6,0,P|179:193|179:160,1,100,0|8,0:0|0:0,0:0:0:0:
416,158,20729,5,0,0:0:0:0:
215,87,21039,6,0,L|224:168,1,75.0000028610231,8|0,0:0|0:0,0:0:0:0:
238,252,21350,1,0,0:0:0:0:
238,252,21505,1,0,0:0:0:0:
298,108,21661,6,0,P|324:80|358:65,1,75.0000028610231,8|0,0:0|0:0,0:0:0:0:
449,67,21971,1,0,0:0:0:0:
482,93,22127,1,0,0:0:0:0:
347,179,22282,6,0,P|340:217|346:253,1,75.0000028610231,8|0,0:0|0:0,0:0:0:0:
410,329,22592,1,0,0:0:0:0:
491,289,22748,1,0,0:0:0:0:
271,290,22903,1,8,0:0:0:0:
103,274,23214,5,8,0:0:0:0:
102,295,23369,1,0,0:0:0:0:
101,314,23524,2,0,L|186:322,1,75.0000028610231
345,188,23835,5,8,0:0:0:0:
350,225,23990,1,0,0:0:0:0:
352,257,24146,2,0,L|265:264,1,75.0000028610231
122,41,24456,5,8,0:0:0:0:
119,85,24611,1,0,0:0:0:0:
115,129,24767,1,0,0:0:0:0:
112,173,24922,2,0,L|199:178,1,75.0000028610231
228,245,25233,5,0,0:0:0:0:
250,73,25388,1,0,0:0:0:0:
486,242,25699,6,0,B|409:268|414:224|325:255,1,150
266,224,26009,5,8,0:0:0:0:
266,224,26165,1,8,0:0:0:0:
198,264,26320,5,0,0:0:0:0:
384,319,26475,1,0,0:0:0:0:
301,151,26630,6,0,P|330:134|303:153,1,100,8|0,0:0|0:0,0:0:0:0:
318,306,26941,5,0,0:0:0:0:
318,306,27096,1,0,0:0:0:0:
318,306,27252,2,0,P|288:304|223:250,1,100,8|0,0:0|0:0,0:0:0:0:
226,170,27562,5,0,0:0:0:0:
193,357,27718,1,0,0:0:0:0:
128,256,27873,6,0,B|115:179|115:179|133:101,1,150
124,28,28183,5,0,0:0:0:0:
67,88,28494,5,0,0:0:0:0:
67,88,28649,1,0,0:0:0:0:
67,88,28805,6,0,L|71:164,1,75.0000028610231,8|0,0:0|0:0,0:0:0:0:
162,156,29115,2,0,L|158:232,1,75.0000028610231,8|0,0:0|0:0,0:0:0:0:
250,233,29426,2,0,L|254:309,1,75.0000028610231,8|0,0:0|0:0,0:0:0:0:
338,316,29737,5,0,0:0:0:0:
158,213,29892,1,0,0:0:0:0:
335,166,30047,2,0,P|338:203|324:241,1,75.0000028610231,8|0,0:0|0:0,0:0:0:0:
247,273,30358,6,0,P|171:252|83:261,1,150
20,267,30668,5,0,0:0:0:0:
35,136,30979,6,0,L|25:185,1,50,8|0,0:0|0:0,0:0:0:0:
0,58,31290,1,0,0:0:0:0:
156,110,31445,1,0,0:0:0:0:
35,136,31600,6,0,B|-4:140|-4:140|31:115,1,75.0000028610231,8|0,0:0|0:0,0:0:0:0:
176,39,31911,6,0,L|186:129,1,75.0000028610231,8|0,0:0|0:0,0:0:0:0:
195,195,32221,1,0,0:0:0:0:
69,120,32377,1,0,0:0:0:0:
292,94,32532,1,0,0:0:0:0:
181,49,32687,6,0,B|207:22|207:22|205:70,1,75.0000028610231,8|0,0:0|0:0,0:0:0:0:
138,168,32998,1,0,0:0:0:0:
248,131,33153,6,0,B|311:113|338:158|400:132,1,150,8|0,0:0|0:0,0:0:0:0:
469,73,33464,6,0,L|476:147,1,75.0000028610231,8|0,0:0|0:0,0:0:0:0:
487,263,33774,1,0,0:0:0:0:
483,221,33930,1,0,0:0:0:0:
467,58,34085,6,8,L|474:132,1,75.0000028610231,8|0,0:0|0:0,0:0:0:0:
487,263,34396,1,0,0:0:0:0:
478,186,34551,1,0,0:0:0:0:
465,32,34706,6,0,L|472:106,1,75.0000028610231,8|0,0:0|0:0,0:0:0:0:
487,263,35017,1,0,0:0:0:0:
474,151,35172,1,0,0:0:0:0:
464,28,35328,6,0,P|492:14|465:32,1,100,8|0,0:0|0:0,0:0:0:0:
308,87,35638,6,0,B|221:118|202:61|119:96,1,179.999994506836
46,94,35949,1,8,0:0:0:0:
46,94,36104,1,0,0:0:0:0:
234,170,36259,5,0,0:0:0:0:
149,17,36415,2,0,B|121:44|121:44|159:38,1,75.0000028610231,8|0,0:0|0:0,0:0:0:0:
279,15,36725,1,0,0:0:0:0:
264,155,36881,6,0,P|335:132|413:152,1,150,8|0,0:0|0:0,0:0:0:0:
486,120,37191,1,0,0:0:0:0:
328,40,37346,1,0,0:0:0:0:
339,213,37502,1,0,0:0:0:0:
457,194,37657,6,0,P|475:210|454:196,1,75.0000028610231,8|0,0:0|0:0,0:0:0:0:
377,98,37968,1,0,0:0:0:0:
380,264,38123,6,0,B|319:245|291:284|228:257,1,150,8|0,0:0|0:0,0:0:0:0:
146,260,38434,1,0,0:0:0:0:
275,179,38589,1,0,0:0:0:0:
81,206,38744,1,0,0:0:0:0:
128,57,38900,6,8,L|135:143,1,75.0000028610231,8|0,0:0|0:0,0:0:0:0:
142,248,39210,1,0,0:0:0:0:
214,132,39365,6,0,B|286:114|286:114|375:128,1,150,8|0,0:0|0:0,0:0:0:0:
439,82,39676,5,0,0:0:0:0:
290,194,39831,1,0,0:0:0:0:
116,62,39987,1,0,0:0:0:0:
393,190,40142,5,8,0:0:0:0:
161,218,40297,1,0,0:0:0:0:
24,50,40453,1,0,0:0:0:0:
284,126,40608,1,12,0:0:0:0:
17,182,43170,6,0,B|67:168|67:168|122:174,1,100
227,206,43477,1,8,0:0:0:0:
73,251,43632,1,0,0:0:0:0:
202,63,43788,6,0,L|186:151,1,75.0000028610231
166,249,44098,1,8,0:0:0:0:
118,95,44254,1,0,0:0:0:0:
249,197,44409,6,0,P|294:174|350:178,1,100
417,229,44720,1,8,0:0:0:0:
406,314,44875,1,0,0:0:0:0:
322,340,45030,1,0,0:0:0:0:
388,193,45185,6,0,B|439:192|439:192|406:228,1,100,8|0,0:0|0:0,0:0:0:0:
235,214,45496,1,0,0:0:0:0:
315,73,45651,6,0,B|346:146|286:160|319:233,1,150
316,298,45962,1,8,0:0:0:0:
288,321,46117,1,0,0:0:0:0:
129,164,46273,6,0,P|173:151|209:157,1,75.0000028610231
316,298,46583,1,8,0:0:0:0:
251,335,46739,1,0,0:0:0:0:
129,164,46894,6,0,P|181:151|231:168,1,100
298,307,47204,1,8,0:0:0:0:
185,331,47360,1,0,0:0:0:0:
317,205,47515,1,0,0:0:0:0:
221,264,47670,6,0,P|173:272|124:261,1,100,8|0,0:0|0:0,0:0:0:0:
215,156,47981,1,0,0:0:0:0:
44,304,48136,6,0,P|27:236|59:161,1,150
120,122,48447,1,8,0:0:0:0:
0,96,48602,1,0,0:0:0:0:
238,95,48757,5,0,0:0:0:0:
238,95,48913,1,0,0:0:0:0:
122,123,49068,2,0,B|80:150|80:150|142:161,1,100,8|0,0:0|0:0,0:0:0:0:
359,108,49379,2,0,B|401:81|401:81|339:70,1,100,8|0,0:0|0:0,0:0:0:0:
219,205,49689,5,8,0:0:0:0:
219,205,49845,1,0,0:0:0:0:
219,205,50000,2,0,P|257:189|295:187,1,75.0000028610231
473,243,50311,6,0,P|498:240|472:239,1,75.0000028610231,8|0,0:0|0:0,0:0:0:0:
345,290,50621,5,0,0:0:0:0:
304,286,50776,1,0,0:0:0:0:
263,281,50932,2,0,L|203:274,1,50,8|0,0:0|0:0,0:0:0:0:
133,264,51242,5,0,0:0:0:0:
160,342,51398,1,0,0:0:0:0:
180,201,51553,2,0,P|180:188|179:200,1,50,8|0,0:0|0:0,0:0:0:0:
160,342,51864,5,0,0:0:0:0:
131,238,52019,1,0,0:0:0:0:
107,129,52174,2,0,P|99:98|106:129,1,100,8|0,0:0|0:0,0:0:0:0:
160,342,52485,5,0,0:0:0:0:
168,196,52640,1,0,0:0:0:0:
176,35,52795,2,0,P|178:-13|173:34,1,150.000005722046,8|0,0:0|0:0,0:0:0:0:
245,117,53106,6,0,B|308:108|323:141|397:122,1,150
472,124,53417,1,8,0:0:0:0:
421,39,53572,1,0,0:0:0:0:
411,205,53727,5,0,0:0:0:0:
245,117,53883,2,0,B|308:146|330:100|396:132,1,150.000005722046,0|8,0:0|0:0,0:0:0:0:
439,207,54193,1,0,0:0:0:0:
375,336,54348,6,0,P|338:281|362:184,1,150
360,120,54659,1,8,0:0:0:0:
442,184,54814,1,0,0:0:0:0:
264,157,54970,5,0,0:0:0:0:
325,337,55125,6,0,B|368:308|367:233|351:220|351:220|350:203|356:182,2,150.000005722046
5,186,55591,6,0,L|5:205,6,12.5,8|0|0|0|0|0|0,3:0|3:0|3:0|3:0|3:0|3:0|3:0,3:0:0:0:
54,120,55902,5,0,3:0:0:0:
134,109,56057,1,0,3:0:0:0:
150,223,56212,5,0,3:0:0:0:
229,214,56367,1,0,3:0:0:0:
215,99,56523,5,0,3:0:0:0:
294,90,56678,1,0,3:0:0:0:
309,203,56833,5,0,3:0:0:0:
388,194,56991,1,0,3:0:0:0:
373,81,57146,5,0,3:0:0:0:
294,90,57302,1,0,3:0:0:0:
309,203,57457,5,0,3:0:0:0:
388,194,57613,1,0,3:0:0:0:
448,128,57768,2,0,L|473:126,1,25,2|0,0:0|0:0,0:0:0:0:
6,84,58079,6,0,B|75:103|97:59|160:78,1,150
222,33,58389,1,8,0:0:0:0:
209,198,58544,1,0,0:0:0:0:
367,134,58699,6,0,P|321:114|272:119,1,100
221,215,59009,1,8,0:0:0:0:
262,312,59164,1,0,0:0:0:0:
432,256,59319,6,0,P|383:260|337:241,1,100
264,156,59629,1,8,0:0:0:0:
276,52,59785,1,0,0:0:0:0:
371,2,59940,1,0,0:0:0:0:
503,121,60095,6,0,B|464:120|464:120|428:128|428:128|394:117|394:117|352:116,1,150.000005722046,8|0,0:0|0:0,0:0:0:0:
356,337,60560,6,0,P|300:303|217:320,1,150
132,307,60870,1,8,0:0:0:0:
279,384,61025,1,0,0:0:0:0:
228,211,61180,5,0,0:0:0:0:
143,262,61336,1,0,0:0:0:0:
110,351,61491,2,0,B|117:300|117:300|116:245,1,100,8|0,0:0|0:0,0:0:0:0:
46,98,61801,5,0,0:0:0:0:
46,98,61956,1,0,0:0:0:0:
46,98,62111,6,0,P|72:112|89:134,1,50,8|0,0:0|0:0,0:0:0:0:
158,84,62421,2,0,P|169:123|164:162,1,75.0000028610231,8|0,0:0|0:0,0:0:0:0:
248,165,62731,2,0,P|225:215|184:240,1,100,8|0,0:0|0:0,0:0:0:0:
94,235,63042,6,0,B|181:209|195:274|288:223,1,179.999994506836,8|0,0:0|0:0,0:0:0:0:
349,228,63358,1,8,0:0:0:0:
349,228,63513,1,0,0:0:0:0:
421,184,63669,6,0,L|431:298,1,100,8|0,0:0|0:0,0:0:0:0:
496,144,63979,2,0,P|458:108|398:98,1,100,8|0,0:0|0:0,0:0:0:0:
301,145,64290,5,8,0:0:0:0:
226,166,64445,1,0,0:0:0:0:
151,148,64601,2,0,B|112:143|112:143|73:155,1,75.0000028610231,8|0,0:0|0:0,0:0:0:0:
267,172,64911,1,8,0:0:0:0:
287,54,65066,6,0,B|296:6|296:6|326:48,1,100,0|8,0:0|0:0,0:0:0:0:
206,87,65377,1,0,0:0:0:0:
104,46,65532,6,0,B|130:133|65:147|115:240,1,179.999994506836,8|0,0:0|0:0,0:0:0:0:
101,302,65843,1,0,0:0:0:0:
258,263,65998,1,0,0:0:0:0:
179,178,66154,5,8,0:0:0:0:
223,345,66309,1,0,0:0:0:0:
315,270,66464,2,0,P|348:267|316:273,1,100
274,110,66775,5,8,0:0:0:0:
274,110,66930,1,0,0:0:0:0:
274,110,67085,2,0,B|274:140|274:140|269:169,1,50
184,142,67396,5,8,0:0:0:0:
390,173,67551,2,0,B|440:184|440:184|393:202,1,100
270,159,67862,1,0,0:0:0:0:
472,66,68017,6,0,B|404:86|392:47|319:64,1,150,0|0,2:0|2:0,2:0:0:0:
278,0,68328,6,0,P|261:16|250:39,3,50,8|0|0|0,2:0|2:0|2:0|2:0,2:0:0:0:
143,32,68949,6,0,P|144:57|151:81,3,50,8|0|0|0,2:0|2:0|2:0|2:0,2:0:0:0:
70,150,69570,6,0,P|88:167|110:180,1,50,8|0,2:0|2:0,2:0:0:0:
211,175,69881,1,0,2:0:0:0:
12,270,70036,6,0,B|38:289|88:288|88:288|88:281|88:281|90:288|90:288|138:286|169:259,1,179.999994506836,0|8,2:0|2:0,2:0:0:0:
244,0,70502,6,0,B|225:61|265:89|249:147,1,150,0|0,2:0|2:0,2:0:0:0:
220,227,70813,6,0,P|245:225|270:231,3,50,8|0|0|0,2:0|2:0|2:0|2:0,2:0:0:0:
332,146,71434,6,0,P|351:163|365:184,3,50,8|0|0|0,2:0|2:0|2:0|2:0,2:0:0:0:
469,166,72055,6,0,P|471:191|466:216,1,50,8|0,2:0|2:0,2:0:0:0:
395,272,72366,1,0,2:0:0:0:
143,303,72521,6,0,B|181:316|228:300|228:300|226:293|226:293|230:299|230:299|275:281|296:249,1,179.999994506836,0|8,2:0|2:0,2:0:0:0:
54,40,72987,6,0,B|30:98|48:116|48:116|48:164|48:164|51:191|51:191|48:194|48:194|52:193|52:193|58:236,1,179.999994506836
71,297,73298,1,8,0:0:0:0:
207,224,73453,1,0,0:0:0:0:
126,197,73608,5,8,0:0:0:0:
206,329,73764,1,0,0:0:0:0:
340,283,73919,2,0,P|315:265|337:283,1,100,8|0,0:0|0:0,0:0:0:0:
226,153,74229,5,8,0:0:0:0:
385,177,74385,1,0,0:0:0:0:
437,42,74540,2,0,B|421:7|421:7|408:47,1,75.0000028610231,8|0,0:0|0:0,0:0:0:0:
317,217,74851,6,2,B|334:262|392:256|426:203|371:139|297:135|297:135|343:122,1,259.999988098145,10|2,0:0|0:0,0:0:0:0:
508,57,75472,6,0,B|467:37|442:71|397:56|397:56|373:57,1,129.999994049073
239,13,75783,5,0,1:0:0:0:
84,54,75938,1,0,1:0:0:0:
168,151,76093,1,0,1:0:0:0:
76,203,76248,1,0,1:0:0:0:
103,282,76404,1,0,1:0:0:0:
43,321,76559,2,0,B|44:320|42:324,3,12.5,0|0|0|0,2:0|2:0|2:0|2:0,2:0:0:0:
0,66,77336,6,2,P|39:92|105:100,1,100
315,41,77646,6,2,B|314:-6|373:-26|422:13|395:93|328:122|328:122|364:120,1,259.999988098145,10|2,0:0|0:0,0:0:0:0:
455,172,78112,1,0,0:0:0:0:
352,204,78267,2,0,B|287:209|287:209|341:249,1,129.999994049073,8|0,0:0|0:0,0:0:0:0:
467,325,78578,6,2,B|411:336|411:336|345:325,1,110.000003356934
206,268,78889,6,2,B|174:206|112:203|98:241|90:274|118:298|145:296,1,179.999994506836
237,340,79355,1,0,0:0:0:0:
108,384,79510,1,8,0:0:0:0:
0,329,79665,1,0,0:0:0:0:
110,122,79820,6,2,B|120:248,1,119.999996337891
270,285,80131,2,2,B|314:290|355:232|314:187|261:166|191:220|199:278,1,239.999992675781
348,375,80597,1,0,0:0:0:0:
345,281,80752,6,0,L|270:286,1,75.0000028610231,8|0,0:0|0:0,0:0:0:0:
155,296,81063,1,0,0:0:0:0:
197,292,81218,1,0,0:0:0:0:
361,280,81374,6,8,L|286:285,1,75.0000028610231,8|0,0:0|0:0,0:0:0:0:
155,296,81684,1,0,0:0:0:0:
233,291,81839,1,0,0:0:0:0:
387,278,81995,6,0,L|312:283,1,75.0000028610231,8|0,0:0|0:0,0:0:0:0:
155,296,82305,1,0,0:0:0:0:
268,289,82461,1,0,0:0:0:0:
414,283,82616,6,0,P|411:249|420:282,1,100,8|0,0:0|0:0,0:0:0:0:
319,176,82927,6,0,P|412:159|494:215,1,179.999994506836
413,266,83237,1,8,0:0:0:0:
236,216,83393,1,0,0:0:0:0:
310,363,83548,1,0,0:0:0:0:
104,298,83703,6,0,P|147:309|203:297,1,100,8|0,0:0|0:0,0:0:0:0:
146,115,84014,1,0,0:0:0:0:
218,189,84169,6,0,P|289:155|390:177,1,165.000005035401
460,166,84480,1,8,0:0:0:0:
460,166,84635,1,0,0:0:0:0:
354,251,84790,5,0,0:0:0:0:
404,71,84946,2,0,P|439:64|404:76,1,110.000003356934,0|8,0:0|0:0,0:0:0:0:
217,146,85256,5,0,0:0:0:0:
67,80,85411,6,0,B|160:103|171:36|268:70,1,202.500000772476
345,49,85722,1,8,0:0:0:0:
145,0,85877,1,0,0:0:0:0:
218,142,86033,1,0,0:0:0:0:
39,175,86188,2,0,B|31:245|31:245|82:196,1,135.000000514984
208,72,86499,5,0,0:0:0:0:
349,167,86654,6,0,B|256:191|244:124|147:160,1,202.500000772476
94,226,86965,5,8,0:0:0:0:
291,267,87120,1,8,0:0:0:0:
490,162,87275,1,2,0:0:0:0:
353,311,87430,1,8,0:0:0:0:
106,258,87586,1,8,0:0:0:0:
295,358,87741,1,0,0:0:0:0:
192,108,87896,1,4,0:0:0:0:
447,60,90459,6,0,B|389:42|389:42|305:58,1,119.999996337891
207,98,90761,1,8,0:0:0:0:
335,178,90916,1,0,0:0:0:0:
503,190,91072,6,0,B|517:177|543:171|543:171|547:156|464:153,1,119.999996337891
348,209,91382,1,8,0:0:0:0:
465,64,91538,1,0,0:0:0:0:
317,0,91693,6,0,P|247:0|176:30,1,119.999996337891
162,100,92004,1,8,0:0:0:0:
168,196,92159,1,0,0:0:0:0:
245,255,92314,1,0,0:0:0:0:
401,183,92469,2,0,B|387:164|355:150|318:160|318:160|307:151|307:151|235:160,2,160,8|0|0,0:0|0:0|0:0,0:0:0:0:
270,358,92935,6,0,B|227:375|175:363|154:310|154:310|161:280,1,150
194,227,93246,1,8,0:0:0:0:
238,234,93401,1,0,0:0:0:0:
339,127,93557,6,0,P|298:103|233:109,1,100
194,227,93867,1,8,0:0:0:0:
288,270,94023,1,0,0:0:0:0:
322,94,94178,6,0,P|276:81|203:110,1,119.999996337891
189,238,94488,1,8,0:0:0:0:
292,331,94644,1,0,0:0:0:0:
428,317,94799,1,0,0:0:0:0:
278,174,94954,6,0,B|262:163|262:163|245:211|281:259|329:262,1,150.000005722046,8|0,0:0|0:0,0:0:0:0:
454,237,95265,1,0,0:0:0:0:
188,174,95420,6,0,P|135:256|156:356,1,179.999994506836
226,368,95731,1,8,0:0:0:0:
48,352,95886,1,0,0:0:0:0:
90,136,96041,5,0,0:0:0:0:
90,136,96197,1,0,0:0:0:0:
0,87,96352,2,0,B|-36:77|-36:77|-64:95|12:145,1,119.999996337891,8|0,0:0|0:0,0:0:0:0:
192,209,96663,2,0,B|216:195|241:201|241:201|242:170|179:150,1,119.999996337891
5,269,96973,5,8,0:0:0:0:
5,269,97129,1,0,0:0:0:0:
5,269,97284,2,0,P|58:239|117:234,1,119.999996337891
284,303,97595,2,0,P|320:317|285:300,1,119.999996337891,8|0,0:0|0:0,0:0:0:0:
172,325,97905,5,0,0:0:0:0:
190,244,98060,1,0,0:0:0:0:
252,192,98216,2,0,P|293:180|335:183,1,75.0000028610231,8|0,0:0|0:0,0:0:0:0:
457,297,98526,5,0,0:0:0:0:
435,377,98682,1,0,0:0:0:0:
405,237,98837,2,0,P|402:219|406:236,1,50,8|0,0:0|0:0,0:0:0:0:
435,377,99148,5,0,0:0:0:0:
455,271,99303,1,0,0:0:0:0:
473,161,99458,2,0,P|477:129|474:161,1,100,8|0,0:0|0:0,0:0:0:0:
435,377,99769,5,0,0:0:0:0:
417,232,99924,1,0,0:0:0:0:
398,79,100079,2,0,P|393:30|400:78,1,150.000005722046,8|0,0:0|0:0,0:0:0:0:
140,145,100390,6,0,B|122:134|95:137|95:137|68:102|76:53|123:34,1,150.000005722046
313,9,100701,1,8,0:0:0:0:
193,206,100856,1,0,0:0:0:0:
336,265,101011,1,0,0:0:0:0:
206,342,101167,6,0,B|182:348|165:369|165:369|122:364|93:323|114:280,2,150.000005722046,8|0|0,0:0|0:0|0:0,0:0:0:0:
406,356,101632,6,0,B|428:348|459:353|459:353|498:294|363:272|480:219|404:169,1,225.000008583069
344,146,101943,1,8,0:0:0:0:
127,229,102098,1,0,0:0:0:0:
280,286,102254,1,0,0:0:0:0:
262,57,102409,6,0,B|262:40|242:18|242:18|177:10|213:132|120:56|128:104,1,200,0|8,0:0|0:0,0:0:0:0:
195,293,102720,1,0,0:0:0:0:
426,149,102872,5,0,0:0:0:0:
388,316,103027,1,0,0:0:0:0:
