osu file format v14

[General]
AudioFilename: darren styles, dougal & gammer, hannah faulkner - top of the world (nanobii remix).mp3
AudioLeadIn: 0
PreviewTime: 45823
Countdown: 1
SampleSet: None
StackLeniency: 0.7
Mode: 0
LetterboxInBreaks: 0
WidescreenStoryboard: 1

[Editor]
DistanceSpacing: 1.3
BeatDivisor: 4
GridSize: 4
TimelineZoom: 1

[Metadata]
Title:Top of the World (nanobii Remix)
TitleUnicode:Top of the World (nanobii Remix)
Artist:Darren Styles, Dougal & Gammer, Hannah Faulkner
ArtistUnicode:Darren Styles, Dougal & Gammer, Hannah Faulkner
Creator:Moway
Version:Hyper
Source:
Tags:happycore hardcore edm electronic dance music
BeatmapID:881428
BeatmapSetID:405446

[Difficulty]
HPDrainRate:5.5
CircleSize:4
OverallDifficulty:7
ApproachRate:8
SliderMultiplier:1.7
SliderTickRate:1

[Events]
//Background and Video events
0,0,"bg.jpg",0,0
//Break Periods
//Storyboard Layer 0 (Background)
//Storyboard Layer 1 (Fail)
//Storyboard Layer 2 (Pass)
//Storyboard Layer 3 (Foreground)
//Storyboard Sound Samples

[TimingPoints]
1000,352.941176470588,4,2,0,50,1,0
1000,-125,4,2,0,50,0,0
12294,-111.111111111111,4,2,0,70,0,0
23588,-100,4,2,0,80,0,0
34882,-100,4,2,0,60,0,0
40529,-100,4,1,0,70,0,0
41941,-100,4,1,0,75,0,0
43352,-100,4,1,0,80,0,0
44764,-100,4,2,0,60,0,0
46176,-100,4,1,0,90,0,1
65941,-100,4,1,0,90,0,0
66999,-100,4,1,0,80,0,0
67352,-100,4,1,0,70,0,0
68235,-100,4,1,0,80,0,0
68764,-100,4,1,0,90,0,1
85705,-100,4,2,0,60,0,0
88529,-100,4,2,0,45,0,0
102647,-100,4,2,0,60,0,0
111205,-100,4,2,0,5,0,0
113058,-100,4,2,0,80,0,0
113941,-100,4,2,0,75,0,0
116764,-100,4,2,0,85,0,0
119588,-100,4,1,0,75,0,0
120999,-100,4,1,0,80,0,0
122411,-100,4,1,0,90,0,0
123823,-100,4,1,0,60,0,0
125235,-100,4,1,0,90,0,1
144999,-100,4,1,0,60,0,0
145705,-100,4,1,0,75,0,0
146411,-100,4,1,0,85,0,0
147823,-100,4,1,0,90,0,1
164764,-100,4,1,0,90,0,0
167588,-100,4,2,0,60,0,0
171823,-100,4,2,0,40,0,0
173235,-100,4,2,0,20,0,0
173941,-100,4,2,0,5,0,0

[Colours]
Combo1 : 255,128,64
Combo2 : 0,128,192
Combo3 : 255,128,192
Combo4 : 255,255,128

[HitObjects]
96,164,998,6,0,L|184:159,1,85,0|0,0:0|0:0,0:0:0:0:
240,102,1352,1,0,0:0:0:0:
240,102,1529,1,0,0:0:0:0:
254,182,1705,2,0,L|272:325,2,136,0|0|0,0:0|0:0|0:0,0:0:0:0:
373,69,2764,6,0,P|351:101|252:103,1,136,0|0,0:0|0:0,0:0:0:0:
193,61,3294,1,0,0:0:0:0:
214,170,3470,2,0,P|221:203|216:244,1,68,0|0,0:0|0:0,0:0:0:0:
149,281,3823,6,0,P|116:288|75:283,1,68,0|0,0:0|0:0,0:0:0:0:
113,209,4176,1,0,0:0:0:0:
217,236,4352,2,0,B|282:210|282:210|353:236,1,136,0|0,0:0|0:0,0:0:0:0:
401,292,4882,2,0,P|424:254|424:217,1,68,0|0,0:0|0:0,0:0:0:0:
354,156,5235,6,0,L|282:127,2,68,0|0|0,0:0|0:0|0:0,0:0:0:0:
353,74,5764,2,0,P|317:93|224:76,2,136,2|2|4,0:0|0:0|0:0,0:0:0:0:
439,39,6647,6,0,L|430:117,1,68,0|0,0:0|0:0,0:0:0:0:
422,187,6999,1,0,0:0:0:0:
422,187,7176,1,0,0:0:0:0:
422,187,7352,2,0,B|359:152|357:205|288:175,1,136,0|0,0:0|0:0,0:0:0:0:
229,231,7882,1,0,0:0:0:0:
229,231,8058,5,0,0:0:0:0:
225,113,8235,1,0,0:0:0:0:
171,174,8411,2,0,P|121:190|93:184,1,68,0|0,0:0|0:0,0:0:0:0:
54,124,8764,2,0,P|104:108|132:114,2,68,0|0|0,0:0|0:0|0:0,0:0:0:0:
54,124,9294,1,0,0:0:0:0:
197,99,9470,6,0,P|215:65|144:42,1,136,0|0,0:0|0:0,0:0:0:0:
197,99,9999,2,0,P|256:97|249:157,1,136,0|0,0:0|0:0,0:0:0:0:
169,178,10529,2,0,L|93:170,1,68,0|0,0:0|0:0,0:0:0:0:
20,157,10882,6,0,B|13:204|53:238|53:238|121:249,1,136,0|0,0:0|0:0,0:0:0:0:
171,212,11411,1,0,0:0:0:0:
212,141,11588,2,0,P|250:191|180:295,1,204,4|0,0:0|0:0,0:0:0:0:
330,315,12294,6,0,L|413:297,1,68,12|0,0:0|0:0,0:0:0:0:
463,180,12647,2,0,L|396:194,1,68,8|0,0:0|0:0,0:0:0:0:
296,213,12999,1,8,0:0:0:0:
215,169,13176,1,0,0:0:0:0:
293,121,13352,1,8,0:0:0:0:
221,251,13529,6,0,P|269:291|360:269,1,152.999995330811,0|0,0:0|0:0,0:0:0:0:
221,251,14058,2,0,L|143:247,1,76.4999976654053,8|0,0:0|0:0,0:0:0:0:
103,164,14411,2,0,L|179:167,2,76.4999976654053,8|0|8,0:0|0:0|0:0,0:0:0:0:
38,97,14941,1,0,0:0:0:0:
180,96,15117,6,0,P|198:57|192:23,1,76.4999976654053,8|0,0:0|0:0,0:0:0:0:
272,71,15470,1,8,0:0:0:0:
257,161,15647,2,0,P|252:198|269:232,1,76.4999976654053,0|8,0:0|0:0,0:0:0:0:
357,260,15999,2,0,L|432:250,2,76.4999976654053,0|8|0,0:0|0:0|0:0,0:0:0:0:
269,232,16529,6,0,P|209:222|144:297,1,152.999995330811,0|8,0:0|0:0,0:0:0:0:
63,242,17058,1,2,0:0:0:0:
75,333,17235,1,8,0:0:0:0:
146,281,17411,1,0,0:0:0:0:
63,242,17588,2,0,L|-15:252,1,76.4999976654053,10|0,0:0|0:0,0:0:0:0:
107,149,17941,6,0,B|166:141|166:141|203:152|203:152|264:143,1,152.999995330811,4|8,0:0|0:0,0:0:0:0:
292,58,18470,1,2,0:0:0:0:
292,58,18647,2,0,L|209:70,1,76.4999976654053,8|0,0:0|0:0,0:0:0:0:
60,28,18999,2,0,L|135:17,1,76.4999976654053,10|0,0:0|0:0,0:0:0:0:
33,108,19352,5,10,0:0:0:0:
38,199,19529,1,0,0:0:0:0:
128,185,19705,2,0,P|178:186|250:264,2,152.999995330811,8|8|10,0:0|0:0|0:0,0:0:0:0:
197,114,20588,1,0,0:0:0:0:
157,274,20764,6,0,L|139:354,1,76.4999976654053,10|0,0:0|0:0,0:0:0:0:
69,212,21117,1,8,0:0:0:0:
69,212,21294,2,0,L|85:137,1,76.4999976654053,2|8,0:0|0:0,0:0:0:0:
108,59,21647,1,0,0:0:0:0:
182,189,21823,2,0,P|220:189|270:185,1,76.4999976654053,10|0,0:0|0:0,0:0:0:0:
356,80,22176,6,0,P|317:79|268:84,1,76.4999976654053,10|0,0:0|0:0,0:0:0:0:
180,93,22529,1,8,0:0:0:0:
180,93,22705,1,2,0:0:0:0:
180,93,23411,1,0,0:0:0:0:
180,93,23588,6,0,P|211:142|189:254,1,170,4|8,1:0|0:0,0:0:0:0:
86,277,24117,1,0,0:0:0:0:
27,182,24294,2,0,L|128:175,1,85,8|0,0:0|0:0,0:0:0:0:
214,134,24647,1,8,0:0:0:0:
281,221,24823,6,0,P|336:235|429:168,1,170,0|0,0:0|0:0,0:0:0:0:
329,120,25352,1,8,0:0:0:0:
329,120,25529,2,0,P|310:78|320:39,1,85,0|8,0:0|0:0,0:0:0:0:
166,119,25882,2,0,P|185:161|175:200,2,85,0|8|0,0:0|0:0|0:0,0:0:0:0:
67,169,26411,5,8,0:0:0:0:
67,169,26588,1,0,0:0:0:0:
71,58,26764,1,8,0:0:0:0:
71,58,26941,1,0,0:0:0:0:
67,169,27117,2,0,P|69:212|63:254,1,85,8|0,0:0|0:0,0:0:0:0:
166,119,27470,2,0,P|164:76|170:34,1,85,8|0,0:0|0:0,0:0:0:0:
158,232,27823,6,0,L|249:220,1,85,8|0,0:0|0:0,0:0:0:0:
337,163,28176,1,8,0:0:0:0:
228,141,28352,1,0,0:0:0:0:
337,163,28529,2,0,P|360:213|353:250,1,85,8|0,0:0|0:0,0:0:0:0:
247,335,28882,2,0,P|245:293|266:256,1,85,8|0,0:0|0:0,0:0:0:0:
433,152,29235,6,0,B|376:142|376:142|339:163|339:163|273:143,1,170,4|8,1:0|0:0,0:0:0:0:
199,41,29764,1,0,0:0:0:0:
199,41,29941,2,0,P|207:82|197:124,1,85,8|0,0:0|0:0,0:0:0:0:
94,82,30294,1,8,0:0:0:0:
192,202,30470,6,0,L|285:233,1,85,0|8,0:0|0:0,0:0:0:0:
296,337,30823,2,0,L|215:310,1,85,0|8,0:0|0:0,0:0:0:0:
123,248,31176,2,0,P|107:204|118:164,1,85,0|8,0:0|0:0,0:0:0:0:
249,61,31529,2,0,P|265:105|254:145,2,85,0|8|0,0:0|0:0|0:0,0:0:0:0:
78,55,32058,5,8,0:0:0:0:
78,55,32235,1,0,0:0:0:0:
136,148,32411,1,8,0:0:0:0:
136,148,32588,1,0,0:0:0:0:
26,155,32764,1,8,0:0:0:0:
26,155,32941,2,0,L|21:244,1,85,0|8,0:0|0:0,0:0:0:0:
9,350,33294,6,0,P|61:322|175:348,1,170,0|0,0:0|0:0,0:0:0:0:
223,246,33823,1,8,0:0:0:0:
124,197,33999,1,0,0:0:0:0:
223,246,34176,2,0,L|308:237,1,85,8|0,0:0|0:0,0:0:0:0:
350,71,34529,2,0,P|357:110|359:156,1,85,8|0,0:0|0:0,0:0:0:0:
398,321,34882,6,0,P|390:281|389:236,1,85,4|0,1:0|0:0,0:0:0:0:
398,223,35235,1,0,1:0:0:0:
408,209,35588,1,0,1:0:0:0:
419,196,35941,1,0,1:0:0:0:
369,139,36294,6,0,B|339:169|339:169|276:160,1,85,0|0,1:0|0:0,0:0:0:0:
280,159,36647,1,0,1:0:0:0:
263,155,37000,1,0,1:0:0:0:
246,152,37353,1,0,1:0:0:0:
175,42,37705,6,0,L|266:65,1,85,0|0,1:0|0:0,0:0:0:0:
96,22,38058,1,0,1:0:0:0:
143,113,38235,2,0,B|166:155|141:194|141:194|167:236|135:279,1,170,0|0,0:0|0:0,0:0:0:0:
74,150,38764,2,0,P|64:197|75:234,1,85,0|0,1:0|0:0,0:0:0:0:
199,322,39117,6,0,P|242:318|286:313,1,85,0|0,1:0|0:0,0:0:0:0:
344,153,39470,2,0,P|300:157|257:162,1,85,0|0,1:0|0:0,0:0:0:0:
104,232,39823,2,0,P|147:228|191:223,1,85,0|0,1:0|0:0,0:0:0:0:
249,64,40176,2,0,P|205:68|162:73,1,85,0|0,1:0|0:0,0:0:0:0:
334,62,40529,5,0,0:0:0:0:
334,62,40705,1,0,0:0:0:0:
397,118,40882,1,0,0:0:0:0:
397,118,41058,1,0,0:0:0:0:
401,203,41235,1,0,0:0:0:0:
401,203,41411,1,0,0:0:0:0:
349,271,41588,1,0,0:0:0:0:
349,271,41764,1,0,0:0:0:0:
264,284,41941,5,0,0:0:0:0:
264,284,42117,1,0,0:0:0:0:
401,203,42294,1,0,0:0:0:0:
401,203,42470,1,0,0:0:0:0:
264,115,42647,1,0,0:0:0:0:
264,115,42823,1,0,0:0:0:0:
264,284,42999,1,0,0:0:0:0:
264,284,43175,1,0,0:0:0:0:
360,337,43352,6,0,P|371:315|374:296,3,42.5,0|0|0|0,0:0|0:0|0:0|0:0,0:0:0:0:
352,261,43705,6,0,P|355:240|366:221,3,42.5,0|0|0|0,0:0|0:0|0:0|0:0,0:0:0:0:
394,190,44058,6,0,P|404:171|408:150,3,42.5,0|0|0|0,0:0|0:0|0:0|0:0,0:0:0:0:
396,109,44411,6,0,P|399:88|410:69,3,42.5,0|0|0|0,0:0|0:0|0:0|0:0,0:0:0:0:
256,192,44764,12,4,45823,1:0:0:0:
73,110,46176,6,0,L|173:132,1,85,6|0,0:0|0:0,0:0:0:0:
282,179,46529,2,0,L|182:201,1,85,10|0,0:0|0:0,0:0:0:0:
39,278,46882,2,0,P|87:307|145:298,1,85,2|0,0:0|0:0,0:0:0:0:
108,210,47235,1,10,0:0:0:0:
187,286,47411,6,0,P|233:260|352:275,1,170,2|2,0:0|0:0,0:0:0:0:
434,338,47941,2,0,P|452:293|446:253,1,85,8|0,0:0|0:0,0:0:0:0:
381,168,48294,1,2,0:0:0:0:
381,168,48470,1,0,0:0:0:0:
275,200,48647,1,10,0:0:0:0:
372,51,48823,1,0,0:0:0:0:
269,92,48999,6,0,P|211:95|174:82,1,85,2|0,0:0|0:0,0:0:0:0:
75,76,49352,2,0,P|106:124|113:163,1,85,10|0,0:0|0:0,0:0:0:0:
78,286,49705,2,0,P|112:241|242:199,1,170,2|8,0:0|0:0,0:0:0:0:
336,104,50235,6,0,L|325:205,1,85,2|0,0:0|0:0,0:0:0:0:
280,289,50588,1,0,0:0:0:0:
214,198,50764,1,8,0:0:0:0:
370,265,50941,1,2,0:0:0:0:
370,265,51117,2,0,P|415:263|459:256,1,85,2|0,0:0|0:0,0:0:0:0:
502,93,51470,2,0,P|456:94|413:102,1,85,10|0,0:0|0:0,0:0:0:0:
327,164,51823,6,0,L|283:65,1,85,6|0,0:0|0:0,0:0:0:0:
184,245,52176,2,0,L|218:167,1,85,10|0,0:0|0:0,0:0:0:0:
349,272,52529,2,0,P|300:254|262:266,1,85,2|0,0:0|0:0,0:0:0:0:
178,324,52882,1,10,0:0:0:0:
417,316,53058,6,0,B|444:250|396:210|396:210|453:177,1,170,2|2,0:0|0:0,0:0:0:0:
468,75,53588,1,8,0:0:0:0:
377,122,53764,1,0,0:0:0:0:
468,75,53941,1,2,0:0:0:0:
300,49,54117,1,0,0:0:0:0:
377,122,54294,2,0,P|384:175|373:212,1,85,10|0,0:0|0:0,0:0:0:0:
331,306,54647,6,0,P|285:279|155:292,1,170,6|10,0:0|0:0,0:0:0:0:
78,223,55176,1,0,0:0:0:0:
39,119,55352,1,2,0:0:0:0:
147,139,55529,1,0,0:0:0:0:
78,223,55705,1,10,0:0:0:0:
39,119,55882,1,2,0:0:0:0:
147,139,56058,6,0,B|194:152|194:152|237:142,1,85,0|0,0:0|0:0,0:0:0:0:
373,52,56411,2,0,B|326:39|326:39|283:49,1,85,8|2,0:0|0:0,0:0:0:0:
324,142,56764,1,2,0:0:0:0:
196,72,56941,1,0,0:0:0:0:
223,223,57117,2,0,L|216:312,1,85,10|0,0:0|0:0,0:0:0:0:
0,206,57470,6,0,P|58:169|173:184,1,170,6|10,0:0|0:0,0:0:0:0:
310,138,57999,1,0,0:0:0:0:
310,138,58176,2,0,L|213:109,1,85,2|0,0:0|0:0,0:0:0:0:
367,45,58529,5,10,0:0:0:0:
310,138,58705,2,0,P|297:182|373:300,1,170,2|2,0:0|0:0,0:0:0:0:
407,193,59235,1,8,0:0:0:0:
407,193,59411,1,2,0:0:0:0:
249,238,59588,1,2,0:0:0:0:
407,193,59764,1,0,0:0:0:0:
262,140,59941,2,0,L|362:120,1,85,10|0,0:0|0:0,0:0:0:0:
211,211,60294,6,0,P|150:201|82:111,1,170,2|10,0:0|0:0,0:0:0:0:
201,93,60823,1,0,0:0:0:0:
99,217,60999,1,2,0:0:0:0:
126,61,61176,1,0,0:0:0:0:
282,97,61352,1,10,0:0:0:0:
282,97,61529,6,0,B|346:87|346:87|371:102|371:102|466:87,1,170,2|0,0:0|0:0,0:0:0:0:
296,177,62058,2,0,L|207:187,1,85,8|2,0:0|0:0,0:0:0:0:
170,111,62411,1,2,0:0:0:0:
253,267,62588,1,0,0:0:0:0:
151,309,62764,2,0,B|110:320|110:320|65:305,1,85,10|0,0:0|0:0,0:0:0:0:
29,203,63117,6,0,P|19:157|21:110,1,85,6|0,0:0|0:0,0:0:0:0:
244,226,63470,2,0,P|253:271|252:319,1,85,10|0,0:0|0:0,0:0:0:0:
137,149,63823,2,0,L|234:133,1,85,2|0,0:0|0:0,0:0:0:0:
315,77,64176,1,10,0:0:0:0:
365,208,64352,6,0,L|281:221,1,85,2|0,0:0|0:0,0:0:0:0:
134,309,64705,2,0,L|217:295,1,85,2|8,0:0|0:0,0:0:0:0:
309,137,65058,1,2,0:0:0:0:
212,82,65235,1,2,0:0:0:0:
213,192,65411,1,0,0:0:0:0:
309,137,65588,2,0,P|325:84|318:53,1,85,10|0,0:0|0:0,0:0:0:0:
212,82,65941,6,0,L|70:175,1,170,6|2,0:0|0:0,0:0:0:0:
93,75,66470,6,0,L|58:241,1,170,6|0,0:0|0:0,0:0:0:0:
2,155,66999,6,0,L|95:297,1,170,6|0,0:0|0:0,0:0:0:0:
195,345,67529,5,0,0:0:0:0:
270,264,67705,1,0,0:0:0:0:
220,165,67882,1,0,0:0:0:0:
112,188,68058,1,0,0:0:0:0:
195,345,68235,1,0,0:0:0:0:
270,264,68411,1,0,0:0:0:0:
365,320,68588,1,0,0:0:0:0:
365,320,68676,1,0,0:0:0:0:
365,320,68764,6,0,P|415:322|470:314,1,85,4|0,0:0|0:0,0:0:0:0:
403,153,69117,2,0,P|353:151|298:159,1,85,8|0,0:0|0:0,0:0:0:0:
194,272,69470,2,0,P|244:274|299:266,1,85,0|0,0:0|0:0,0:0:0:0:
210,92,69823,1,8,0:0:0:0:
210,92,69999,6,0,B|200:134|200:134|209:178,1,85,0|0,0:0|0:0,0:0:0:0:
318,154,70352,1,0,0:0:0:0:
310,44,70529,1,8,0:0:0:0:
210,92,70705,2,0,P|168:105|120:107,1,85,0|0,0:0|0:0,0:0:0:0:
267,203,71058,2,0,P|309:190|357:188,1,85,0|8,0:0|0:0,0:0:0:0:
388,83,71411,1,0,0:0:0:0:
267,203,71588,6,0,P|265:250|272:293,1,85,0|0,0:0|0:0,0:0:0:0:
206,118,71941,2,0,P|208:71|201:28,1,85,8|0,0:0|0:0,0:0:0:0:
183,198,72294,1,0,0:0:0:0:
287,126,72470,1,0,0:0:0:0:
183,198,72647,2,0,L|86:184,1,85,8|0,0:0|0:0,0:0:0:0:
211,293,72999,6,0,P|257:269|377:277,1,170,0|8,0:0|0:0,0:0:0:0:
437,184,73529,1,0,0:0:0:0:
437,184,73705,2,0,L|451:272,1,85,0|0,0:0|0:0,0:0:0:0:
323,154,74058,2,0,L|336:70,1,85,8|0,0:0|0:0,0:0:0:0:
198,170,74411,6,0,B|151:158|111:193|111:193|56:128,1,170,4|8,0:0|0:0,0:0:0:0:
226,88,74941,1,0,0:0:0:0:
177,250,75117,1,0,0:0:0:0:
276,298,75294,2,0,P|285:249|276:210,1,85,0|8,0:0|0:0,0:0:0:0:
177,250,75647,6,0,L|85:243,1,85,0|0,0:0|0:0,0:0:0:0:
277,215,75999,2,0,L|361:221,1,85,0|8,0:0|0:0,0:0:0:0:
202,141,76352,2,0,L|110:134,1,85,0|0,0:0|0:0,0:0:0:0:
301,34,76705,2,0,P|310:77|297:120,2,85,0|8|0,0:0|0:0|0:0,0:0:0:0:
381,111,77235,5,0,0:0:0:0:
486,79,77411,1,0,0:0:0:0:
455,185,77588,2,0,B|442:228|442:228|460:269,1,85,8|0,0:0|0:0,0:0:0:0:
383,346,77941,1,0,0:0:0:0:
291,284,78117,1,0,0:0:0:0:
194,337,78294,2,0,P|145:353|108:348,1,85,8|0,0:0|0:0,0:0:0:0:
33,198,78647,6,0,P|82:182|119:187,1,85,0|0,0:0|0:0,0:0:0:0:
166,88,78999,2,0,P|204:122|218:156,1,85,8|0,0:0|0:0,0:0:0:0:
328,148,79352,2,0,P|317:198|294:227,1,85,0|0,0:0|0:0,0:0:0:0:
87,287,79705,1,8,0:0:0:0:
87,287,80058,6,0,P|127:276|172:275,1,85,4|0,0:0|0:0,0:0:0:0:
267,220,80411,1,8,0:0:0:0:
175,158,80588,1,0,0:0:0:0:
170,274,80764,2,0,L|174:367,1,85,0|0,0:0|0:0,0:0:0:0:
267,220,81117,2,0,L|263:127,1,85,8|0,0:0|0:0,0:0:0:0:
195,48,81470,5,0,0:0:0:0:
175,158,81647,1,0,0:0:0:0:
128,21,81823,1,8,0:0:0:0:
270,49,82000,1,0,0:0:0:0:
175,158,82176,2,0,P|123:164|79:153,1,85,0|0,0:0|0:0,0:0:0:0:
270,49,82529,2,0,P|322:43|366:54,1,85,8|0,0:0|0:0,0:0:0:0:
313,152,82882,6,0,B|304:193|304:193|314:239,1,85,0|0,0:0|0:0,0:0:0:0:
367,331,83235,1,8,0:0:0:0:
468,288,83411,2,0,B|477:247|477:247|467:201,1,85,0|0,0:0|0:0,0:0:0:0:
313,235,83764,2,0,L|228:255,2,85,0|8|0,0:0|0:0|0:0,0:0:0:0:
373,141,84294,5,0,0:0:0:0:
373,141,84470,1,0,0:0:0:0:
276,85,84647,1,8,0:0:0:0:
276,85,84823,1,0,0:0:0:0:
373,141,84999,1,0,0:0:0:0:
370,30,85176,1,0,0:0:0:0:
224,156,85352,2,0,L|141:133,1,85,8|0,0:0|0:0,0:0:0:0:
301,184,85705,5,4,0:0:0:0:
256,192,85794,12,4,91352,1:0:0:0:
