osu file format v14

[General]
AudioFilename: darren styles, dougal & gammer, hannah faulkner - top of the world (nanobii remix).mp3
AudioLeadIn: 0
PreviewTime: 45823
Countdown: 1
SampleSet: Soft
StackLeniency: 0.7
Mode: 0
LetterboxInBreaks: 0
WidescreenStoryboard: 0

[Editor]
DistanceSpacing: 1.4
BeatDivisor: 4
GridSize: 4
TimelineZoom: 1

[Metadata]
Title:Top of the World (nanobii Remix)
TitleUnicode:Top of the World (nanobii Remix)
Artist:Darren Styles, Dougal & Gammer, Hannah Faulkner
ArtistUnicode:Darren Styles, Dougal & Gammer, Hannah Faulkner
Creator:Moway
Version:Extra
Source:
Tags:happycore hardcore edm electronic dance music
BeatmapID:881232
BeatmapSetID:405446

[Difficulty]
HPDrainRate:6
CircleSize:4.3
OverallDifficulty:8
ApproachRate:9
SliderMultiplier:1.9
SliderTickRate:1

[Events]
//Background and Video events
0,0,"bg.jpg",0,0
//Break Periods
2,91552,102047
//Storyboard Layer 0 (Background)
//Storyboard Layer 1 (Fail)
//Storyboard Layer 2 (Pass)
//Storyboard Layer 3 (Foreground)
//Storyboard Sound Samples

[TimingPoints]
1000,352.941176470588,4,2,0,50,1,0
1000,-133.333333333333,4,2,0,50,0,0
5764,-166.666666666667,4,2,0,50,0,0
6470,-133.333333333333,4,2,0,50,0,0
12294,-133.333333333333,4,2,0,70,0,0
23588,-117.647058823529,4,2,0,80,0,0
34882,-100,4,2,0,60,0,0
40529,-100,4,1,0,70,0,0
41941,-100,4,1,0,75,0,0
43352,-100,4,1,0,80,0,0
44764,-100,4,2,0,60,0,0
45735,-57.1428571428571,4,2,0,90,0,0
46176,-86.9565217391304,4,1,0,90,0,1
66999,-133.333333333333,4,1,0,80,0,0
67352,-133.333333333333,4,1,0,70,0,0
68235,-133.333333333333,4,1,0,80,0,0
68764,-90.9090909090909,4,1,0,90,0,1
85705,-100,4,2,0,60,0,0
88529,-100,4,2,0,45,0,0
102647,-133.333333333333,4,2,0,60,0,0
111205,-133.333333333333,4,2,0,5,0,0
113058,-133.333333333333,4,2,0,80,0,0
113941,-117.647058823529,4,2,0,75,0,0
116764,-117.647058823529,4,2,0,85,0,0
119588,-117.647058823529,4,1,0,75,0,0
120999,-117.647058823529,4,1,0,80,0,0
122411,-117.647058823529,4,1,0,90,0,0
123823,-117.647058823529,4,1,0,60,0,0
125235,-86.9565217391304,4,1,0,90,0,1
144999,-133.333333333333,4,1,0,60,0,0
145705,-133.333333333333,4,1,0,75,0,0
146411,-133.333333333333,4,1,0,85,0,0
147823,-90.9090909090909,4,1,0,90,0,1
164764,-90.9090909090909,4,1,0,90,0,0
167235,-90.9090909090909,4,2,0,5,0,0
167588,-133.333333333333,4,2,0,60,0,0
171823,-133.333333333333,4,2,0,40,0,0
173235,-133.333333333333,4,2,0,20,0,0
173941,-133.333333333333,4,2,0,5,0,0

[Colours]
Combo1 : 255,128,64
Combo2 : 0,128,192
Combo3 : 255,128,192
Combo4 : 255,255,128

[HitObjects]
111,255,999,5,0,0:0:0:0:
111,255,1176,1,0,0:0:0:0:
111,255,1352,2,0,L|185:255,1,71.2500027179719
211,192,1705,2,0,P|183:242|209:326,2,142.500005435944
297,144,2588,5,0,0:0:0:0:
119,180,2764,2,0,L|37:165,1,71.2500027179719
154,87,3117,2,0,L|224:99,1,71.2500027179719
297,144,3470,2,0,P|346:130|363:113,1,71.2500027179719
293,45,3823,5,0,0:0:0:0:
293,45,3999,1,0,0:0:0:0:
196,142,4176,1,0,0:0:0:0:
299,225,4352,2,0,L|302:310,1,71.2500027179719
196,142,4705,1,0,0:0:0:0:
185,240,4882,2,0,P|147:233|120:213,2,71.2500027179719
299,225,5411,5,0,0:0:0:0:
196,142,5588,1,0,0:0:0:0:
292,67,5764,6,0,L|296:133,1,56.9999982604981,2|0,0:0|0:0,0:0:0:0:
397,345,6117,2,0,L|394:289,1,56.9999982604981,2|0,0:0|0:0,0:0:0:0:
489,115,6470,6,0,P|482:172|413:216,1,142.500005435944,4|0,0:0|0:0,0:0:0:0:
180,145,6999,1,0,0:0:0:0:
180,145,7176,1,0,0:0:0:0:
180,145,7352,2,0,B|230:137|230:137|262:151|262:151|336:140,1,142.500005435944
211,224,7882,1,0,0:0:0:0:
211,224,8058,6,0,B|199:246|199:246|207:295,1,71.2500027179719
365,310,8411,2,0,B|377:288|377:288|369:239,1,71.2500027179719
351,63,8764,2,0,L|261:78,2,71.2500027179719
178,40,9294,1,0,0:0:0:0:
397,149,9470,6,0,P|426:127|443:85,1,71.2500027179719
262,145,9823,1,0,0:0:0:0:
352,227,9999,2,0,L|423:262,1,71.2500027179719
228,268,10352,1,0,0:0:0:0:
262,145,10529,1,0,0:0:0:0:
308,306,10705,6,0,P|275:342|181:342,1,142.500005435944
132,192,11235,2,0,L|135:279,1,71.2500027179719
26,195,11588,6,2,P|94:212|27:137,1,249.375009512902,4|0,0:0|0:0,0:0:0:0:
29,279,12294,6,0,P|62:287|103:281,1,71.2500027179719,12|0,0:0|0:0,0:0:0:0:
174,242,12647,2,0,P|209:237|243:245,1,71.2500027179719,8|0,0:0|0:0,0:0:0:0:
315,291,12999,1,8,0:0:0:0:
394,172,13176,1,0,0:0:0:0:
459,298,13352,1,8,0:0:0:0:
387,248,13529,6,0,P|345:229|326:138,1,142.500005435944
386,82,14058,1,8,0:0:0:0:
386,82,14235,1,0,0:0:0:0:
243,158,14411,2,0,L|159:141,1,71.2500027179719,8|0,0:0|0:0,0:0:0:0:
54,58,14764,2,0,L|123:72,1,71.2500027179719,8|0,0:0|0:0,0:0:0:0:
308,108,15117,6,0,P|322:144|320:186,1,71.2500027179719,8|0,0:0|0:0,0:0:0:0:
243,158,15470,1,8,0:0:0:0:
411,194,15647,2,0,P|395:229|364:257,2,71.2500027179719,0|8|0,0:0|0:0|0:0,0:0:0:0:
380,113,16176,1,8,0:0:0:0:
295,283,16352,6,0,P|247:295|169:247,1,142.500005435944
242,134,16882,2,0,L|249:205,1,71.2500027179719,8|2,0:0|0:0,0:0:0:0:
84,341,17235,2,0,L|77:270,1,71.2500027179719,8|0,0:0|0:0,0:0:0:0:
121,76,17588,2,0,L|127:146,1,71.2500027179719,10|0,0:0|0:0,0:0:0:0:
232,287,17941,6,0,P|270:284|301:271,1,71.2500027179719,4|0,0:0|0:0,0:0:0:0:
370,222,18294,1,8,0:0:0:0:
433,279,18470,1,2,0:0:0:0:
294,185,18647,2,0,P|288:148|296:113,1,71.2500027179719,8|0,0:0|0:0,0:0:0:0:
475,43,18999,2,0,P|481:80|473:115,1,71.2500027179719,10|0,0:0|0:0,0:0:0:0:
294,185,19352,5,10,0:0:0:0:
387,117,19529,1,0,0:0:0:0:
316,274,19705,2,0,P|263:271|206:198,2,142.500005435944,8|8|10,0:0|0:0|0:0,0:0:0:0:
294,185,20588,1,0,0:0:0:0:
147,153,20764,6,0,P|131:190|132:229,1,71.2500027179719,10|0,0:0|0:0,0:0:0:0:
247,193,21117,1,8,0:0:0:0:
112,81,21294,2,0,L|34:69,1,71.2500027179719,2|8,0:0|0:0,0:0:0:0:
130,220,21647,1,0,0:0:0:0:
230,71,21823,1,10,0:0:0:0:
64,156,21999,1,0,0:0:0:0:
114,298,22176,6,0,L|192:291,1,71.2500027179719,10|0,0:0|0:0,0:0:0:0:
273,139,22529,1,8,0:0:0:0:
284,283,22705,1,2,0:0:0:0:
284,283,23411,1,0,0:0:0:0:
284,283,23588,6,0,P|320:224|279:146,2,161.500003080368,4|8|8,1:0|0:0|0:0,0:0:0:0:
183,303,24470,2,0,L|101:286,1,80.750001540184,0|8,0:0|0:0,0:0:0:0:
54,103,24823,6,0,L|133:119,1,80.750001540184,0|8,0:0|0:0,0:0:0:0:
277,141,25176,1,0,0:0:0:0:
214,73,25352,1,8,0:0:0:0:
225,217,25529,2,0,P|229:257|222:297,1,80.750001540184,0|8,0:0|0:0,0:0:0:0:
133,353,25882,1,0,0:0:0:0:
112,251,26058,1,8,0:0:0:0:
145,151,26235,1,0,0:0:0:0:
112,251,26411,6,0,P|69:263|9:273,1,80.750001540184,8|0,0:0|0:0,0:0:0:0:
145,151,26764,2,0,P|187:138|248:129,1,80.750001540184,8|0,0:0|0:0,0:0:0:0:
304,130,27117,1,8,0:0:0:0:
345,217,27294,1,0,0:0:0:0:
285,293,27470,1,8,0:0:0:0:
194,258,27647,1,0,0:0:0:0:
345,217,27823,6,0,L|430:213,1,80.750001540184,8|0,0:0|0:0,0:0:0:0:
461,54,28176,2,0,P|472:96|461:142,1,80.750001540184,8|0,0:0|0:0,0:0:0:0:
300,278,28529,1,8,0:0:0:0:
207,146,28705,1,0,0:0:0:0:
359,201,28882,1,8,0:0:0:0:
203,242,29058,1,0,0:0:0:0:
306,117,29235,6,0,P|358:67|453:74,2,161.500003080368,4|8|8,1:0|0:0|0:0,0:0:0:0:
320,213,30117,1,0,0:0:0:0:
208,114,30294,1,8,0:0:0:0:
399,160,30470,6,0,L|410:239,1,80.750001540184,0|8,0:0|0:0,0:0:0:0:
263,341,30823,2,0,L|252:262,1,80.750001540184,0|8,0:0|0:0,0:0:0:0:
244,165,31176,1,0,0:0:0:0:
321,107,31352,1,8,0:0:0:0:
147,169,31529,1,0,0:0:0:0:
73,106,31705,1,8,0:0:0:0:
165,75,31882,1,0,0:0:0:0:
147,169,32058,6,0,P|140:217|146:252,1,80.750001540184,8|0,0:0|0:0,0:0:0:0:
205,324,32411,1,8,0:0:0:0:
283,267,32588,2,0,L|368:262,1,80.750001540184,0|8,0:0|0:0,0:0:0:0:
457,174,32941,2,0,L|376:178,1,80.750001540184,0|8,0:0|0:0,0:0:0:0:
395,339,33294,1,0,0:0:0:0:
301,127,33470,6,0,P|285:167|292:212,1,80.750001540184,8|0,0:0|0:0,0:0:0:0:
395,339,33823,1,8,0:0:0:0:
395,339,33999,1,0,0:0:0:0:
381,244,34176,1,8,0:0:0:0:
304,302,34352,1,0,0:0:0:0:
209,280,34529,1,8,0:0:0:0:
155,199,34705,1,0,0:0:0:0:
190,108,34882,6,0,B|206:65|206:65|200:13,1,95,4|0,1:0|0:0,0:0:0:0:
322,276,35235,2,0,B|306:319|306:319|312:371,1,95,0|0,1:0|0:0,0:0:0:0:
112,172,35588,2,0,L|10:169,1,95,0|0,1:0|0:0,0:0:0:0:
160,264,35941,2,0,L|58:261,1,95,0|0,1:0|0:0,0:0:0:0:
278,101,36294,6,0,P|306:56|343:41,1,95,0|0,1:0|0:0,0:0:0:0:
234,283,36647,2,0,P|206:328|169:343,1,95,0|0,1:0|0:0,0:0:0:0:
352,120,36999,2,0,L|355:214,1,95,0|0,1:0|0:0,0:0:0:0:
441,66,37352,2,0,L|444:160,1,95,0|0,1:0|0:0,0:0:0:0:
398,321,37705,6,0,P|351:332|299:313,1,95,0|0,1:0|0:0,0:0:0:0:
96,192,38058,1,0,1:0:0:0:
96,192,38235,2,0,L|194:180,1,95,0|0,0:0|1:0,0:0:0:0:
330,105,38588,2,0,P|351:151|349:204,2,95,0|0|0,0:0|1:0|0:0,0:0:0:0:
436,245,39117,6,0,L|409:341,1,95,0|0,1:0|0:0,0:0:0:0:
203,372,39470,2,0,L|107:345,1,95,0|0,1:0|0:0,0:0:0:0:
76,139,39823,2,0,L|103:43,1,95,0|0,1:0|0:0,0:0:0:0:
309,12,40176,2,0,L|405:39,1,95,0|0,1:0|0:0,0:0:0:0:
256,192,40529,5,0,0:0:0:0:
256,192,40705,1,0,0:0:0:0:
280,104,40882,1,0,0:0:0:0:
232,280,41058,1,0,0:0:0:0:
198,130,41235,1,0,0:0:0:0:
366,84,41411,1,0,0:0:0:0:
156,224,41588,1,0,0:0:0:0:
256,36,41764,1,0,0:0:0:0:
322,269,41941,5,0,0:0:0:0:
322,269,42117,1,0,0:0:0:0:
289,157,42294,1,0,0:0:0:0:
206,291,42470,1,0,0:0:0:0:
380,193,42647,1,0,0:0:0:0:
206,118,42823,1,0,0:0:0:0:
321,285,42999,1,0,0:0:0:0:
289,157,43176,1,0,0:0:0:0:
198,286,43352,5,0,0:0:0:0:
159,305,43441,1,0,0:0:0:0:
116,306,43529,1,0,0:0:0:0:
81,281,43617,1,0,0:0:0:0:
70,239,43705,1,0,0:0:0:0:
72,195,43794,1,0,0:0:0:0:
99,162,43882,1,0,0:0:0:0:
140,153,43970,1,0,0:0:0:0:
180,165,44058,5,0,0:0:0:0:
214,190,44147,1,0,0:0:0:0:
254,202,44235,1,0,0:0:0:0:
296,199,44323,1,0,0:0:0:0:
335,181,44411,1,0,0:0:0:0:
362,148,44499,1,0,0:0:0:0:
365,105,44588,1,0,0:0:0:0:
340,71,44676,1,0,0:0:0:0:
302,51,44764,6,0,L|255:40,2,47.5,0|0|0,1:0|1:0|0:0,0:0:0:0:
407,36,45029,1,0,1:0:0:0:
407,36,45117,2,0,L|467:48,1,47.5,0|0,1:0|0:0,0:0:0:0:
485,144,45294,1,0,1:0:0:0:
485,144,45382,2,0,L|425:132,1,47.5,0|0,1:0|0:0,0:0:0:0:
344,136,45558,1,0,1:0:0:0:
344,136,45647,2,0,L|319:193,1,47.5,0|0,1:0|0:0,0:0:0:0:
247,276,45823,6,0,P|151:280|222:217,1,249.375002378225,4|0,1:0|0:0,0:0:0:0:
330,315,46176,6,0,P|385:319|438:316,1,109.250002083778,6|0,0:0|0:0,0:0:0:0:
438,68,46529,2,0,P|384:65|330:69,1,109.250002083778,10|0,0:0|0:0,0:0:0:0:
141,126,46882,2,0,B|124:175|124:175|133:231,1,109.250002083778,2|0,0:0|0:0,0:0:0:0:
218,56,47235,1,10,0:0:0:0:
223,299,47411,6,0,L|202:189,1,109.250002083778,2|0,0:0|0:0,0:0:0:0:
331,46,47764,2,0,L|351:153,1,109.250002083778,2|8,0:0|0:0,0:0:0:0:
384,295,48117,1,0,0:0:0:0:
244,125,48294,1,2,0:0:0:0:
458,89,48470,1,0,0:0:0:0:
296,237,48647,1,10,0:0:0:0:
345,24,48823,1,0,0:0:0:0:
495,181,48999,6,0,B|508:235|508:235|489:291,1,109.250002083778,2|0,0:0|0:0,0:0:0:0:
260,152,49352,2,0,B|247:98|247:98|266:42,1,109.250002083778,10|0,0:0|0:0,0:0:0:0:
330,321,49705,2,0,L|220:342,1,109.250002083778,2|0,0:0|0:0,0:0:0:0:
125,111,50058,1,8,0:0:0:0:
238,226,50235,6,0,B|280:239|315:208|315:208|360:211|360:211|390:177|442:166,1,218.500004167557,2|0,0:0|0:0,0:0:0:0:
260,157,50764,2,0,P|241:103|251:46,1,109.250002083778,8|2,0:0|0:0,0:0:0:0:
345,99,51117,1,2,0:0:0:0:
144,134,51294,1,0,0:0:0:0:
328,12,51470,1,10,0:0:0:0:
127,47,51647,1,0,0:0:0:0:
372,223,51823,6,0,P|291:208|267:217,1,109.250002083778,6|0,0:0|0:0,0:0:0:0:
40,127,52176,2,0,P|121:142|145:133,1,109.250002083778,10|0,0:0|0:0,0:0:0:0:
175,356,52529,2,0,L|183:243,1,109.250002083778,2|0,0:0|0:0,0:0:0:0:
215,95,52882,1,10,0:0:0:0:
307,295,53058,6,0,P|362:295|414:272,1,109.250002083778,2|0,0:0|0:0,0:0:0:0:
449,83,53411,2,0,P|394:83|342:106,1,109.250002083778,2|8,0:0|0:0,0:0:0:0:
208,204,53764,1,0,0:0:0:0:
135,97,53941,1,2,0:0:0:0:
109,290,54118,1,0,0:0:0:0:
311,258,54294,2,0,P|336:209|314:160,1,109.250002083778,10|0,0:0|0:0,0:0:0:0:
135,97,54647,6,0,B|90:119|37:73|37:73|-16:102|0:167,1,218.500004167557,6|10,0:0|0:0,0:0:0:0:
109,290,55176,1,0,0:0:0:0:
109,290,55352,2,0,P|161:281|222:276,1,109.250002083778,2|0,0:0|0:0,0:0:0:0:
403,94,55705,1,10,0:0:0:0:
403,94,55882,6,0,P|350:102|290:108,1,109.250002083778,2|0,0:0|0:0,0:0:0:0:
462,22,56235,1,0,0:0:0:0:
451,227,56411,1,8,0:0:0:0:
330,183,56588,1,2,0:0:0:0:
502,127,56764,1,2,0:0:0:0:
373,19,56941,1,0,0:0:0:0:
375,295,57117,1,10,0:0:0:0:
375,295,57470,6,0,P|311:268|212:302,1,163.875003125668,6|0,0:0|0:0,0:0:0:0:
223,292,57823,2,0,L|199:177,1,109.250002083778,10|0,0:0|0:0,0:0:0:0:
405,51,58176,2,0,P|388:104|344:145,1,109.250002083778,2|0,0:0|0:0,0:0:0:0:
108,70,58529,1,10,0:0:0:0:
108,70,58705,6,0,L|225:56,1,109.250002083778,2|0,0:0|0:0,0:0:0:0:
136,262,59058,2,0,L|27:274,1,109.250002083778,2|8,0:0|0:0,0:0:0:0:
291,149,59411,1,2,0:0:0:0:
291,149,59588,1,2,0:0:0:0:
49,178,59764,1,0,0:0:0:0:
184,321,59941,1,10,0:0:0:0:
163,99,60117,1,0,0:0:0:0:
363,235,60294,6,0,P|430:226|458:192,1,109.250002083778,2|0,0:0|0:0,0:0:0:0:
376,19,60647,2,0,B|349:66|349:66|376:129,1,109.250002083778,10|0,0:0|0:0,0:0:0:0:
262,342,60999,2,0,B|289:295|289:295|262:232,1,109.250002083778,2|0,0:0|0:0,0:0:0:0:
189,116,61352,1,10,0:0:0:0:
378,301,61529,6,0,B|428:317|460:290|460:290|412:216|460:166,1,218.500004167557,2|0,0:0|0:0,0:0:0:0:
361,29,62058,2,0,P|377:90|369:135,1,109.250002083778,8|2,0:0|0:0,0:0:0:0:
189,203,62411,2,0,L|315:217,1,109.250002083778,2|0,0:0|0:0,0:0:0:0:
250,87,62764,1,10,0:0:0:0:
189,297,62941,1,0,0:0:0:0:
377,271,63117,6,0,P|395:216|380:166,1,109.250002083778,6|0,0:0|0:0,0:0:0:0:
49,206,63470,2,0,P|101:205|170:211,1,109.250002083778,10|0,0:0|0:0,0:0:0:0:
265,16,63823,2,0,P|265:68|260:137,1,109.250002083778,2|0,0:0|0:0,0:0:0:0:
200,343,64176,1,10,0:0:0:0:
49,206,64352,6,0,P|48:153|54:85,1,109.250002083778,2|0,0:0|0:0,0:0:0:0:
290,344,64705,2,0,P|290:291|285:223,1,109.250002083778,2|8,0:0|0:0,0:0:0:0:
210,138,65058,1,2,0:0:0:0:
162,346,65235,1,2,0:0:0:0:
376,239,65411,1,0,0:0:0:0:
128,231,65588,1,10,0:0:0:0:
326,121,65764,1,0,0:0:0:0:
323,358,65941,6,2,P|265:325|270:188,1,218.500004167557,6|2,0:0|0:0,0:0:0:0:
394,92,66470,6,0,P|418:192|340:261,1,218.500004167557,6|0,0:0|0:0,0:0:0:0:
145,113,66999,6,0,L|298:92,1,142.500005435944,6|0,0:0|0:0,0:0:0:0:
156,239,67529,5,0,0:0:0:0:
156,239,67705,1,0,0:0:0:0:
48,107,67882,1,0,0:0:0:0:
48,107,68058,1,0,0:0:0:0:
48,29,68235,5,0,0:0:0:0:
157,315,68411,1,0,0:0:0:0:
265,198,68588,1,0,0:0:0:0:
265,198,68676,1,0,0:0:0:0:
265,198,68764,6,0,P|324:188|371:196,1,104.500003189087,4|0,0:0|0:0,0:0:0:0:
479,273,69117,1,8,0:0:0:0:
371,315,69294,1,0,0:0:0:0:
463,180,69470,2,0,B|488:135|488:135|468:84,1,104.500003189087
330,30,69823,1,8,0:0:0:0:
353,230,69999,6,0,L|410:126,1,104.500003189087
221,76,70352,1,0,0:0:0:0:
247,186,70529,1,8,0:0:0:0:
324,29,70705,2,0,P|341:82|325:126,1,104.500003189087
136,143,71058,1,0,0:0:0:0:
247,186,71235,1,8,0:0:0:0:
152,57,71411,1,0,0:0:0:0:
118,227,71588,6,0,L|96:332,1,104.500003189087
12,66,71941,2,0,L|33:168,1,104.500003189087,8|0,0:0|0:0,0:0:0:0:
198,278,72294,1,0,0:0:0:0:
33,253,72470,1,0,0:0:0:0:
220,124,72647,2,0,P|166:126|112:145,1,104.500003189087,8|0,0:0|0:0,0:0:0:0:
198,278,72999,6,0,P|251:275|306:257,1,104.500003189087
367,143,73352,1,8,0:0:0:0:
288,67,73529,1,0,0:0:0:0:
366,239,73705,1,0,0:0:0:0:
414,44,73882,1,0,0:0:0:0:
492,216,74058,1,8,0:0:0:0:
277,139,74235,1,0,0:0:0:0:
496,81,74411,6,0,P|452:126|401:134,1,104.500003189087,4|0,0:0|0:0,0:0:0:0:
248,119,74764,1,8,0:0:0:0:
376,32,74941,1,0,0:0:0:0:
320,203,75117,2,0,B|300:243|300:243|318:300,1,104.500003189087
428,297,75470,1,8,0:0:0:0:
226,290,75647,6,0,L|117:283,1,104.500003189087
373,154,75999,2,0,L|269:160,1,104.500003189087,0|8,0:0|0:0,0:0:0:0:
411,267,76352,1,0,0:0:0:0:
392,63,76529,1,0,0:0:0:0:
311,242,76705,1,0,0:0:0:0:
460,167,76882,1,8,0:0:0:0:
298,79,77058,1,0,0:0:0:0:
240,293,77235,6,0,P|285:328|331:332,1,104.500003189087
150,153,77588,1,8,0:0:0:0:
103,310,77764,1,0,0:0:0:0:
261,226,77941,1,0,0:0:0:0:
100,207,78117,2,0,P|76:160|89:107,1,104.500003189087,0|8,0:0|0:0,0:0:0:0:
298,130,78470,6,0,L|188:148,1,104.500003189087
450,260,78823,2,0,L|346:243,1,104.500003189087,0|8,0:0|0:0,0:0:0:0:
264,51,79176,1,0,0:0:0:0:
139,260,79352,2,0,P|173:301|319:303,1,209.000006378174,0|8,0:0|0:0,0:0:0:0:
114,81,80058,6,0,P|98:134|113:187,1,104.500003189087,4|0,0:0|0:0,0:0:0:0:
198,135,80411,1,8,0:0:0:0:
24,39,80588,1,0,0:0:0:0:
198,135,80764,2,0,L|308:130,1,104.500003189087
490,63,81117,2,0,L|385:67,1,104.500003189087,8|0,0:0|0:0,0:0:0:0:
398,303,81470,6,0,P|414:250|399:197,1,104.500003189087
314,249,81823,1,8,0:0:0:0:
488,345,82000,1,0,0:0:0:0:
314,249,82176,2,0,L|204:254,1,104.500003189087
109,156,82529,1,8,0:0:0:0:
76,329,82705,1,0,0:0:0:0:
203,167,82882,6,0,B|221:122|221:122|207:68,1,104.500003189087
86,19,83235,1,8,0:0:0:0:
296,52,83411,2,0,L|325:163,1,104.500003189087
73,254,83764,2,0,L|109:156,2,104.500003189087,0|8|0,0:0|0:0|0:0,0:0:0:0:
192,122,84294,5,0,0:0:0:0:
234,242,84470,1,0,0:0:0:0:
192,122,84647,1,8,0:0:0:0:
352,202,84823,1,0,0:0:0:0:
164,201,84999,1,0,0:0:0:0:
261,39,85176,1,0,0:0:0:0:
221,272,85352,2,0,B|206:323|206:323|291:263|344:332,1,209.000006378174,8|4,0:0|0:0,0:0:0:0:
256,192,85794,12,4,91352,1:0:0:0:
426,252,102647,6,0,P|362:276|294:253,1,142.500005435944,4|0,1:0|0:0,0:0:0:0:
294,253,103352,2,0,P|227:230|162:254,1,142.500005435944,2|0,0:0|0:0,0:0:0:0:
106,334,103882,2,0,P|77:297|79:202,1,142.500005435944,2|0,0:0|0:0,0:0:0:0:
77,205,104588,2,0,P|85:135|48:76,1,142.500005435944,2|0,0:0|0:0,0:0:0:0:
175,181,105117,1,0,0:0:0:0:
252,130,105294,6,0,L|338:124,1,71.2500027179719,2|0,0:0|0:0,0:0:0:0:
410,46,105647,1,0,0:0:0:0:
410,46,105823,2,0,L|338:50,1,71.2500027179719,2|0,0:0|0:0,0:0:0:0:
268,221,106176,2,0,L|272:292,1,71.2500027179719,2|0,0:0|0:0,0:0:0:0:
407,343,106529,1,2,0:0:0:0:
498,193,106705,6,0,P|461:167|352:173,1,142.500005435944,2|0,0:0|0:0,0:0:0:0:
300,102,107235,2,0,L|280:177,1,71.2500027179719,2|0,0:0|0:0,0:0:0:0:
243,312,107588,2,0,L|224:243,1,71.2500027179719,2|0,0:0|0:0,0:0:0:0:
182,94,107941,2,0,L|162:169,1,71.2500027179719,2|0,0:0|0:0,0:0:0:0:
346,264,108294,6,0,P|387:238|493:235,1,142.500005435944,4|0,0:0|0:0,0:0:0:0:
478,230,108999,2,0,L|496:89,1,142.500005435944,2|0,0:0|0:0,0:0:0:0:
387,34,109529,2,0,L|369:175,1,142.500005435944,2|0,0:0|0:0,0:0:0:0:
369,175,110235,2,0,P|303:137|225:155,1,142.500005435944,2|0,0:0|0:0,0:0:0:0:
161,91,110764,2,0,P|143:129|146:166,1,71.2500027179719,2|0,0:0|0:0,0:0:0:0:
349,62,111117,1,4,0:0:0:0:
256,192,111205,12,0,112529,0:0:0:0:
256,108,113058,5,0,0:0:0:0:
256,276,113235,1,2,0:1:0:0:
154,152,113411,1,0,0:0:0:0:
256,28,113588,1,6,0:1:0:0:
358,152,113764,1,0,0:0:0:0:
256,276,113941,6,0,P|188:256|88:252,1,161.500003080368,4|2,1:0|0:0,0:0:0:0:
40,104,114470,1,0,0:0:0:0:
40,104,114647,2,0,L|24:196,1,80.750001540184,2|0,0:0|0:0,0:0:0:0:
152,96,114999,2,0,L|138:16,1,80.750001540184,2|0,0:0|0:0,0:0:0:0:
252,180,115352,6,0,P|292:184|336:176,1,80.750001540184,2|0,0:0|0:0,0:0:0:0:
453,82,115705,2,0,P|413:78|369:86,1,80.750001540184,2|0,0:0|0:0,0:0:0:0:
329,313,116058,1,2,0:0:0:0:
404,251,116235,1,0,0:0:0:0:
313,216,116411,1,2,0:0:0:0:
419,347,116588,1,0,0:0:0:0:
485,193,116764,6,0,L|494:96,1,80.750001540184,2|0,0:0|0:0,0:0:0:0:
379,33,117117,2,0,L|386:113,1,80.750001540184,2|0,0:0|0:0,0:0:0:0:
274,194,117470,2,0,L|283:97,1,80.750001540184,2|0,0:0|0:0,0:0:0:0:
168,34,117823,2,0,L|175:114,1,80.750001540184,2|0,0:0|0:0,0:0:0:0:
203,306,118176,5,2,0:0:0:0:
203,306,118352,1,0,0:0:0:0:
97,158,118529,1,2,0:0:0:0:
97,158,118705,1,0,0:0:0:0:
292,232,118882,1,2,0:0:0:0:
104,253,119058,1,0,0:0:0:0:
286,138,119235,1,2,0:0:0:0:
96,35,119411,1,0,0:0:0:0:
70,123,119588,6,0,L|62:169,3,40.375000770092
152,255,119941,2,0,L|145:215,3,40.375000770092
236,124,120294,2,0,L|228:170,3,40.375000770092
318,256,120647,2,0,L|311:216,3,40.375000770092
382,138,120999,6,0,L|427:131,1,40.375000770092,2|0,0:0|0:0,0:0:0:0:
316,123,121176,6,0,L|361:116,1,40.375000770092
251,106,121352,6,0,L|296:99,1,40.375000770092,2|0,0:0|0:0,0:0:0:0:
186,84,121529,6,0,L|231:77,1,40.375000770092
121,65,121705,6,0,L|114:20,1,40.375000770092,2|0,0:0|0:0,0:0:0:0:
106,131,121882,6,0,L|99:86,1,40.375000770092
89,196,122058,6,0,L|82:151,1,40.375000770092,2|0,0:0|0:0,0:0:0:0:
67,261,122235,6,0,L|60:216,1,40.375000770092
127,299,122411,5,2,0:0:0:0:
145,329,122499,1,0,0:0:0:0:
171,353,122587,1,2,0:0:0:0:
206,361,122676,1,0,0:0:0:0:
241,352,122764,1,2,0:0:0:0:
267,326,122852,1,0,0:0:0:0:
279,292,122940,1,2,0:0:0:0:
274,255,123029,1,0,0:0:0:0:
251,226,123117,1,2,0:0:0:0:
229,197,123205,5,0,0:0:0:0:
224,160,123294,1,2,0:0:0:0:
236,126,123382,1,0,0:0:0:0:
262,100,123470,1,2,0:0:0:0:
297,91,123558,1,0,0:0:0:0:
332,99,123647,1,2,0:0:0:0:
358,123,123735,1,0,0:0:0:0:
376,153,123823,1,4,0:0:0:0:
96,79,125235,6,0,P|92:134|95:187,1,109.250002083778,6|0,0:0|0:0,0:0:0:0:
416,187,125588,2,0,P|419:133|416:79,1,109.250002083778,10|0,0:0|0:0,0:0:0:0:
257,287,125941,2,0,P|210:337|171:352,1,109.250002083778,2|0,0:0|0:0,0:0:0:0:
126,144,126294,1,10,0:0:0:0:
334,333,126470,6,0,L|444:322,1,109.250002083778,2|0,0:0|0:0,0:0:0:0:
253,130,126823,2,0,L|144:140,1,109.250002083778,2|8,0:0|0:0,0:0:0:0:
383,77,127176,1,2,0:0:0:0:
275,238,127352,1,2,0:0:0:0:
270,43,127529,1,0,0:0:0:0:
404,239,127705,1,10,0:0:0:0:
490,31,127882,1,0,0:0:0:0:
332,166,128058,6,0,P|271:142|225:148,1,109.250002083778,2|0,0:0|0:0,0:0:0:0:
505,202,128411,2,0,P|500:136|476:97,1,109.250002083778,10|0,0:0|0:0,0:0:0:0:
157,277,128764,2,0,P|211:280|260:257,1,109.250002083778,2|0,0:0|0:0,0:0:0:0:
321,73,129117,1,10,0:0:0:0:
84,31,129294,6,0,B|32:124|146:140|79:247,1,218.500004167557,2|0,0:0|0:0,0:0:0:0:
149,78,129823,2,0,L|283:68,1,109.250002083778,8|2,0:0|0:0,0:0:0:0:
451,64,130176,1,2,0:0:0:0:
251,173,130352,1,0,0:0:0:0:
486,201,130529,1,10,0:0:0:0:
286,310,130705,1,0,0:0:0:0:
315,51,130882,6,0,P|347:102|349:152,1,109.250002083778,6|0,0:0|0:0,0:0:0:0:
150,324,131235,2,0,P|154:270|184:225,1,109.250002083778,10|0,0:0|0:0,0:0:0:0:
468,300,131588,2,0,L|357:288,1,109.250002083778,2|0,0:0|0:0,0:0:0:0:
65,108,131941,1,10,0:0:0:0:
259,234,132117,6,0,P|314:217|342:174,1,109.250002083778,2|0,0:0|0:0,0:0:0:0:
132,153,132470,2,0,P|144:96|121:51,1,109.250002083778,2|8,0:0|0:0,0:0:0:0:
36,248,132823,1,0,0:0:0:0:
274,77,132999,1,2,0:0:0:0:
65,108,133176,1,0,0:0:0:0:
165,254,133352,2,0,B|193:302|193:302|168:359,1,109.250002083778,10|0,0:0|0:0,0:0:0:0:
311,188,133705,6,0,P|357:152|502:202,1,218.500004167557,6|8,0:0|0:0,0:0:0:0:
204,124,134235,1,2,0:0:0:0:
204,124,134411,2,0,L|188:7,1,109.250002083778,2|0,0:0|0:0,0:0:0:0:
84,230,134764,1,10,0:0:0:0:
84,230,134941,6,0,L|69:338,1,109.250002083778,2|0,0:0|0:0,0:0:0:0:
103,117,135294,1,0,0:0:0:0:
225,256,135470,1,8,0:0:0:0:
15,164,135647,1,2,0:0:0:0:
210,114,135823,1,2,0:0:0:0:
152,302,135999,1,0,0:0:0:0:
100,83,136176,1,10,0:0:0:0:
100,83,136529,6,0,P|143:139|102:224,1,163.875003125668,6|0,0:0|0:0,0:0:0:0:
110,218,136882,2,0,L|193:297,1,109.250002083778,10|0,0:0|0:0,0:0:0:0:
426,204,137235,2,0,L|346:128,1,109.250002083778,2|0,0:0|0:0,0:0:0:0:
112,53,137588,1,10,0:0:0:0:
112,53,137764,6,0,P|55:90|30:139,1,109.250002083778,2|0,0:0|0:0,0:0:0:0:
61,334,138117,2,0,L|45:221,1,109.250002083778,2|8,0:0|0:0,0:0:0:0:
200,38,138470,1,2,0:0:0:0:
232,312,138647,1,2,0:0:0:0:
112,156,138823,1,0,0:0:0:0:
328,123,138999,1,10,0:0:0:0:
112,156,139176,1,0,0:0:0:0:
388,225,139352,6,0,B|335:213|335:213|277:230,1,109.250002083778,2|0,0:0|0:0,0:0:0:0:
60,58,139705,2,0,B|113:70|113:70|171:53,1,109.250002083778,10|0,0:0|0:0,0:0:0:0:
443,39,140058,2,0,L|449:159,1,109.250002083778,2|0,0:0|0:0,0:0:0:0:
278,355,140411,1,8,0:0:0:0:
204,199,140588,6,0,B|238:165|295:162|337:198|337:198|333:122,1,218.500004167557,2|0,0:0|0:0,0:0:0:0:
76,33,141117,2,0,L|82:143,1,109.250002083778,8|2,0:0|0:0,0:0:0:0:
141,280,141470,1,2,0:0:0:0:
195,69,141647,1,0,0:0:0:0:
141,280,141823,1,10,0:0:0:0:
15,103,141999,1,0,0:0:0:0:
141,280,142176,6,0,P|196:265|250:268,1,109.250002083778,6|0,0:0|0:0,0:0:0:0:
311,21,142529,2,0,P|326:76|323:130,1,109.250002083778,10|0,0:0|0:0,0:0:0:0:
36,309,142882,2,0,P|21:254|24:200,1,109.250002083778,2|0,0:0|0:0,0:0:0:0:
134,63,143235,1,10,0:0:0:0:
331,232,143411,6,0,P|391:224|442:214,1,109.250002083778,2|0,0:0|0:0,0:0:0:0:
181,152,143764,2,0,P|120:159|70:170,1,109.250002083778,2|8,0:0|0:0,0:0:0:0:
331,103,144117,1,2,0:0:0:0:
215,278,144294,1,2,0:0:0:0:
224,35,144471,1,0,0:0:0:0:
331,336,144647,1,10,0:0:0:0:
331,336,144823,1,0,0:0:0:0:
441,220,144999,6,0,L|452:182,7,35.625001358986
355,135,145705,6,0,L|364:169,7,35.625001358986
258,152,146411,5,0,0:0:0:0:
230,145,146499,1,0,0:0:0:0:
202,137,146588,1,0,0:0:0:0:
174,130,146676,1,0,0:0:0:0:
146,123,146764,1,0,0:0:0:0:
118,116,146852,1,0,0:0:0:0:
89,109,146941,1,0,0:0:0:0:
61,102,147029,1,0,0:0:0:0:
33,95,147117,5,0,0:0:0:0:
269,49,147294,1,0,0:0:0:0:
168,220,147470,1,8,0:0:0:0:
142,24,147647,1,0,0:0:0:0:
107,264,147823,6,0,P|155:295|201:288,1,104.500003189087,4|0,0:0|0:0,0:0:0:0:
319,203,148176,1,8,0:0:0:0:
355,325,148352,1,0,0:0:0:0:
217,203,148529,2,0,B|188:167|188:167|204:104,1,104.500003189087
363,85,148882,1,8,0:0:0:0:
455,244,149058,6,0,L|343:226,1,104.500003189087
150,127,149411,1,0,0:0:0:0:
279,72,149588,1,8,0:0:0:0:
209,210,149764,2,0,P|195:260|217:328,1,104.500003189087
108,233,150117,1,0,0:0:0:0:
290,159,150294,1,8,0:0:0:0:
108,233,150470,1,0,0:0:0:0:
362,110,150647,6,0,P|375:161|359:211,1,104.500003189087
237,46,150999,1,8,0:0:0:0:
203,216,151176,1,0,0:0:0:0:
92,54,151352,2,0,P|79:105|95:155,1,104.500003189087
221,300,151705,2,0,P|272:292|324:281,1,104.500003189087,8|0,0:0|0:0,0:0:0:0:
459,94,152058,6,0,P|408:102|356:113,1,104.500003189087
57,229,152411,2,0,P|108:221|160:210,1,104.500003189087,8|0,0:0|0:0,0:0:0:0:
340,43,152764,1,0,0:0:0:0:
350,208,152941,1,0,0:0:0:0:
195,108,153117,1,8,0:0:0:0:
205,273,153294,1,0,0:0:0:0:
393,107,153470,6,0,B|456:100|456:100|486:129,1,104.500003189087,4|0,0:0|0:0,0:0:0:0:
385,298,153823,2,0,B|322:305|322:305|292:276,1,104.500003189087,8|0,0:0|0:0,0:0:0:0:
253,41,154176,2,0,L|229:160,1,104.500003189087
93,298,154529,1,8,0:0:0:0:
93,298,154705,6,0,L|113:195,1,104.500003189087
148,19,155058,1,0,0:0:0:0:
16,107,155235,1,8,0:0:0:0:
214,219,155411,2,0,P|271:215|311:190,1,104.500003189087
327,42,155764,2,0,P|270:46|230:71,2,104.500003189087,0|8|0,0:0|0:0|0:0,0:0:0:0:
146,137,156294,6,0,L|33:117,1,104.500003189087
327,212,156647,2,0,L|440:192,1,104.500003189087,8|0,0:0|0:0,0:0:0:0:
111,226,156999,1,0,0:0:0:0:
224,63,157176,1,0,0:0:0:0:
248,242,157352,1,8,0:0:0:0:
248,242,157529,6,0,P|255:296|251:357,1,104.500003189087
42,92,157882,2,0,P|34:146|39:207,1,104.500003189087,0|8,0:0|0:0,0:0:0:0:
123,328,158235,1,0,0:0:0:0:
254,165,158411,2,0,B|298:167|323:205|323:205|367:183|367:183|393:209|456:195,1,209.000006378174,0|8,0:0|0:0,0:0:0:0:
241,75,159117,6,0,L|120:54,1,104.500003189087,4|0,0:0|0:0,0:0:0:0:
349,26,159470,1,8,0:0:0:0:
387,162,159647,1,0,0:0:0:0:
150,162,159823,2,0,L|29:141,1,104.500003189087
273,244,160176,2,0,P|304:199|305:145,1,104.500003189087,8|0,0:0|0:0,0:0:0:0:
113,166,160529,6,0,L|92:287,1,104.500003189087
64,58,160882,1,8,0:0:0:0:
200,20,161059,1,0,0:0:0:0:
252,135,161235,2,0,L|231:256,1,104.500003189087
361,348,161588,2,0,P|419:332|440:297,1,104.500003189087,8|0,0:0|0:0,0:0:0:0:
450,120,161941,6,0,L|329:99,1,104.500003189087
129,54,162294,1,8,0:0:0:0:
30,232,162470,2,0,L|132:214,1,104.500003189087
339,359,162823,2,0,P|347:303|334:250,1,104.500003189087,0|8,0:0|0:0,0:0:0:0:
135,30,163176,6,0,P|127:86|140:139,1,104.500003189087
256,305,163529,1,0,0:0:0:0:
411,134,163705,1,8,0:0:0:0:
154,209,163882,1,0,0:0:0:0:
309,38,164058,1,0,0:0:0:0:
389,268,164235,1,0,0:0:0:0:
166,65,164411,1,8,0:0:0:0:
455,54,164588,1,0,0:0:0:0:
310,167,164764,5,4,0:0:0:0:
256,192,164852,12,0,167235,0:0:0:0:
59,185,167588,6,0,P|104:180|208:187,1,142.500005435944,4|0,0:0|0:0,0:0:0:0:
200,185,168294,2,0,P|270:191|341:185,1,142.500005435944,2|0,0:0|0:0,0:0:0:0:
434,163,168823,2,0,B|483:147|483:147|461:253,1,142.500005435944,2|0,0:0|0:0,0:0:0:0:
464,236,169529,2,0,B|415:220|415:220|437:326,1,142.500005435944,2|0,0:0|0:0,0:0:0:0:
325,254,170058,1,0,0:0:0:0:
252,348,170235,1,2,0:0:0:0:
256,192,170411,12,0,173941,0:0:0:0:
