osu file format v14

[General]
AudioFilename: darren styles, dougal & gammer, hannah faulkner - top of the world (nanobii remix).mp3
AudioLeadIn: 0
PreviewTime: 45823
Countdown: 1
SampleSet: Soft
StackLeniency: 0.7
Mode: 0
LetterboxInBreaks: 0
WidescreenStoryboard: 1

[Editor]
DistanceSpacing: 1.1
BeatDivisor: 4
GridSize: 4
TimelineZoom: 1

[Metadata]
Title:Top of the World (nanobii Remix)
TitleUnicode:Top of the World (nanobii Remix)
Artist:Darren Styles, Dougal & Gammer, Hannah Faulkner
ArtistUnicode:Darren Styles, Dougal & Gammer, Hannah Faulkner
Creator:Moway
Version:Beginner
Source:
Tags:happycore hardcore edm electronic dance music
BeatmapID:881271
BeatmapSetID:405446

[Difficulty]
HPDrainRate:2
CircleSize:3
OverallDifficulty:2
ApproachRate:3
SliderMultiplier:0.799999999999999
SliderTickRate:1

[Events]
//Background and Video events
0,0,"bg.jpg",0,0
//Break Periods
2,91552,101207
//Storyboard Layer 0 (Background)
//Storyboard Layer 1 (Fail)
//Storyboard Layer 2 (Pass)
//Storyboard Layer 3 (Foreground)
//Storyboard Sound Samples

[TimingPoints]
1000,352.941176470588,4,2,0,50,1,0
1000,-100,4,2,0,50,0,0
12294,-100,4,2,0,70,0,0
23588,-100,4,2,0,80,0,0
34882,-100,4,2,0,60,0,0
40529,-100,4,1,0,70,0,0
41941,-100,4,1,0,75,0,0
43352,-100,4,1,0,80,0,0
44764,-100,4,2,0,60,0,0
46176,-100,4,1,0,90,0,1
66999,-100,4,1,0,80,0,0
67352,-100,4,1,0,70,0,0
68235,-100,4,1,0,80,0,0
68764,-100,4,1,0,90,0,1
85705,-100,4,2,0,60,0,0
88529,-100,4,2,0,45,0,0
102647,-100,4,2,0,60,0,0
111205,-100,4,2,0,5,0,0
113058,-100,4,2,0,80,0,0
113941,-100,4,2,0,75,0,0
116764,-100,4,2,0,85,0,0
119588,-100,4,1,0,75,0,0
120999,-100,4,1,0,80,0,0
122411,-100,4,1,0,90,0,0
123823,-100,4,1,0,60,0,0
125235,-100,4,1,0,90,0,1
144999,-100,4,1,0,60,0,0
145705,-100,4,1,0,75,0,0
146411,-100,4,1,0,85,0,0
147823,-100,4,1,0,90,0,1
164764,-100,4,1,0,90,0,0
167588,-100,4,2,0,60,0,0
171823,-100,4,2,0,40,0,0
173235,-100,4,2,0,20,0,0
173941,-100,4,2,0,5,0,0

[Colours]
Combo1 : 255,128,64
Combo2 : 0,128,192
Combo3 : 255,128,192
Combo4 : 255,255,128

[HitObjects]
34,186,999,6,0,L|119:189,1,79.9999999999999,0|0,0:0|0:0,0:0:0:0:
193,151,1705,2,0,P|227:139|272:139,2,79.9999999999999,0|0|0,0:0|0:0|0:0,0:0:0:0:
188,239,2764,2,0,L|196:332,2,79.9999999999999,0|0|0,0:0|0:0|0:0,0:0:0:0:
273,261,3823,6,0,P|343:246|385:160,1,160,0|0,0:0|0:0,0:0:0:0:
472,185,4882,2,0,P|460:130|436:104,1,79.9999999999999,0|0,0:0|0:0,0:0:0:0:
326,56,5764,2,0,B|274:42|237:80|237:80|171:41,1,160,2|4,0:0|0:0,0:0:0:0:
70,117,6999,6,0,P|51:154|60:199,2,79.9999999999999,0|0|0,0:0|0:0|0:0,0:0:0:0:
237,171,8411,2,0,L|318:165,2,79.9999999999999,0|0|0,0:0|0:0|0:0,0:0:0:0:
151,191,9470,2,0,B|166:239|204:254|204:254|204:303,2,120,0|0|0,0:0|0:0|0:0,0:0:0:0:
171,105,10882,6,0,L|171:22,1,79.9999999999999,0|0,0:0|0:0,0:0:0:0:
252,59,11588,2,0,P|289:78|411:52,1,160,4|12,0:0|0:0,0:0:0:0:
486,213,12999,6,0,L|486:300,1,79.9999999999999,8|8,0:0|0:0,0:0:0:0:
408,335,13705,1,0,0:0:0:0:
342,275,14058,1,8,0:0:0:0:
275,332,14411,2,0,P|232:352|128:309,1,160,8|8,0:0|0:0,0:0:0:0:
67,254,15470,5,8,0:0:0:0:
105,174,15823,2,0,B|115:134|115:134|103:95,1,79.9999999999999,8|8,0:0|0:0,0:0:0:0:
183,59,16529,2,0,B|200:108|200:108|257:85|321:97,1,160,8|8,0:0|0:0,0:0:0:0:
376,147,17588,1,10,0:0:0:0:
295,182,17941,6,0,P|303:233|388:315,1,160,4|8,0:0|0:0,0:0:0:0:
452,269,18999,1,10,0:0:0:0:
506,200,19352,2,0,L|498:106,1,79.9999999999999,10|8,0:0|0:0,0:0:0:0:
417,153,20058,2,0,L|369:71,1,79.9999999999999,8|10,0:0|0:0,0:0:0:0:
310,142,20764,6,0,P|254:132|160:189,2,160,10|8|10,0:0|0:0|0:0,0:0:0:0:
78,88,23588,6,0,L|67:183,1,79.9999999999999,4|8,1:0|0:0,0:0:0:0:
58,255,24294,2,0,L|153:266,1,79.9999999999999,8|8,0:0|0:0,0:0:0:0:
208,316,24999,2,0,P|252:293|334:294,2,120,8|0|8,0:0|0:0|0:0,0:0:0:0:
137,264,26411,6,0,L|146:184,1,79.9999999999999,8|8,0:0|0:0,0:0:0:0:
164,98,27117,1,8,0:0:0:0:
247,71,27470,1,8,0:0:0:0:
314,127,27823,2,0,P|379:154|459:121,1,160,8|8,0:0|0:0,0:0:0:0:
400,288,29235,6,0,B|376:343|376:343|329:324|260:338,1,160,4|8,1:0|0:0,0:0:0:0:
191,354,30294,1,8,0:0:0:0:
108,324,30647,2,0,L|96:236,1,79.9999999999999,8|8,0:0|0:0,0:0:0:0:
185,247,31352,2,0,L|197:159,1,79.9999999999999,8|8,0:0|0:0,0:0:0:0:
280,193,32058,6,0,P|309:178|446:185,2,160,8|8|8,0:0|0:0|0:0,0:0:0:0:
112,246,34176,2,0,L|27:238,1,79.9999999999999,8|8,0:0|0:0,0:0:0:0:
0,159,34882,6,0,P|-6:113|6:76,1,79.9999999999999,4|0,1:0|1:0,0:0:0:0:
87,53,35588,2,0,L|172:61,1,79.9999999999999,0|0,1:0|1:0,0:0:0:0:
239,110,36294,1,0,1:0:0:0:
312,61,36647,1,0,1:0:0:0:
382,112,36999,2,0,P|407:143|421:189,1,79.9999999999999,0|0,1:0|1:0,0:0:0:0:
373,255,37705,6,0,L|212:226,1,160,0|0,1:0|1:0,0:0:0:0:
137,184,38764,1,0,1:0:0:0:
104,102,39117,2,0,P|73:124|66:237,1,160,0|0,1:0|1:0,0:0:0:0:
256,192,40529,12,0,44764,1:0:0:0:
421,69,46176,6,0,L|413:164,1,79.9999999999999,6|10,0:0|0:0,0:0:0:0:
361,219,46882,1,2,0:0:0:0:
295,160,47235,2,0,P|242:136|207:139,1,79.9999999999999,10|0,0:0|0:0,0:0:0:0:
133,144,47941,2,0,P|136:104|156:70,2,79.9999999999999,8|2|10,0:0|0:0|0:0,0:0:0:0:
163,226,48999,6,0,L|175:314,1,79.9999999999999,2|10,0:0|0:0,0:0:0:0:
262,306,49705,2,0,B|297:296|297:296|345:310,1,79.9999999999999,2|8,0:0|0:0,0:0:0:0:
424,331,50411,2,0,B|450:288|450:288|438:235|438:235|462:175,1,160,0|2,0:0|0:0,0:0:0:0:
437,97,51470,1,10,0:0:0:0:
373,157,51823,6,0,P|320:181|218:141,1,160,6|2,0:0|0:0,0:0:0:0:
176,78,52882,1,10,0:0:0:0:
102,30,53235,2,0,P|87:77|93:115,1,79.9999999999999,0|8,0:0|0:0,0:0:0:0:
142,176,53941,2,0,P|143:215|129:252,1,79.9999999999999,2|10,0:0|0:0,0:0:0:0:
65,312,54647,6,0,B|149:371|207:291|207:291|270:351,1,240,6|10,0:0|0:0,0:0:0:0:
348,338,56058,2,0,L|407:279,1,79.9999999999999,0|8,0:0|0:0,0:0:0:0:
329,234,56764,2,0,L|385:177,1,79.9999999999999,2|10,0:0|0:0,0:0:0:0:
467,211,57470,6,0,P|472:174|459:133,1,79.9999999999999,6|10,0:0|0:0,0:0:0:0:
384,86,58176,1,2,0:0:0:0:
308,130,58529,2,0,B|270:139|270:139|223:123,1,79.9999999999999,10|0,0:0|0:0,0:0:0:0:
157,77,59235,1,8,0:0:0:0:
147,164,59588,2,0,P|142:196|119:239,1,79.9999999999999,2|10,0:0|0:0,0:0:0:0:
72,312,60294,6,0,L|151:366,1,79.9999999999999,2|10,0:0|0:0,0:0:0:0:
224,338,60999,2,0,L|290:292,1,79.9999999999999,2|10,0:0|0:0,0:0:0:0:
371,326,61705,2,0,P|427:325|486:239,1,160,0|2,0:0|0:0,0:0:0:0:
397,240,62764,1,10,0:0:0:0:
312,263,63117,6,0,B|256:264|256:264|216:284|216:284|156:284,1,160,6|2,0:0|0:0,0:0:0:0:
71,262,64176,1,10,0:0:0:0:
38,180,64529,2,0,P|30:143|42:104,1,79.9999999999999,0|8,0:0|0:0,0:0:0:0:
120,143,65235,2,0,P|140:111|176:92,1,79.9999999999999,2|10,0:0|0:0,0:0:0:0:
201,176,65941,6,0,L|329:170,2,120,6|6|6,0:0|0:0|0:0,0:0:0:0:
45,258,67705,1,0,0:0:0:0:
120,303,68058,2,0,P|131:269|126:226,1,79.9999999999999,0|0,0:0|0:0,0:0:0:0:
73,154,68764,6,0,L|68:71,1,79.9999999999999,4|8,0:0|0:0,0:0:0:0:
145,32,69470,1,0,0:0:0:0:
203,97,69823,1,8,0:0:0:0:
282,58,70176,2,0,P|332:48|369:53,1,79.9999999999999,0|8,0:0|0:0,0:0:0:0:
441,86,70882,2,0,L|441:173,1,79.9999999999999,0|8,0:0|0:0,0:0:0:0:
389,237,71588,6,0,B|389:301|389:301|339:281|284:303,1,160,0|0,0:0|0:0,0:0:0:0:
206,298,72647,1,8,0:0:0:0:
118,291,72999,2,0,P|143:236|251:221,1,160,0|0,0:0|0:0,0:0:0:0:
306,163,74058,1,8,0:0:0:0:
376,215,74411,6,0,P|392:180|389:137,1,79.9999999999999,4|8,0:0|0:0,0:0:0:0:
348,61,75117,1,0,0:0:0:0:
262,42,75470,1,8,0:0:0:0:
208,111,75823,2,0,L|128:127,1,79.9999999999999,0|8,0:0|0:0,0:0:0:0:
42,114,76529,2,0,L|58:194,1,79.9999999999999,0|8,0:0|0:0,0:0:0:0:
20,272,77235,6,0,P|60:283|144:201,1,160,0|0,0:0|0:0,0:0:0:0:
179,132,78294,1,8,0:0:0:0:
229,203,78647,2,0,B|298:218|323:177|398:203,1,160,0|0,0:0|0:0,0:0:0:0:
469,169,79705,1,8,0:0:0:0:
455,255,80058,6,0,L|441:344,2,79.9999999999999,4|8|0,0:0|0:0|0:0,0:0:0:0:
469,169,81117,1,8,0:0:0:0:
407,105,81470,2,0,L|393:16,2,79.9999999999999,0|8|0,0:0|0:0|0:0,0:0:0:0:
384,190,82529,1,8,0:0:0:0:
321,128,82882,6,0,P|256:102|178:162,1,160,0|0,0:0|0:0,0:0:0:0:
114,92,83941,1,8,0:0:0:0:
103,179,84294,2,0,B|91:230|91:230|119:275|119:275|106:339,1,160,0|0,0:0|0:0,0:0:0:0:
256,192,85705,12,4,91352,1:0:0:0:
300,177,102647,6,0,P|251:207|145:189,2,160,4|2|0,1:0|0:0|0:0,0:0:0:0:
372,127,104411,1,0,0:0:0:0:
376,214,104764,2,0,L|381:302,1,79.9999999999999,0|0,0:0|0:0,0:0:0:0:
292,288,105470,6,0,P|253:275|204:287,1,79.9999999999999,0|2,0:0|0:0,0:0:0:0:
178,361,106176,2,0,P|134:310|151:219,1,160,2|0,0:0|0:0,0:0:0:0:
281,109,107588,1,2,0:0:0:0:
110,63,108294,6,0,B|44:49|44:49|53:92|28:147,2,160,4|2|0,0:0|0:0|0:0,0:0:0:0:
122,238,110411,2,0,P|100:261|49:276,1,79.9999999999999,0|2,0:0|0:0,0:0:0:0:
256,192,111117,12,0,112529,0:0:0:0:
481,288,113941,6,0,L|312:275,1,160,4|2,1:0|0:0,0:0:0:0:
256,216,114999,1,2,0:0:0:0:
190,275,115352,2,0,L|31:288,1,160,2|2,0:0|0:0,0:0:0:0:
44,112,116764,6,0,P|112:120|200:72,1,160,2|2,0:0|0:0,0:0:0:0:
256,20,117823,1,2,0:0:0:0:
319,80,118176,2,0,P|389:118|468:112,1,160,2|2,0:0|0:0,0:0:0:0:
412,279,119588,6,0,L|388:367,1,79.9999999999999,0|0,0:0|0:0,0:0:0:0:
320,303,120294,2,0,L|299:225,1,79.9999999999999,0|0,0:0|0:0,0:0:0:0:
212,225,120999,2,0,L|192:303,1,79.9999999999999,2|2,0:0|0:0,0:0:0:0:
121,356,121705,2,0,L|100:279,1,79.9999999999999,2|2,0:0|0:0,0:0:0:0:
36,220,122411,6,0,B|0:184|-8:128|8:100|44:88|44:88|104:124|132:132|160:120|204:100,1,320,2|4,0:0|0:0,0:0:0:0:
504,271,125235,6,0,L|421:246,1,79.9999999999999,6|10,0:0|0:0,0:0:0:0:
350,291,125941,2,0,P|337:248|351:205,1,79.9999999999999,2|10,0:0|0:0,0:0:0:0:
413,159,126647,1,0,0:0:0:0:
375,79,126999,1,8,0:0:0:0:
290,104,127352,2,0,L|200:109,1,79.9999999999999,2|10,0:0|0:0,0:0:0:0:
141,53,128058,6,0,L|51:58,1,79.9999999999999,2|10,0:0|0:0,0:0:0:0:
9,129,128764,2,0,P|0:164|10:225,1,79.9999999999999,2|10,0:0|0:0,0:0:0:0:
74,259,129470,2,0,B|154:255|154:255|200:245|191:181,1,160,0|2,0:0|0:0,0:0:0:0:
210,108,130529,1,10,0:0:0:0:
278,52,130882,6,0,P|296:87|294:137,1,79.9999999999999,6|10,0:0|0:0,0:0:0:0:
280,213,131588,1,2,0:0:0:0:
210,267,131941,2,0,L|216:346,1,79.9999999999999,10|0,0:0|0:0,0:0:0:0:
130,324,132647,2,0,L|124:245,2,79.9999999999999,8|2|10,0:0|0:0|0:0,0:0:0:0:
44,303,133705,6,0,B|40:232|40:232|42:202|60:177|105:159,1,160,6|2,0:0|0:0,0:0:0:0:
166,119,134764,1,10,0:0:0:0:
231,177,135117,2,0,P|269:189|308:179,1,79.9999999999999,0|8,0:0|0:0,0:0:0:0:
360,109,135823,1,2,0:0:0:0:
447,112,136176,1,10,0:0:0:0:
475,195,136529,6,0,L|473:281,1,79.9999999999999,6|10,0:0|0:0,0:0:0:0:
407,334,137235,1,2,0:0:0:0:
326,299,137588,2,0,P|288:283|247:284,1,79.9999999999999,10|0,0:0|0:0,0:0:0:0:
168,317,138294,2,0,P|131:332|91:332,2,79.9999999999999,8|2|10,0:0|0:0|0:0,0:0:0:0:
183,230,139352,6,0,B|163:149|163:149|119:159|79:123,1,160,2|2,0:0|0:0,0:0:0:0:
145,63,140411,1,8,0:0:0:0:
228,90,140764,2,0,B|272:83|272:83|336:99|336:99|397:86,1,160,0|2,0:0|0:0,0:0:0:0:
463,49,141823,1,10,0:0:0:0:
458,136,142176,6,0,L|451:219,1,79.9999999999999,6|10,0:0|0:0,0:0:0:0:
384,272,142882,1,2,0:0:0:0:
312,220,143235,2,0,B|276:196|276:196|232:196,1,79.9999999999999,10|0,0:0|0:0,0:0:0:0:
183,264,143941,2,0,P|162:241|151:192,1,79.9999999999999,8|2,0:0|0:0,0:0:0:0:
197,119,144647,1,10,0:0:0:0:
150,44,144999,6,0,B|110:69|108:122|108:122|22:121,2,160,0|0|0,0:0|0:0|0:0,0:0:0:0:
197,119,146764,1,0,0:0:0:0:
281,93,147117,2,0,L|369:83,1,79.9999999999999,0|8,0:0|0:0,0:0:0:0:
406,159,147823,6,0,B|341:168|341:168|364:204|351:273,1,160,4|0,0:0|0:0,0:0:0:0:
285,315,148882,1,8,0:0:0:0:
203,282,149235,2,0,P|162:271|115:277,1,79.9999999999999,0|8,0:0|0:0,0:0:0:0:
56,218,149941,2,0,P|86:187|104:144,1,79.9999999999999,0|8,0:0|0:0,0:0:0:0:
179,112,150647,6,0,P|189:153|218:190,1,79.9999999999999,0|8,0:0|0:0,0:0:0:0:
289,223,151352,1,0,0:0:0:0:
358,168,151705,1,8,0:0:0:0:
371,254,152058,2,0,L|384:337,1,79.9999999999999,0|8,0:0|0:0,0:0:0:0:
470,344,152764,2,0,L|457:264,1,79.9999999999999,0|8,0:0|0:0,0:0:0:0:
423,183,153470,6,0,B|418:136|477:101|477:101|423:62,1,160,4|0,0:0|0:0,0:0:0:0:
349,37,154529,1,8,0:0:0:0:
305,113,154882,2,0,P|264:116|216:110,1,79.9999999999999,0|8,0:0|0:0,0:0:0:0:
154,59,155588,2,0,P|114:54|74:58,1,79.9999999999999,0|8,0:0|0:0,0:0:0:0:
37,138,156294,6,0,P|76:142|116:138,1,79.9999999999999,0|8,0:0|0:0,0:0:0:0:
168,210,156999,1,0,0:0:0:0:
237,155,157352,1,8,0:0:0:0:
250,242,157705,2,0,L|258:326,1,79.9999999999999,0|8,0:0|0:0,0:0:0:0:
345,332,158411,2,0,P|356:301|405:281,1,79.9999999999999,0|8,0:0|0:0,0:0:0:0:
416,194,159117,6,0,P|451:178|467:142,2,79.9999999999999,4|8|0,0:0|0:0|0:0,0:0:0:0:
382,112,160176,1,8,0:0:0:0:
329,183,160529,2,0,P|290:187|251:179,2,79.9999999999999,0|8|0,0:0|0:0|0:0,0:0:0:0:
294,102,161588,1,8,0:0:0:0:
205,103,161941,6,0,P|171:145|192:246,1,160,0|0,0:0|0:0,0:0:0:0:
261,293,162999,1,8,0:0:0:0:
348,290,163352,2,0,L|436:275,1,79.9999999999999,0|8,0:0|0:0,0:0:0:0:
438,189,164058,2,0,L|359:202,1,79.9999999999999,0|8,0:0|0:0,0:0:0:0:
300,136,164764,1,4,0:0:0:0:
195,222,167588,6,0,P|241:229|314:181,2,120,4|0|0,0:0|0:0|0:0,0:0:0:0:
234,143,168999,2,0,L|229:60,1,79.9999999999999,0|0,0:0|0:0,0:0:0:0:
149,100,169705,2,0,P|113:118|68:113,1,79.9999999999999,0|0,0:0|0:0,0:0:0:0:
256,192,170411,12,0,173941,0:0:0:0:
