osu file format v14

[General]
AudioFilename: audio.mp3
AudioLeadIn: 0
PreviewTime: -1
Countdown: 0
SampleSet: Normal
StackLeniency: 0.7
Mode: 3
LetterboxInBreaks: 0
SpecialStyle: 0
WidescreenStoryboard: 0

[Editor]
Bookmarks: 45724,192547
DistanceSpacing: 1
BeatDivisor: 4
GridSize: 32
TimelineZoom: 1.2

[Metadata]
Title:Stay Young
TitleUnicode:Stay Young
Artist:Darren Styles, Dougal & Gammer
ArtistUnicode:Darren Styles, Dougal & Gammer
Creator:SitekX
Version:Insane
Source:
Tags:
BeatmapID:2056950
BeatmapSetID:982910

[Difficulty]
HPDrainRate:8
CircleSize:4
OverallDifficulty:8.5
ApproachRate:5
SliderMultiplier:1.4
SliderTickRate:1

[Events]
//Background and Video events
0,0,"maxresdefault.jpg",0,0
//Break Periods
//Storyboard Layer 0 (Background)
//Storyboard Layer 1 (Fail)
//Storyboard Layer 2 (Pass)
//Storyboard Layer 3 (Foreground)
//Storyboard Sound Samples

[TimingPoints]
548,352.941176470588,4,1,0,100,1,0

[HitObjects]
64,192,548,5,0,0:0:0:0:
320,192,548,1,0,0:0:0:0:
64,192,900,1,0,0:0:0:0:
448,192,900,1,0,0:0:0:0:
192,192,900,1,0,0:0:0:0:
192,192,1253,1,0,0:0:0:0:
448,192,1253,1,0,0:0:0:0:
64,192,1606,1,0,0:0:0:0:
448,192,1606,1,0,0:0:0:0:
320,192,1606,1,0,0:0:0:0:
64,192,1959,1,0,0:0:0:0:
448,192,1959,1,0,0:0:0:0:
64,192,2312,1,0,0:0:0:0:
192,192,2312,1,0,0:0:0:0:
320,192,2312,1,0,0:0:0:0:
192,192,2665,1,0,0:0:0:0:
320,192,2665,1,0,0:0:0:0:
64,192,3018,1,0,0:0:0:0:
320,192,3018,1,0,0:0:0:0:
448,192,3018,1,0,0:0:0:0:
192,192,3371,1,0,0:0:0:0:
448,192,3371,1,0,0:0:0:0:
320,192,3724,1,0,0:0:0:0:
448,192,3724,1,0,0:0:0:0:
192,192,3724,1,0,0:0:0:0:
64,192,4077,1,0,0:0:0:0:
320,192,4077,1,0,0:0:0:0:
64,192,4430,1,0,0:0:0:0:
192,192,4430,1,0,0:0:0:0:
448,192,4430,1,0,0:0:0:0:
192,192,4783,1,0,0:0:0:0:
320,192,4783,1,0,0:0:0:0:
64,192,5136,1,0,0:0:0:0:
320,192,5136,1,0,0:0:0:0:
448,192,5136,1,0,0:0:0:0:
192,192,5489,1,0,0:0:0:0:
448,192,5489,1,0,0:0:0:0:
64,192,5842,1,0,0:0:0:0:
448,192,5842,1,0,0:0:0:0:
320,192,5900,1,0,0:0:0:0:
192,192,5959,1,0,0:0:0:0:
64,192,6018,1,0,0:0:0:0:
448,192,6077,1,0,0:0:0:0:
320,192,6136,1,0,0:0:0:0:
64,192,6195,1,0,0:0:0:0:
192,192,6195,1,0,0:0:0:0:
64,192,6548,1,0,0:0:0:0:
320,192,6548,1,0,0:0:0:0:
448,192,6548,1,0,0:0:0:0:
192,192,6900,1,0,0:0:0:0:
448,192,6900,1,0,0:0:0:0:
64,192,7253,1,0,0:0:0:0:
320,192,7253,1,0,0:0:0:0:
192,192,7253,1,0,0:0:0:0:
64,192,7606,1,0,0:0:0:0:
448,192,7606,1,0,0:0:0:0:
192,192,7959,1,0,0:0:0:0:
320,192,7959,1,0,0:0:0:0:
448,192,7959,1,0,0:0:0:0:
192,192,8312,1,0,0:0:0:0:
320,192,8312,1,0,0:0:0:0:
64,192,8665,1,0,0:0:0:0:
448,192,8665,1,0,0:0:0:0:
192,192,8665,1,0,0:0:0:0:
320,192,9018,1,0,0:0:0:0:
448,192,9018,1,0,0:0:0:0:
64,192,9371,1,0,0:0:0:0:
192,192,9371,1,0,0:0:0:0:
448,192,9371,1,0,0:0:0:0:
64,192,9724,1,0,0:0:0:0:
448,192,9724,1,0,0:0:0:0:
192,192,10077,1,0,0:0:0:0:
320,192,10077,1,0,0:0:0:0:
448,192,10077,1,0,0:0:0:0:
192,192,10430,1,0,0:0:0:0:
64,192,10430,1,0,0:0:0:0:
64,192,10783,1,0,0:0:0:0:
320,192,10783,1,0,0:0:0:0:
448,192,10783,1,0,0:0:0:0:
192,192,11136,1,0,0:0:0:0:
448,192,11136,1,0,0:0:0:0:
64,192,11224,1,0,0:0:0:0:
320,192,11224,1,0,0:0:0:0:
192,192,11312,1,0,0:0:0:0:
448,192,11312,1,0,0:0:0:0:
320,192,11400,1,0,0:0:0:0:
64,192,11489,1,0,0:0:0:0:
192,192,11489,1,0,0:0:0:0:
320,192,11665,1,0,0:0:0:0:
448,192,11842,1,0,0:0:0:0:
192,192,11842,1,0,0:0:0:0:
192,192,12018,1,0,0:0:0:0:
448,192,12195,1,0,0:0:0:0:
64,192,12195,1,0,0:0:0:0:
320,192,12195,1,0,0:0:0:0:
448,192,12371,1,0,0:0:0:0:
320,192,12547,1,0,0:0:0:0:
64,192,12547,1,0,0:0:0:0:
64,192,12724,1,0,0:0:0:0:
448,192,12900,1,0,0:0:0:0:
192,192,12900,1,0,0:0:0:0:
320,192,12900,1,0,0:0:0:0:
448,192,13077,1,0,0:0:0:0:
64,192,13253,1,0,0:0:0:0:
192,192,13253,1,0,0:0:0:0:
192,192,13430,1,0,0:0:0:0:
448,192,13606,1,0,0:0:0:0:
320,192,13606,1,0,0:0:0:0:
64,192,13606,1,0,0:0:0:0:
320,192,13783,1,0,0:0:0:0:
192,192,13959,1,0,0:0:0:0:
448,192,13959,1,0,0:0:0:0:
192,192,14136,1,0,0:0:0:0:
448,192,14312,1,0,0:0:0:0:
64,192,14312,1,0,0:0:0:0:
320,192,14312,1,0,0:0:0:0:
448,192,14489,1,0,0:0:0:0:
320,192,14665,1,0,0:0:0:0:
64,192,14665,1,0,0:0:0:0:
64,192,14842,1,0,0:0:0:0:
192,192,15018,1,0,0:0:0:0:
320,192,15018,1,0,0:0:0:0:
448,192,15018,1,0,0:0:0:0:
320,192,15195,1,0,0:0:0:0:
192,192,15371,1,0,0:0:0:0:
64,192,15371,1,0,0:0:0:0:
192,192,15547,1,0,0:0:0:0:
448,192,15724,1,0,0:0:0:0:
320,192,15724,1,0,0:0:0:0:
64,192,15724,1,0,0:0:0:0:
448,192,15900,1,0,0:0:0:0:
320,192,16077,1,0,0:0:0:0:
192,192,16077,1,0,0:0:0:0:
192,192,16253,1,0,0:0:0:0:
448,192,16430,1,0,0:0:0:0:
64,192,16430,1,0,0:0:0:0:
320,192,16430,1,0,0:0:0:0:
320,192,16606,1,0,0:0:0:0:
64,192,16783,1,0,0:0:0:0:
448,192,16783,1,0,0:0:0:0:
64,192,16959,1,0,0:0:0:0:
192,192,17136,1,0,0:0:0:0:
448,192,17136,1,0,0:0:0:0:
320,192,17195,1,0,0:0:0:0:
64,192,17253,1,0,0:0:0:0:
192,192,17312,1,0,0:0:0:0:
448,192,17371,1,0,0:0:0:0:
320,192,17430,1,0,0:0:0:0:
64,192,17489,1,0,0:0:0:0:
192,192,17489,1,0,0:0:0:0:
64,192,17665,1,0,0:0:0:0:
448,192,17842,1,0,0:0:0:0:
320,192,17842,1,0,0:0:0:0:
192,192,17842,1,0,0:0:0:0:
192,192,18018,1,0,0:0:0:0:
64,192,18195,1,0,0:0:0:0:
320,192,18195,1,0,0:0:0:0:
320,192,18371,1,0,0:0:0:0:
448,192,18547,1,0,0:0:0:0:
192,192,18547,1,0,0:0:0:0:
64,192,18547,1,0,0:0:0:0:
448,192,18724,1,0,0:0:0:0:
64,192,18900,1,0,0:0:0:0:
320,192,18900,1,0,0:0:0:0:
64,192,19077,1,0,0:0:0:0:
320,192,19253,1,0,0:0:0:0:
192,192,19253,1,0,0:0:0:0:
448,192,19253,1,0,0:0:0:0:
192,192,19430,1,0,0:0:0:0:
320,192,19606,1,0,0:0:0:0:
448,192,19606,1,0,0:0:0:0:
320,192,19783,1,0,0:0:0:0:
448,192,19959,1,0,0:0:0:0:
64,192,19959,1,0,0:0:0:0:
192,192,19959,1,0,0:0:0:0:
448,192,20136,1,0,0:0:0:0:
64,192,20312,1,0,0:0:0:0:
64,192,20489,1,0,0:0:0:0:
192,192,20665,1,0,0:0:0:0:
192,192,20842,1,0,0:0:0:0:
320,192,21018,1,0,0:0:0:0:
320,192,21195,1,0,0:0:0:0:
448,192,21371,1,0,0:0:0:0:
448,192,21547,1,0,0:0:0:0:
64,192,21724,1,0,0:0:0:0:
192,192,21724,1,0,0:0:0:0:
320,192,21724,1,0,0:0:0:0:
448,192,22077,1,0,0:0:0:0:
192,192,22077,1,0,0:0:0:0:
320,192,22077,1,0,0:0:0:0:
192,192,22253,1,0,0:0:0:0:
64,192,22253,1,0,0:0:0:0:
320,192,22430,1,0,0:0:0:0:
64,192,22430,1,0,0:0:0:0:
448,192,22430,1,0,0:0:0:0:
320,192,22606,1,0,0:0:0:0:
192,192,22606,1,0,0:0:0:0:
448,192,22783,1,0,0:0:0:0:
320,192,22783,1,0,0:0:0:0:
64,192,22783,1,0,0:0:0:0:
64,192,23136,1,0,0:0:0:0:
192,192,23136,1,0,0:0:0:0:
320,192,23136,1,0,0:0:0:0:
448,192,23136,1,0,0:0:0:0:
192,192,23312,1,0,0:0:0:0:
320,192,23371,1,0,0:0:0:0:
64,192,23430,1,0,0:0:0:0:
192,192,23489,1,0,0:0:0:0:
448,192,23489,1,0,0:0:0:0:
448,192,23665,1,0,0:0:0:0:
320,192,23724,1,0,0:0:0:0:
64,192,23783,1,0,0:0:0:0:
192,192,23842,1,0,0:0:0:0:
320,192,23842,1,0,0:0:0:0:
320,192,24018,1,0,0:0:0:0:
64,192,24077,1,0,0:0:0:0:
448,192,24136,1,0,0:0:0:0:
192,192,24195,1,0,0:0:0:0:
320,192,24195,1,0,0:0:0:0:
64,192,24371,1,0,0:0:0:0:
320,192,24430,1,0,0:0:0:0:
448,192,24489,1,0,0:0:0:0:
64,192,24547,1,0,0:0:0:0:
192,192,24547,1,0,0:0:0:0:
320,192,24724,1,0,0:0:0:0:
192,192,24783,1,0,0:0:0:0:
448,192,24842,1,0,0:0:0:0:
320,192,24900,1,0,0:0:0:0:
64,192,24900,1,0,0:0:0:0:
64,192,25077,1,0,0:0:0:0:
192,192,25136,1,0,0:0:0:0:
448,192,25195,1,0,0:0:0:0:
320,192,25253,1,0,0:0:0:0:
192,192,25253,1,0,0:0:0:0:
192,192,25430,1,0,0:0:0:0:
448,192,25489,1,0,0:0:0:0:
64,192,25547,1,0,0:0:0:0:
320,192,25606,1,0,0:0:0:0:
192,192,25606,1,0,0:0:0:0:
448,192,25783,1,0,0:0:0:0:
320,192,25842,1,0,0:0:0:0:
64,192,25900,1,0,0:0:0:0:
448,192,25959,1,0,0:0:0:0:
192,192,25959,1,0,0:0:0:0:
192,192,26136,1,0,0:0:0:0:
64,192,26195,1,0,0:0:0:0:
448,192,26253,1,0,0:0:0:0:
320,192,26312,1,0,0:0:0:0:
192,192,26312,1,0,0:0:0:0:
64,192,26489,1,0,0:0:0:0:
192,192,26547,1,0,0:0:0:0:
320,192,26606,1,0,0:0:0:0:
64,192,26665,1,0,0:0:0:0:
448,192,26665,1,0,0:0:0:0:
320,192,26842,1,0,0:0:0:0:
192,192,26900,1,0,0:0:0:0:
448,192,26959,1,0,0:0:0:0:
320,192,27018,1,0,0:0:0:0:
64,192,27018,1,0,0:0:0:0:
64,192,27195,1,0,0:0:0:0:
320,192,27253,1,0,0:0:0:0:
448,192,27312,1,0,0:0:0:0:
64,192,27371,1,0,0:0:0:0:
192,192,27371,1,0,0:0:0:0:
320,192,27547,1,0,0:0:0:0:
64,192,27606,1,0,0:0:0:0:
448,192,27665,1,0,0:0:0:0:
192,192,27724,1,0,0:0:0:0:
320,192,27724,1,0,0:0:0:0:
64,192,27900,1,0,0:0:0:0:
192,192,27959,1,0,0:0:0:0:
448,192,28018,1,0,0:0:0:0:
320,192,28077,1,0,0:0:0:0:
64,192,28077,1,0,0:0:0:0:
320,192,28253,1,0,0:0:0:0:
192,192,28312,1,0,0:0:0:0:
448,192,28371,1,0,0:0:0:0:
64,192,28430,1,0,0:0:0:0:
192,192,28430,1,0,0:0:0:0:
320,192,28489,1,0,0:0:0:0:
192,192,28547,1,0,0:0:0:0:
64,192,28606,1,0,0:0:0:0:
448,192,28665,1,0,0:0:0:0:
320,192,28724,1,0,0:0:0:0:
192,192,28783,1,0,0:0:0:0:
64,192,28783,1,0,0:0:0:0:
448,192,28959,1,0,0:0:0:0:
64,192,29018,1,0,0:0:0:0:
320,192,29077,1,0,0:0:0:0:
192,192,29136,1,0,0:0:0:0:
64,192,29136,1,0,0:0:0:0:
64,192,29312,1,0,0:0:0:0:
192,192,29371,1,0,0:0:0:0:
320,192,29430,1,0,0:0:0:0:
448,192,29489,1,0,0:0:0:0:
64,192,29489,1,0,0:0:0:0:
192,192,29665,1,0,0:0:0:0:
448,192,29724,1,0,0:0:0:0:
64,192,29783,1,0,0:0:0:0:
320,192,29842,1,0,0:0:0:0:
192,192,29842,1,0,0:0:0:0:
448,192,30018,1,0,0:0:0:0:
320,192,30077,1,0,0:0:0:0:
64,192,30136,1,0,0:0:0:0:
448,192,30195,1,0,0:0:0:0:
192,192,30195,1,0,0:0:0:0:
64,192,30371,1,0,0:0:0:0:
320,192,30430,1,0,0:0:0:0:
192,192,30489,1,0,0:0:0:0:
64,192,30547,1,0,0:0:0:0:
448,192,30547,1,0,0:0:0:0:
448,192,30724,1,0,0:0:0:0:
64,192,30783,1,0,0:0:0:0:
320,192,30842,1,0,0:0:0:0:
192,192,30900,1,0,0:0:0:0:
448,192,30900,1,0,0:0:0:0:
320,192,31077,1,0,0:0:0:0:
64,192,31136,1,0,0:0:0:0:
448,192,31195,1,0,0:0:0:0:
192,192,31253,1,0,0:0:0:0:
320,192,31253,1,0,0:0:0:0:
64,192,31430,1,0,0:0:0:0:
192,192,31489,1,0,0:0:0:0:
448,192,31547,1,0,0:0:0:0:
64,192,31606,1,0,0:0:0:0:
320,192,31606,1,0,0:0:0:0:
320,192,31783,1,0,0:0:0:0:
448,192,31842,1,0,0:0:0:0:
64,192,31900,1,0,0:0:0:0:
192,192,31959,1,0,0:0:0:0:
320,192,31959,1,0,0:0:0:0:
448,192,32136,1,0,0:0:0:0:
192,192,32195,1,0,0:0:0:0:
320,192,32253,1,0,0:0:0:0:
448,192,32312,1,0,0:0:0:0:
64,192,32312,1,0,0:0:0:0:
320,192,32489,1,0,0:0:0:0:
192,192,32547,1,0,0:0:0:0:
64,192,32606,1,0,0:0:0:0:
320,192,32665,1,0,0:0:0:0:
448,192,32665,1,0,0:0:0:0:
320,192,32842,1,0,0:0:0:0:
64,192,32900,1,0,0:0:0:0:
448,192,32959,1,0,0:0:0:0:
64,192,33018,1,0,0:0:0:0:
192,192,33018,1,0,0:0:0:0:
320,192,33195,1,0,0:0:0:0:
448,192,33253,1,0,0:0:0:0:
64,192,33312,1,0,0:0:0:0:
320,192,33371,1,0,0:0:0:0:
192,192,33371,1,0,0:0:0:0:
448,192,33547,1,0,0:0:0:0:
192,192,33606,1,0,0:0:0:0:
64,192,33665,1,0,0:0:0:0:
320,192,33724,1,0,0:0:0:0:
448,192,33724,1,0,0:0:0:0:
192,192,33812,1,0,0:0:0:0:
64,192,33812,1,0,0:0:0:0:
448,192,33900,1,0,0:0:0:0:
64,192,33989,1,0,0:0:0:0:
320,192,33989,1,0,0:0:0:0:
448,192,34077,1,0,0:0:0:0:
192,192,34077,1,0,0:0:0:0:
64,192,34136,1,0,0:0:0:0:
320,192,34195,1,0,0:0:0:0:
192,192,34253,1,0,0:0:0:0:
448,192,34312,1,0,0:0:0:0:
320,192,34371,1,0,0:0:0:0:
64,192,34430,1,0,0:0:0:0:
192,192,34430,1,0,0:0:0:0:
192,192,34606,1,0,0:0:0:0:
448,192,34783,1,0,0:0:0:0:
64,192,34783,1,0,0:0:0:0:
320,192,34783,1,0,0:0:0:0:
448,192,34959,1,0,0:0:0:0:
320,192,35136,1,0,0:0:0:0:
64,192,35136,1,0,0:0:0:0:
192,192,35312,1,0,0:0:0:0:
320,192,35371,1,0,0:0:0:0:
64,192,35430,1,0,0:0:0:0:
448,192,35489,1,0,0:0:0:0:
320,192,35489,1,0,0:0:0:0:
192,192,35489,1,0,0:0:0:0:
448,192,35665,1,0,0:0:0:0:
64,192,35842,1,0,0:0:0:0:
192,192,35842,1,0,0:0:0:0:
192,192,36018,1,0,0:0:0:0:
448,192,36195,1,0,0:0:0:0:
320,192,36195,1,0,0:0:0:0:
64,192,36195,1,0,0:0:0:0:
320,192,36371,1,0,0:0:0:0:
192,192,36547,1,0,0:0:0:0:
448,192,36547,1,0,0:0:0:0:
192,192,36724,1,0,0:0:0:0:
448,192,36900,1,0,0:0:0:0:
64,192,36900,1,0,0:0:0:0:
320,192,36900,1,0,0:0:0:0:
448,192,37077,1,0,0:0:0:0:
320,192,37253,1,0,0:0:0:0:
64,192,37253,1,0,0:0:0:0:
64,192,37430,1,0,0:0:0:0:
192,192,37606,1,0,0:0:0:0:
320,192,37606,1,0,0:0:0:0:
448,192,37606,1,0,0:0:0:0:
320,192,37783,1,0,0:0:0:0:
192,192,37959,1,0,0:0:0:0:
64,192,37959,1,0,0:0:0:0:
192,192,38136,1,0,0:0:0:0:
448,192,38312,1,0,0:0:0:0:
320,192,38312,1,0,0:0:0:0:
64,192,38312,1,0,0:0:0:0:
448,192,38489,1,0,0:0:0:0:
320,192,38665,1,0,0:0:0:0:
192,192,38665,1,0,0:0:0:0:
192,192,38842,1,0,0:0:0:0:
448,192,39018,1,0,0:0:0:0:
64,192,39018,1,0,0:0:0:0:
320,192,39018,1,0,0:0:0:0:
320,192,39195,1,0,0:0:0:0:
64,192,39371,1,0,0:0:0:0:
448,192,39371,1,0,0:0:0:0:
64,192,39547,1,0,0:0:0:0:
192,192,39724,1,0,0:0:0:0:
448,192,39724,1,0,0:0:0:0:
320,192,39783,1,0,0:0:0:0:
64,192,39842,1,0,0:0:0:0:
192,192,39900,1,0,0:0:0:0:
448,192,39959,1,0,0:0:0:0:
320,192,40018,1,0,0:0:0:0:
64,192,40077,1,0,0:0:0:0:
192,192,40077,1,0,0:0:0:0:
64,192,40253,1,0,0:0:0:0:
448,192,40430,1,0,0:0:0:0:
320,192,40430,1,0,0:0:0:0:
192,192,40430,1,0,0:0:0:0:
192,192,40606,1,0,0:0:0:0:
64,192,40783,1,0,0:0:0:0:
320,192,40783,1,0,0:0:0:0:
320,192,40959,1,0,0:0:0:0:
64,192,41018,1,0,0:0:0:0:
192,192,41077,1,0,0:0:0:0:
448,192,41136,1,0,0:0:0:0:
320,192,41136,1,0,0:0:0:0:
64,192,41136,1,0,0:0:0:0:
448,192,41312,1,0,0:0:0:0:
64,192,41489,1,0,0:0:0:0:
320,192,41489,1,0,0:0:0:0:
64,192,41665,1,0,0:0:0:0:
320,192,41842,1,0,0:0:0:0:
192,192,41842,1,0,0:0:0:0:
448,192,41842,1,0,0:0:0:0:
192,192,42018,1,0,0:0:0:0:
320,192,42195,1,0,0:0:0:0:
448,192,42195,1,0,0:0:0:0:
320,192,42371,1,0,0:0:0:0:
448,192,42547,1,0,0:0:0:0:
64,192,42547,1,0,0:0:0:0:
192,192,42547,1,0,0:0:0:0:
448,192,42724,1,0,0:0:0:0:
64,192,42900,1,0,0:0:0:0:
64,192,43077,1,0,0:0:0:0:
192,192,43253,1,0,0:0:0:0:
192,192,43430,1,0,0:0:0:0:
320,192,43606,1,0,0:0:0:0:
320,192,43783,1,0,0:0:0:0:
448,192,43959,1,0,0:0:0:0:
448,192,44136,1,0,0:0:0:0:
64,192,44312,1,0,0:0:0:0:
320,192,44312,1,0,0:0:0:0:
192,192,44312,1,0,0:0:0:0:
320,192,44665,1,0,0:0:0:0:
448,192,44665,1,0,0:0:0:0:
64,192,44665,1,0,0:0:0:0:
192,192,44842,1,0,0:0:0:0:
320,192,44842,1,0,0:0:0:0:
448,192,45018,1,0,0:0:0:0:
192,192,45018,1,0,0:0:0:0:
64,192,45018,1,0,0:0:0:0:
448,192,45195,1,0,0:0:0:0:
64,192,45195,1,0,0:0:0:0:
192,192,45371,1,0,0:0:0:0:
64,192,45371,1,0,0:0:0:0:
320,192,45371,1,0,0:0:0:0:
192,192,45724,1,0,0:0:0:0:
320,192,45724,1,0,0:0:0:0:
64,192,47136,1,0,0:0:0:0:
320,192,47136,1,0,0:0:0:0:
192,192,47665,1,0,0:0:0:0:
448,192,47665,1,0,0:0:0:0:
448,192,48547,1,0,0:0:0:0:
64,192,48547,1,0,0:0:0:0:
192,192,49959,1,0,0:0:0:0:
320,192,49959,1,0,0:0:0:0:
192,192,50489,1,0,0:0:0:0:
448,192,50489,1,0,0:0:0:0:
320,192,51371,1,0,0:0:0:0:
448,192,51371,1,0,0:0:0:0:
64,192,52783,1,0,0:0:0:0:
192,192,52783,1,0,0:0:0:0:
192,192,53312,1,0,0:0:0:0:
320,192,53312,1,0,0:0:0:0:
192,192,54195,1,0,0:0:0:0:
448,192,54195,1,0,0:0:0:0:
64,192,55606,1,0,0:0:0:0:
320,192,55606,1,0,0:0:0:0:
192,192,56136,1,0,0:0:0:0:
320,192,56136,1,0,0:0:0:0:
192,192,57018,1,0,0:0:0:0:
320,192,57018,1,0,0:0:0:0:
64,192,57195,1,0,0:0:0:0:
448,192,57371,1,0,0:0:0:0:
192,192,57547,1,0,0:0:0:0:
320,192,57724,1,0,0:0:0:0:
64,192,57900,1,0,0:0:0:0:
192,192,58077,1,0,0:0:0:0:
448,192,58253,1,0,0:0:0:0:
64,192,58430,1,0,0:0:0:0:
320,192,58430,1,0,0:0:0:0:
192,192,58606,1,0,0:0:0:0:
320,192,58783,1,0,0:0:0:0:
192,192,58959,1,0,0:0:0:0:
448,192,58959,1,0,0:0:0:0:
320,192,59136,1,0,0:0:0:0:
192,192,59312,1,0,0:0:0:0:
64,192,59489,1,0,0:0:0:0:
320,192,59665,1,0,0:0:0:0:
448,192,59842,1,0,0:0:0:0:
64,192,59842,1,0,0:0:0:0:
192,192,60018,1,0,0:0:0:0:
64,192,60195,1,0,0:0:0:0:
320,192,60371,1,0,0:0:0:0:
448,192,60547,1,0,0:0:0:0:
192,192,60724,1,0,0:0:0:0:
64,192,60900,1,0,0:0:0:0:
448,192,61077,1,0,0:0:0:0:
192,192,61253,1,0,0:0:0:0:
320,192,61253,1,0,0:0:0:0:
64,192,61430,1,0,0:0:0:0:
320,192,61606,1,0,0:0:0:0:
192,192,61783,1,0,0:0:0:0:
448,192,61783,1,0,0:0:0:0:
320,192,61959,1,0,0:0:0:0:
64,192,62136,1,0,0:0:0:0:
448,192,62312,1,0,0:0:0:0:
192,192,62489,1,0,0:0:0:0:
320,192,62665,1,0,0:0:0:0:
448,192,62665,1,0,0:0:0:0:
64,192,62842,1,0,0:0:0:0:
192,192,63018,1,0,0:0:0:0:
320,192,63195,1,0,0:0:0:0:
448,192,63371,1,0,0:0:0:0:
64,192,63547,1,0,0:0:0:0:
320,192,63724,1,0,0:0:0:0:
448,192,63900,1,0,0:0:0:0:
64,192,64077,1,0,0:0:0:0:
192,192,64077,1,0,0:0:0:0:
448,192,64253,1,0,0:0:0:0:
64,192,64430,1,0,0:0:0:0:
192,192,64606,1,0,0:0:0:0:
320,192,64606,1,0,0:0:0:0:
448,192,64783,1,0,0:0:0:0:
64,192,64959,1,0,0:0:0:0:
192,192,65136,1,0,0:0:0:0:
320,192,65312,1,0,0:0:0:0:
192,192,65489,1,0,0:0:0:0:
448,192,65489,1,0,0:0:0:0:
64,192,65665,1,0,0:0:0:0:
320,192,65842,1,0,0:0:0:0:
192,192,66018,1,0,0:0:0:0:
448,192,66195,1,0,0:0:0:0:
320,192,66371,1,0,0:0:0:0:
64,192,66547,1,0,0:0:0:0:
448,192,66724,1,0,0:0:0:0:
64,192,66900,1,0,0:0:0:0:
320,192,66900,1,0,0:0:0:0:
192,192,67077,1,0,0:0:0:0:
64,192,67253,1,0,0:0:0:0:
192,192,67430,1,0,0:0:0:0:
320,192,67430,1,0,0:0:0:0:
448,192,67606,1,0,0:0:0:0:
64,192,67783,1,0,0:0:0:0:
192,192,67959,1,0,0:0:0:0:
448,192,68136,1,0,0:0:0:0:
320,192,68312,1,0,0:0:0:0:
192,192,68312,1,0,0:0:0:0:
448,192,68489,1,0,0:0:0:0:
64,192,68665,1,0,0:0:0:0:
320,192,68842,1,0,0:0:0:0:
192,192,69018,1,0,0:0:0:0:
448,192,69195,1,0,0:0:0:0:
320,192,69371,1,0,0:0:0:0:
64,192,69547,1,0,0:0:0:0:
448,192,69724,1,0,0:0:0:0:
192,192,69724,1,0,0:0:0:0:
320,192,69900,1,0,0:0:0:0:
192,192,70077,1,0,0:0:0:0:
320,192,70253,1,0,0:0:0:0:
64,192,70253,1,0,0:0:0:0:
192,192,70430,1,0,0:0:0:0:
320,192,70606,1,0,0:0:0:0:
448,192,70783,1,0,0:0:0:0:
192,192,70959,1,0,0:0:0:0:
64,192,71136,1,0,0:0:0:0:
448,192,71136,1,0,0:0:0:0:
320,192,71312,1,0,0:0:0:0:
448,192,71489,1,0,0:0:0:0:
192,192,71665,1,0,0:0:0:0:
64,192,71842,1,0,0:0:0:0:
320,192,72018,1,0,0:0:0:0:
448,192,72195,1,0,0:0:0:0:
64,192,72371,1,0,0:0:0:0:
320,192,72547,1,0,0:0:0:0:
192,192,72547,1,0,0:0:0:0:
448,192,72724,1,0,0:0:0:0:
192,192,72900,1,0,0:0:0:0:
320,192,73077,1,0,0:0:0:0:
64,192,73077,1,0,0:0:0:0:
192,192,73253,1,0,0:0:0:0:
448,192,73430,1,0,0:0:0:0:
64,192,73606,1,0,0:0:0:0:
320,192,73783,1,0,0:0:0:0:
192,192,73959,1,0,0:0:0:0:
64,192,73959,1,0,0:0:0:0:
448,192,74136,1,0,0:0:0:0:
320,192,74312,1,0,0:0:0:0:
192,192,74489,1,0,0:0:0:0:
64,192,74665,1,0,0:0:0:0:
448,192,74842,1,0,0:0:0:0:
192,192,75018,1,0,0:0:0:0:
64,192,75195,1,0,0:0:0:0:
448,192,75371,1,0,0:0:0:0:
320,192,75371,1,0,0:0:0:0:
64,192,75547,1,0,0:0:0:0:
448,192,75724,1,0,0:0:0:0:
320,192,75900,1,0,0:0:0:0:
192,192,75900,1,0,0:0:0:0:
64,192,76077,1,0,0:0:0:0:
448,192,76253,1,0,0:0:0:0:
320,192,76430,1,0,0:0:0:0:
192,192,76606,1,0,0:0:0:0:
320,192,76783,1,0,0:0:0:0:
64,192,76783,1,0,0:0:0:0:
448,192,76959,1,0,0:0:0:0:
192,192,77136,1,0,0:0:0:0:
320,192,77312,1,0,0:0:0:0:
64,192,77489,1,0,0:0:0:0:
192,192,77665,1,0,0:0:0:0:
448,192,77842,1,0,0:0:0:0:
64,192,78018,1,0,0:0:0:0:
448,192,78195,1,0,0:0:0:0:
192,192,78195,1,0,0:0:0:0:
320,192,78371,1,0,0:0:0:0:
448,192,78547,1,0,0:0:0:0:
320,192,78724,1,0,0:0:0:0:
192,192,78724,1,0,0:0:0:0:
64,192,78900,1,0,0:0:0:0:
448,192,79077,1,0,0:0:0:0:
320,192,79253,1,0,0:0:0:0:
64,192,79430,1,0,0:0:0:0:
192,192,79606,1,0,0:0:0:0:
448,192,79606,1,0,0:0:0:0:
192,192,79959,1,0,0:0:0:0:
448,192,79959,1,0,0:0:0:0:
64,192,80312,1,0,0:0:0:0:
320,192,80312,1,0,0:0:0:0:
192,192,80489,1,0,0:0:0:0:
64,192,80577,1,0,0:0:0:0:
448,192,80577,1,0,0:0:0:0:
64,192,80842,1,0,0:0:0:0:
448,192,80842,1,0,0:0:0:0:
192,192,81018,1,0,0:0:0:0:
448,192,81018,1,0,0:0:0:0:
192,192,81195,1,0,0:0:0:0:
448,192,81195,1,0,0:0:0:0:
64,192,81371,1,0,0:0:0:0:
320,192,81371,1,0,0:0:0:0:
192,192,81459,1,0,0:0:0:0:
448,192,81459,1,0,0:0:0:0:
64,192,81724,1,0,0:0:0:0:
192,192,81724,1,0,0:0:0:0:
320,192,81989,1,0,0:0:0:0:
64,192,81989,1,0,0:0:0:0:
64,192,82253,1,0,0:0:0:0:
320,192,82253,1,0,0:0:0:0:
192,192,82430,1,0,0:0:0:0:
448,192,82430,1,0,0:0:0:0:
192,192,82783,1,0,0:0:0:0:
448,192,82783,1,0,0:0:0:0:
64,192,83136,1,0,0:0:0:0:
320,192,83136,1,0,0:0:0:0:
320,192,83312,1,0,0:0:0:0:
64,192,83400,1,0,0:0:0:0:
448,192,83400,1,0,0:0:0:0:
64,192,83665,1,0,0:0:0:0:
448,192,83665,1,0,0:0:0:0:
320,192,83842,1,0,0:0:0:0:
448,192,83842,1,0,0:0:0:0:
192,192,84018,1,0,0:0:0:0:
320,192,84018,1,0,0:0:0:0:
64,192,84195,1,0,0:0:0:0:
320,192,84195,1,0,0:0:0:0:
192,192,84283,1,0,0:0:0:0:
448,192,84283,1,0,0:0:0:0:
64,192,84547,1,0,0:0:0:0:
320,192,84547,1,0,0:0:0:0:
64,192,84812,1,0,0:0:0:0:
192,192,84812,1,0,0:0:0:0:
192,192,85077,1,0,0:0:0:0:
64,192,85077,1,0,0:0:0:0:
192,192,85253,1,0,0:0:0:0:
448,192,85253,1,0,0:0:0:0:
192,192,85606,1,0,0:0:0:0:
448,192,85606,1,0,0:0:0:0:
64,192,85959,1,0,0:0:0:0:
320,192,85959,1,0,0:0:0:0:
192,192,86136,1,0,0:0:0:0:
64,192,86224,1,0,0:0:0:0:
448,192,86224,1,0,0:0:0:0:
64,192,86489,1,0,0:0:0:0:
448,192,86489,1,0,0:0:0:0:
192,192,86665,1,0,0:0:0:0:
448,192,86665,1,0,0:0:0:0:
192,192,86842,1,0,0:0:0:0:
448,192,86842,1,0,0:0:0:0:
64,192,87018,1,0,0:0:0:0:
320,192,87018,1,0,0:0:0:0:
192,192,87106,1,0,0:0:0:0:
448,192,87106,1,0,0:0:0:0:
64,192,87371,1,0,0:0:0:0:
192,192,87371,1,0,0:0:0:0:
320,192,87636,1,0,0:0:0:0:
64,192,87636,1,0,0:0:0:0:
64,192,87900,1,0,0:0:0:0:
320,192,87900,1,0,0:0:0:0:
192,192,88077,1,0,0:0:0:0:
448,192,88077,1,0,0:0:0:0:
192,192,88430,1,0,0:0:0:0:
448,192,88430,1,0,0:0:0:0:
64,192,88783,1,0,0:0:0:0:
320,192,88783,1,0,0:0:0:0:
320,192,88959,1,0,0:0:0:0:
64,192,89047,1,0,0:0:0:0:
448,192,89047,1,0,0:0:0:0:
64,192,89312,1,0,0:0:0:0:
448,192,89312,1,0,0:0:0:0:
320,192,89489,1,0,0:0:0:0:
448,192,89489,1,0,0:0:0:0:
192,192,89665,1,0,0:0:0:0:
320,192,89665,1,0,0:0:0:0:
192,192,89842,1,0,0:0:0:0:
448,192,89842,1,0,0:0:0:0:
64,192,89930,1,0,0:0:0:0:
320,192,89930,1,0,0:0:0:0:
64,192,90195,1,0,0:0:0:0:
448,192,90195,1,0,0:0:0:0:
64,192,90459,1,0,0:0:0:0:
320,192,90459,1,0,0:0:0:0:
192,192,90724,1,0,0:0:0:0:
64,192,90724,1,0,0:0:0:0:
448,192,90900,1,0,0:0:0:0:
192,192,90900,1,0,0:0:0:0:
320,192,90900,1,0,0:0:0:0:
448,192,91253,1,0,0:0:0:0:
192,192,91253,1,0,0:0:0:0:
64,192,91253,1,0,0:0:0:0:
320,192,91606,1,0,0:0:0:0:
64,192,91606,1,0,0:0:0:0:
448,192,91606,1,0,0:0:0:0:
192,192,91783,1,0,0:0:0:0:
448,192,91871,1,0,0:0:0:0:
64,192,91871,1,0,0:0:0:0:
320,192,91959,1,0,0:0:0:0:
192,192,91959,1,0,0:0:0:0:
448,192,92136,1,0,0:0:0:0:
64,192,92136,1,0,0:0:0:0:
448,192,92312,1,0,0:0:0:0:
192,192,92312,1,0,0:0:0:0:
320,192,92312,1,0,0:0:0:0:
448,192,92489,1,0,0:0:0:0:
192,192,92489,1,0,0:0:0:0:
320,192,92665,1,0,0:0:0:0:
64,192,92665,1,0,0:0:0:0:
192,192,92665,1,0,0:0:0:0:
448,192,92753,1,0,0:0:0:0:
192,192,93018,1,0,0:0:0:0:
64,192,93018,1,0,0:0:0:0:
448,192,93018,1,0,0:0:0:0:
64,192,93283,1,0,0:0:0:0:
320,192,93283,1,0,0:0:0:0:
192,192,93371,1,0,0:0:0:0:
448,192,93371,1,0,0:0:0:0:
320,192,93547,1,0,0:0:0:0:
64,192,93547,1,0,0:0:0:0:
448,192,93724,1,0,0:0:0:0:
192,192,93724,1,0,0:0:0:0:
64,192,93724,1,0,0:0:0:0:
448,192,94077,1,0,0:0:0:0:
192,192,94077,1,0,0:0:0:0:
64,192,94077,1,0,0:0:0:0:
320,192,94430,1,0,0:0:0:0:
64,192,94430,1,0,0:0:0:0:
448,192,94430,1,0,0:0:0:0:
320,192,94606,1,0,0:0:0:0:
448,192,94695,1,0,0:0:0:0:
64,192,94695,1,0,0:0:0:0:
192,192,94783,1,0,0:0:0:0:
320,192,94783,1,0,0:0:0:0:
448,192,94959,1,0,0:0:0:0:
64,192,94959,1,0,0:0:0:0:
448,192,95136,1,0,0:0:0:0:
320,192,95136,1,0,0:0:0:0:
64,192,95136,1,0,0:0:0:0:
320,192,95312,1,0,0:0:0:0:
192,192,95312,1,0,0:0:0:0:
64,192,95489,1,0,0:0:0:0:
320,192,95489,1,0,0:0:0:0:
448,192,95489,1,0,0:0:0:0:
192,192,95577,1,0,0:0:0:0:
320,192,95842,1,0,0:0:0:0:
64,192,95842,1,0,0:0:0:0:
448,192,95842,1,0,0:0:0:0:
192,192,96106,1,0,0:0:0:0:
64,192,96106,1,0,0:0:0:0:
320,192,96195,1,0,0:0:0:0:
448,192,96195,1,0,0:0:0:0:
64,192,96371,1,0,0:0:0:0:
192,192,96371,1,0,0:0:0:0:
448,192,96547,1,0,0:0:0:0:
192,192,96547,1,0,0:0:0:0:
320,192,96547,1,0,0:0:0:0:
448,192,96900,1,0,0:0:0:0:
192,192,96900,1,0,0:0:0:0:
64,192,96900,1,0,0:0:0:0:
320,192,97253,1,0,0:0:0:0:
64,192,97253,1,0,0:0:0:0:
448,192,97253,1,0,0:0:0:0:
192,192,97430,1,0,0:0:0:0:
448,192,97518,1,0,0:0:0:0:
64,192,97518,1,0,0:0:0:0:
320,192,97606,1,0,0:0:0:0:
192,192,97606,1,0,0:0:0:0:
448,192,97783,1,0,0:0:0:0:
64,192,97783,1,0,0:0:0:0:
448,192,97959,1,0,0:0:0:0:
192,192,97959,1,0,0:0:0:0:
320,192,97959,1,0,0:0:0:0:
448,192,98136,1,0,0:0:0:0:
192,192,98136,1,0,0:0:0:0:
320,192,98312,1,0,0:0:0:0:
64,192,98312,1,0,0:0:0:0:
192,192,98312,1,0,0:0:0:0:
448,192,98400,1,0,0:0:0:0:
192,192,98665,1,0,0:0:0:0:
64,192,98665,1,0,0:0:0:0:
448,192,98665,1,0,0:0:0:0:
64,192,98930,1,0,0:0:0:0:
192,192,99018,1,0,0:0:0:0:
448,192,99018,1,0,0:0:0:0:
320,192,99018,1,0,0:0:0:0:
64,192,99195,1,0,0:0:0:0:
448,192,99371,1,0,0:0:0:0:
192,192,99371,1,0,0:0:0:0:
448,192,99724,1,0,0:0:0:0:
192,192,99724,1,0,0:0:0:0:
320,192,100077,1,0,0:0:0:0:
64,192,100077,1,0,0:0:0:0:
448,192,100253,1,0,0:0:0:0:
64,192,100342,1,0,0:0:0:0:
192,192,100430,1,0,0:0:0:0:
320,192,100430,1,0,0:0:0:0:
192,192,100606,1,0,0:0:0:0:
448,192,100783,1,0,0:0:0:0:
320,192,100783,1,0,0:0:0:0:
192,192,100959,1,0,0:0:0:0:
448,192,101136,1,0,0:0:0:0:
320,192,101136,1,0,0:0:0:0:
64,192,101224,1,0,0:0:0:0:
64,192,101489,1,0,0:0:0:0:
448,192,101489,1,0,0:0:0:0:
192,192,101753,1,0,0:0:0:0:
320,192,101842,1,0,0:0:0:0:
448,192,101842,1,0,0:0:0:0:
192,192,102018,1,0,0:0:0:0:
64,192,102195,1,0,0:0:0:0:
320,192,102195,1,0,0:0:0:0:
320,192,102371,1,0,0:0:0:0:
64,192,102371,1,0,0:0:0:0:
64,192,102547,1,0,0:0:0:0:
448,192,102547,1,0,0:0:0:0:
448,192,102724,1,0,0:0:0:0:
64,192,102724,1,0,0:0:0:0:
448,192,102900,1,0,0:0:0:0:
320,192,102900,1,0,0:0:0:0:
320,192,103077,1,0,0:0:0:0:
448,192,103077,1,0,0:0:0:0:
192,192,103253,1,0,0:0:0:0:
320,192,103253,1,0,0:0:0:0:
192,192,103430,1,0,0:0:0:0:
320,192,103430,1,0,0:0:0:0:
192,192,103606,1,0,0:0:0:0:
448,192,103606,1,0,0:0:0:0:
192,192,103783,1,0,0:0:0:0:
448,192,103783,1,0,0:0:0:0:
448,192,103959,1,0,0:0:0:0:
64,192,103959,1,0,0:0:0:0:
64,192,104136,1,0,0:0:0:0:
448,192,104136,1,0,0:0:0:0:
192,192,104312,1,0,0:0:0:0:
64,192,104312,1,0,0:0:0:0:
192,192,104489,1,0,0:0:0:0:
64,192,104489,1,0,0:0:0:0:
448,192,104665,1,0,0:0:0:0:
192,192,104665,1,0,0:0:0:0:
448,192,104842,1,0,0:0:0:0:
192,192,104842,1,0,0:0:0:0:
64,192,105018,1,0,0:0:0:0:
448,192,105018,1,0,0:0:0:0:
64,192,105195,1,0,0:0:0:0:
448,192,105195,1,0,0:0:0:0:
320,192,105371,1,0,0:0:0:0:
64,192,105371,1,0,0:0:0:0:
320,192,105547,1,0,0:0:0:0:
64,192,105547,1,0,0:0:0:0:
192,192,105724,1,0,0:0:0:0:
320,192,105724,1,0,0:0:0:0:
192,192,105900,1,0,0:0:0:0:
320,192,105900,1,0,0:0:0:0:
448,192,106077,1,0,0:0:0:0:
192,192,106077,1,0,0:0:0:0:
448,192,106253,1,0,0:0:0:0:
192,192,106253,1,0,0:0:0:0:
320,192,106430,1,0,0:0:0:0:
448,192,106430,1,0,0:0:0:0:
320,192,106606,1,0,0:0:0:0:
448,192,106606,1,0,0:0:0:0:
64,192,106783,1,0,0:0:0:0:
320,192,106783,1,0,0:0:0:0:
320,192,106959,1,0,0:0:0:0:
64,192,106959,1,0,0:0:0:0:
64,192,107136,1,0,0:0:0:0:
448,192,107136,1,0,0:0:0:0:
64,192,107312,1,0,0:0:0:0:
448,192,107312,1,0,0:0:0:0:
192,192,107489,1,0,0:0:0:0:
448,192,107489,1,0,0:0:0:0:
192,192,107665,1,0,0:0:0:0:
448,192,107665,1,0,0:0:0:0:
64,192,107842,1,0,0:0:0:0:
192,192,107842,1,0,0:0:0:0:
320,192,107930,1,0,0:0:0:0:
448,192,107930,1,0,0:0:0:0:
64,192,108018,1,0,0:0:0:0:
192,192,108018,1,0,0:0:0:0:
448,192,108195,1,0,0:0:0:0:
64,192,108195,1,0,0:0:0:0:
64,192,108371,1,0,0:0:0:0:
448,192,108371,1,0,0:0:0:0:
192,192,108547,1,0,0:0:0:0:
448,192,108547,1,0,0:0:0:0:
320,192,108636,1,0,0:0:0:0:
64,192,108636,1,0,0:0:0:0:
192,192,108724,1,0,0:0:0:0:
448,192,108724,1,0,0:0:0:0:
192,192,108900,1,0,0:0:0:0:
320,192,108900,1,0,0:0:0:0:
192,192,109077,1,0,0:0:0:0:
320,192,109077,1,0,0:0:0:0:
64,192,109253,1,0,0:0:0:0:
320,192,109253,1,0,0:0:0:0:
192,192,109342,1,0,0:0:0:0:
448,192,109342,1,0,0:0:0:0:
320,192,109430,1,0,0:0:0:0:
64,192,109430,1,0,0:0:0:0:
64,192,109606,1,0,0:0:0:0:
192,192,109606,1,0,0:0:0:0:
64,192,109783,1,0,0:0:0:0:
192,192,109783,1,0,0:0:0:0:
192,192,109959,1,0,0:0:0:0:
320,192,109959,1,0,0:0:0:0:
448,192,110047,1,0,0:0:0:0:
64,192,110047,1,0,0:0:0:0:
320,192,110136,1,0,0:0:0:0:
192,192,110136,1,0,0:0:0:0:
320,192,110312,1,0,0:0:0:0:
448,192,110312,1,0,0:0:0:0:
320,192,110489,1,0,0:0:0:0:
448,192,110489,1,0,0:0:0:0:
448,192,110665,1,0,0:0:0:0:
64,192,110665,1,0,0:0:0:0:
192,192,110753,1,0,0:0:0:0:
320,192,110753,1,0,0:0:0:0:
64,192,110842,1,0,0:0:0:0:
448,192,110842,1,0,0:0:0:0:
192,192,110930,1,0,0:0:0:0:
320,192,111018,1,0,0:0:0:0:
448,192,111018,1,0,0:0:0:0:
192,192,111106,1,0,0:0:0:0:
64,192,111106,1,0,0:0:0:0:
320,192,111195,1,0,0:0:0:0:
448,192,111195,1,0,0:0:0:0:
64,192,111283,1,0,0:0:0:0:
192,192,111371,1,0,0:0:0:0:
448,192,111371,1,0,0:0:0:0:
320,192,111459,1,0,0:0:0:0:
64,192,111459,1,0,0:0:0:0:
192,192,111547,1,0,0:0:0:0:
448,192,111547,1,0,0:0:0:0:
320,192,111636,1,0,0:0:0:0:
192,192,111724,1,0,0:0:0:0:
64,192,111724,1,0,0:0:0:0:
320,192,111812,1,0,0:0:0:0:
448,192,111812,1,0,0:0:0:0:
192,192,111900,1,0,0:0:0:0:
64,192,111900,1,0,0:0:0:0:
448,192,111989,1,0,0:0:0:0:
64,192,112077,1,0,0:0:0:0:
320,192,112077,1,0,0:0:0:0:
192,192,112077,1,0,0:0:0:0:
320,192,112430,1,0,0:0:0:0:
448,192,112430,1,0,0:0:0:0:
192,192,112430,1,0,0:0:0:0:
192,192,112606,1,0,0:0:0:0:
64,192,112606,1,0,0:0:0:0:
448,192,112783,1,0,0:0:0:0:
320,192,112783,1,0,0:0:0:0:
64,192,112783,1,0,0:0:0:0:
320,192,112959,1,0,0:0:0:0:
192,192,112959,1,0,0:0:0:0:
448,192,113136,1,0,0:0:0:0:
64,192,113136,1,0,0:0:0:0:
320,192,113136,1,0,0:0:0:0:
192,192,113489,1,0,0:0:0:0:
320,192,113489,1,0,0:0:0:0:
448,192,113547,1,0,0:0:0:0:
64,192,113606,1,0,0:0:0:0:
320,192,113665,1,0,0:0:0:0:
192,192,113724,1,0,0:0:0:0:
64,192,113783,1,0,0:0:0:0:
320,192,113842,1,0,0:0:0:0:
448,192,113842,1,0,0:0:0:0:
192,192,113900,1,0,0:0:0:0:
64,192,113959,1,0,0:0:0:0:
320,192,114018,1,0,0:0:0:0:
448,192,114077,1,0,0:0:0:0:
64,192,114136,1,0,0:0:0:0:
192,192,114195,1,0,0:0:0:0:
320,192,114195,1,0,0:0:0:0:
448,192,114253,1,0,0:0:0:0:
64,192,114312,1,0,0:0:0:0:
320,192,114371,1,0,0:0:0:0:
448,192,114430,1,0,0:0:0:0:
64,192,114489,1,0,0:0:0:0:
320,192,114547,1,0,0:0:0:0:
192,192,114547,1,0,0:0:0:0:
448,192,114606,1,0,0:0:0:0:
64,192,114665,1,0,0:0:0:0:
192,192,114724,1,0,0:0:0:0:
320,192,114783,1,0,0:0:0:0:
448,192,114842,1,0,0:0:0:0:
320,192,114900,1,0,0:0:0:0:
192,192,114900,1,0,0:0:0:0:
64,192,114959,1,0,0:0:0:0:
448,192,115018,1,0,0:0:0:0:
192,192,115077,1,0,0:0:0:0:
320,192,115136,1,0,0:0:0:0:
448,192,115195,1,0,0:0:0:0:
192,192,115253,1,0,0:0:0:0:
64,192,115253,1,0,0:0:0:0:
320,192,115312,1,0,0:0:0:0:
448,192,115371,1,0,0:0:0:0:
192,192,115430,1,0,0:0:0:0:
64,192,115489,1,0,0:0:0:0:
448,192,115547,1,0,0:0:0:0:
320,192,115606,1,0,0:0:0:0:
192,192,115606,1,0,0:0:0:0:
64,192,115665,1,0,0:0:0:0:
448,192,115724,1,0,0:0:0:0:
192,192,115783,1,0,0:0:0:0:
64,192,115842,1,0,0:0:0:0:
320,192,115900,1,0,0:0:0:0:
192,192,115959,1,0,0:0:0:0:
448,192,115959,1,0,0:0:0:0:
64,192,116018,1,0,0:0:0:0:
320,192,116077,1,0,0:0:0:0:
448,192,116136,1,0,0:0:0:0:
64,192,116195,1,0,0:0:0:0:
192,192,116253,1,0,0:0:0:0:
320,192,116312,1,0,0:0:0:0:
448,192,116312,1,0,0:0:0:0:
192,192,116400,1,0,0:0:0:0:
64,192,116489,1,0,0:0:0:0:
192,192,116547,1,0,0:0:0:0:
320,192,116606,1,0,0:0:0:0:
448,192,116665,1,0,0:0:0:0:
64,192,116665,1,0,0:0:0:0:
192,192,116724,1,0,0:0:0:0:
448,192,116783,1,0,0:0:0:0:
64,192,116842,1,0,0:0:0:0:
320,192,116900,1,0,0:0:0:0:
448,192,116959,1,0,0:0:0:0:
64,192,117018,1,0,0:0:0:0:
192,192,117018,1,0,0:0:0:0:
320,192,117077,1,0,0:0:0:0:
448,192,117136,1,0,0:0:0:0:
64,192,117195,1,0,0:0:0:0:
320,192,117253,1,0,0:0:0:0:
448,192,117312,1,0,0:0:0:0:
64,192,117371,1,0,0:0:0:0:
192,192,117371,1,0,0:0:0:0:
320,192,117430,1,0,0:0:0:0:
448,192,117489,1,0,0:0:0:0:
64,192,117547,1,0,0:0:0:0:
320,192,117606,1,0,0:0:0:0:
448,192,117665,1,0,0:0:0:0:
192,192,117724,1,0,0:0:0:0:
64,192,117724,1,0,0:0:0:0:
320,192,117783,1,0,0:0:0:0:
64,192,117842,1,0,0:0:0:0:
448,192,117900,1,0,0:0:0:0:
192,192,117959,1,0,0:0:0:0:
320,192,118018,1,0,0:0:0:0:
192,192,118077,1,0,0:0:0:0:
64,192,118077,1,0,0:0:0:0:
448,192,118136,1,0,0:0:0:0:
320,192,118195,1,0,0:0:0:0:
64,192,118253,1,0,0:0:0:0:
448,192,118312,1,0,0:0:0:0:
192,192,118371,1,0,0:0:0:0:
64,192,118430,1,0,0:0:0:0:
320,192,118430,1,0,0:0:0:0:
448,192,118489,1,0,0:0:0:0:
192,192,118547,1,0,0:0:0:0:
64,192,118606,1,0,0:0:0:0:
320,192,118665,1,0,0:0:0:0:
448,192,118724,1,0,0:0:0:0:
192,192,118783,1,0,0:0:0:0:
64,192,118783,1,0,0:0:0:0:
320,192,118842,1,0,0:0:0:0:
64,192,118900,1,0,0:0:0:0:
448,192,118959,1,0,0:0:0:0:
192,192,119018,1,0,0:0:0:0:
448,192,119077,1,0,0:0:0:0:
320,192,119136,1,0,0:0:0:0:
192,192,119136,1,0,0:0:0:0:
64,192,119195,1,0,0:0:0:0:
448,192,119253,1,0,0:0:0:0:
192,192,119312,1,0,0:0:0:0:
320,192,119371,1,0,0:0:0:0:
448,192,119430,1,0,0:0:0:0:
192,192,119489,1,0,0:0:0:0:
64,192,119489,1,0,0:0:0:0:
320,192,119547,1,0,0:0:0:0:
448,192,119606,1,0,0:0:0:0:
192,192,119665,1,0,0:0:0:0:
64,192,119724,1,0,0:0:0:0:
448,192,119783,1,0,0:0:0:0:
320,192,119842,1,0,0:0:0:0:
192,192,119842,1,0,0:0:0:0:
64,192,119900,1,0,0:0:0:0:
448,192,119959,1,0,0:0:0:0:
192,192,120018,1,0,0:0:0:0:
64,192,120077,1,0,0:0:0:0:
448,192,120136,1,0,0:0:0:0:
192,192,120195,1,0,0:0:0:0:
320,192,120195,1,0,0:0:0:0:
64,192,120253,1,0,0:0:0:0:
448,192,120312,1,0,0:0:0:0:
320,192,120371,1,0,0:0:0:0:
192,192,120430,1,0,0:0:0:0:
64,192,120489,1,0,0:0:0:0:
192,192,120547,1,0,0:0:0:0:
320,192,120547,1,0,0:0:0:0:
448,192,120606,1,0,0:0:0:0:
64,192,120665,1,0,0:0:0:0:
320,192,120724,1,0,0:0:0:0:
192,192,120783,1,0,0:0:0:0:
64,192,120842,1,0,0:0:0:0:
320,192,120900,1,0,0:0:0:0:
448,192,120900,1,0,0:0:0:0:
192,192,120959,1,0,0:0:0:0:
64,192,121018,1,0,0:0:0:0:
320,192,121077,1,0,0:0:0:0:
448,192,121136,1,0,0:0:0:0:
64,192,121195,1,0,0:0:0:0:
192,192,121253,1,0,0:0:0:0:
320,192,121253,1,0,0:0:0:0:
448,192,121312,1,0,0:0:0:0:
64,192,121371,1,0,0:0:0:0:
320,192,121430,1,0,0:0:0:0:
448,192,121489,1,0,0:0:0:0:
192,192,121547,1,0,0:0:0:0:
320,192,121606,1,0,0:0:0:0:
64,192,121606,1,0,0:0:0:0:
448,192,121665,1,0,0:0:0:0:
192,192,121724,1,0,0:0:0:0:
64,192,121783,1,0,0:0:0:0:
448,192,121842,1,0,0:0:0:0:
320,192,121900,1,0,0:0:0:0:
192,192,121959,1,0,0:0:0:0:
64,192,121959,1,0,0:0:0:0:
320,192,122047,1,0,0:0:0:0:
448,192,122136,1,0,0:0:0:0:
320,192,122195,1,0,0:0:0:0:
192,192,122253,1,0,0:0:0:0:
64,192,122312,1,0,0:0:0:0:
448,192,122312,1,0,0:0:0:0:
320,192,122371,1,0,0:0:0:0:
64,192,122430,1,0,0:0:0:0:
448,192,122489,1,0,0:0:0:0:
192,192,122547,1,0,0:0:0:0:
64,192,122606,1,0,0:0:0:0:
448,192,122665,1,0,0:0:0:0:
320,192,122665,1,0,0:0:0:0:
192,192,122724,1,0,0:0:0:0:
64,192,122783,1,0,0:0:0:0:
448,192,122842,1,0,0:0:0:0:
192,192,122900,1,0,0:0:0:0:
64,192,122959,1,0,0:0:0:0:
448,192,123018,1,0,0:0:0:0:
320,192,123018,1,0,0:0:0:0:
192,192,123077,1,0,0:0:0:0:
64,192,123136,1,0,0:0:0:0:
448,192,123195,1,0,0:0:0:0:
192,192,123253,1,0,0:0:0:0:
64,192,123312,1,0,0:0:0:0:
320,192,123371,1,0,0:0:0:0:
448,192,123371,1,0,0:0:0:0:
192,192,123430,1,0,0:0:0:0:
448,192,123489,1,0,0:0:0:0:
64,192,123547,1,0,0:0:0:0:
320,192,123606,1,0,0:0:0:0:
192,192,123665,1,0,0:0:0:0:
320,192,123724,1,0,0:0:0:0:
448,192,123724,1,0,0:0:0:0:
64,192,123783,1,0,0:0:0:0:
192,192,123842,1,0,0:0:0:0:
448,192,123900,1,0,0:0:0:0:
64,192,123959,1,0,0:0:0:0:
192,192,124018,1,0,0:0:0:0:
448,192,124077,1,0,0:0:0:0:
320,192,124077,1,0,0:0:0:0:
64,192,124165,1,0,0:0:0:0:
192,192,124165,1,0,0:0:0:0:
320,192,124253,1,0,0:0:0:0:
448,192,124342,1,0,0:0:0:0:
64,192,124342,1,0,0:0:0:0:
320,192,124430,1,0,0:0:0:0:
192,192,124430,1,0,0:0:0:0:
64,192,124489,1,0,0:0:0:0:
448,192,124547,1,0,0:0:0:0:
320,192,124606,1,0,0:0:0:0:
192,192,124665,1,0,0:0:0:0:
64,192,124724,1,0,0:0:0:0:
320,192,124783,1,0,0:0:0:0:
192,192,124783,1,0,0:0:0:0:
448,192,124842,1,0,0:0:0:0:
64,192,124900,1,0,0:0:0:0:
320,192,124959,1,0,0:0:0:0:
192,192,125018,1,0,0:0:0:0:
64,192,125077,1,0,0:0:0:0:
448,192,125136,1,0,0:0:0:0:
320,192,125136,1,0,0:0:0:0:
192,192,125195,1,0,0:0:0:0:
64,192,125253,1,0,0:0:0:0:
320,192,125312,1,0,0:0:0:0:
448,192,125371,1,0,0:0:0:0:
64,192,125430,1,0,0:0:0:0:
320,192,125489,1,0,0:0:0:0:
192,192,125489,1,0,0:0:0:0:
448,192,125547,1,0,0:0:0:0:
64,192,125606,1,0,0:0:0:0:
320,192,125665,1,0,0:0:0:0:
448,192,125724,1,0,0:0:0:0:
64,192,125783,1,0,0:0:0:0:
192,192,125842,1,0,0:0:0:0:
320,192,125842,1,0,0:0:0:0:
448,192,125900,1,0,0:0:0:0:
64,192,125959,1,0,0:0:0:0:
192,192,126018,1,0,0:0:0:0:
320,192,126077,1,0,0:0:0:0:
448,192,126136,1,0,0:0:0:0:
192,192,126195,1,0,0:0:0:0:
320,192,126195,1,0,0:0:0:0:
64,192,126253,1,0,0:0:0:0:
448,192,126312,1,0,0:0:0:0:
192,192,126371,1,0,0:0:0:0:
320,192,126430,1,0,0:0:0:0:
448,192,126489,1,0,0:0:0:0:
64,192,126547,1,0,0:0:0:0:
192,192,126547,1,0,0:0:0:0:
320,192,126606,1,0,0:0:0:0:
448,192,126665,1,0,0:0:0:0:
192,192,126724,1,0,0:0:0:0:
64,192,126783,1,0,0:0:0:0:
448,192,126842,1,0,0:0:0:0:
192,192,126900,1,0,0:0:0:0:
320,192,126900,1,0,0:0:0:0:
64,192,126959,1,0,0:0:0:0:
448,192,127018,1,0,0:0:0:0:
192,192,127077,1,0,0:0:0:0:
64,192,127136,1,0,0:0:0:0:
320,192,127195,1,0,0:0:0:0:
448,192,127253,1,0,0:0:0:0:
192,192,127253,1,0,0:0:0:0:
64,192,127312,1,0,0:0:0:0:
320,192,127371,1,0,0:0:0:0:
448,192,127430,1,0,0:0:0:0:
64,192,127489,1,0,0:0:0:0:
192,192,127547,1,0,0:0:0:0:
448,192,127606,1,0,0:0:0:0:
320,192,127606,1,0,0:0:0:0:
64,192,127695,1,0,0:0:0:0:
192,192,127783,1,0,0:0:0:0:
64,192,127842,1,0,0:0:0:0:
320,192,127900,1,0,0:0:0:0:
192,192,127959,1,0,0:0:0:0:
448,192,127959,1,0,0:0:0:0:
64,192,128018,1,0,0:0:0:0:
448,192,128077,1,0,0:0:0:0:
192,192,128136,1,0,0:0:0:0:
320,192,128195,1,0,0:0:0:0:
448,192,128253,1,0,0:0:0:0:
192,192,128312,1,0,0:0:0:0:
64,192,128312,1,0,0:0:0:0:
320,192,128371,1,0,0:0:0:0:
448,192,128430,1,0,0:0:0:0:
64,192,128489,1,0,0:0:0:0:
320,192,128547,1,0,0:0:0:0:
448,192,128606,1,0,0:0:0:0:
192,192,128665,1,0,0:0:0:0:
64,192,128665,1,0,0:0:0:0:
320,192,128724,1,0,0:0:0:0:
448,192,128783,1,0,0:0:0:0:
64,192,128842,1,0,0:0:0:0:
320,192,128900,1,0,0:0:0:0:
448,192,128959,1,0,0:0:0:0:
64,192,129018,1,0,0:0:0:0:
192,192,129018,1,0,0:0:0:0:
320,192,129077,1,0,0:0:0:0:
64,192,129136,1,0,0:0:0:0:
448,192,129195,1,0,0:0:0:0:
192,192,129253,1,0,0:0:0:0:
320,192,129312,1,0,0:0:0:0:
64,192,129371,1,0,0:0:0:0:
192,192,129371,1,0,0:0:0:0:
448,192,129430,1,0,0:0:0:0:
320,192,129489,1,0,0:0:0:0:
64,192,129547,1,0,0:0:0:0:
448,192,129606,1,0,0:0:0:0:
320,192,129665,1,0,0:0:0:0:
64,192,129724,1,0,0:0:0:0:
192,192,129724,1,0,0:0:0:0:
448,192,129783,1,0,0:0:0:0:
192,192,129842,1,0,0:0:0:0:
320,192,129900,1,0,0:0:0:0:
64,192,129959,1,0,0:0:0:0:
448,192,130018,1,0,0:0:0:0:
320,192,130077,1,0,0:0:0:0:
192,192,130077,1,0,0:0:0:0:
64,192,130136,1,0,0:0:0:0:
448,192,130195,1,0,0:0:0:0:
192,192,130253,1,0,0:0:0:0:
64,192,130312,1,0,0:0:0:0:
448,192,130371,1,0,0:0:0:0:
320,192,130430,1,0,0:0:0:0:
192,192,130430,1,0,0:0:0:0:
64,192,130489,1,0,0:0:0:0:
448,192,130547,1,0,0:0:0:0:
192,192,130606,1,0,0:0:0:0:
320,192,130665,1,0,0:0:0:0:
448,192,130724,1,0,0:0:0:0:
192,192,130783,1,0,0:0:0:0:
64,192,130783,1,0,0:0:0:0:
320,192,130842,1,0,0:0:0:0:
448,192,130900,1,0,0:0:0:0:
192,192,130959,1,0,0:0:0:0:
64,192,131018,1,0,0:0:0:0:
448,192,131077,1,0,0:0:0:0:
320,192,131136,1,0,0:0:0:0:
192,192,131136,1,0,0:0:0:0:
64,192,131195,1,0,0:0:0:0:
448,192,131253,1,0,0:0:0:0:
192,192,131312,1,0,0:0:0:0:
64,192,131371,1,0,0:0:0:0:
448,192,131430,1,0,0:0:0:0:
192,192,131489,1,0,0:0:0:0:
320,192,131489,1,0,0:0:0:0:
64,192,131547,1,0,0:0:0:0:
448,192,131606,1,0,0:0:0:0:
320,192,131665,1,0,0:0:0:0:
192,192,131724,1,0,0:0:0:0:
64,192,131783,1,0,0:0:0:0:
192,192,131842,1,0,0:0:0:0:
320,192,131842,1,0,0:0:0:0:
448,192,131900,1,0,0:0:0:0:
64,192,131959,1,0,0:0:0:0:
320,192,132018,1,0,0:0:0:0:
192,192,132077,1,0,0:0:0:0:
64,192,132136,1,0,0:0:0:0:
320,192,132195,1,0,0:0:0:0:
448,192,132195,1,0,0:0:0:0:
192,192,132253,1,0,0:0:0:0:
64,192,132312,1,0,0:0:0:0:
320,192,132371,1,0,0:0:0:0:
448,192,132430,1,0,0:0:0:0:
64,192,132489,1,0,0:0:0:0:
192,192,132547,1,0,0:0:0:0:
320,192,132547,1,0,0:0:0:0:
448,192,132606,1,0,0:0:0:0:
64,192,132665,1,0,0:0:0:0:
320,192,132724,1,0,0:0:0:0:
448,192,132783,1,0,0:0:0:0:
192,192,132842,1,0,0:0:0:0:
320,192,132900,1,0,0:0:0:0:
64,192,132900,1,0,0:0:0:0:
448,192,132959,1,0,0:0:0:0:
192,192,133018,1,0,0:0:0:0:
64,192,133077,1,0,0:0:0:0:
448,192,133136,1,0,0:0:0:0:
320,192,133195,1,0,0:0:0:0:
192,192,133253,1,0,0:0:0:0:
192,192,133606,1,0,0:0:0:0:
64,192,133959,1,0,0:0:0:0:
192,192,134136,1,0,0:0:0:0:
320,192,134224,1,0,0:0:0:0:
320,192,134489,1,0,0:0:0:0:
192,192,134665,1,0,0:0:0:0:
448,192,134665,1,0,0:0:0:0:
64,192,134665,1,0,0:0:0:0:
192,192,134842,1,0,0:0:0:0:
320,192,134842,1,0,0:0:0:0:
64,192,135018,1,0,0:0:0:0:
320,192,135018,1,0,0:0:0:0:
448,192,135018,1,0,0:0:0:0:
192,192,135106,1,0,0:0:0:0:
320,192,135195,1,0,0:0:0:0:
64,192,135371,1,0,0:0:0:0:
192,192,135371,1,0,0:0:0:0:
448,192,135371,1,0,0:0:0:0:
320,192,135547,1,0,0:0:0:0:
448,192,135547,1,0,0:0:0:0:
64,192,135724,1,0,0:0:0:0:
192,192,135724,1,0,0:0:0:0:
320,192,135724,1,0,0:0:0:0:
192,192,135900,1,0,0:0:0:0:
64,192,135900,1,0,0:0:0:0:
192,192,136077,1,0,0:0:0:0:
448,192,136077,1,0,0:0:0:0:
320,192,136077,1,0,0:0:0:0:
64,192,136165,1,0,0:0:0:0:
320,192,136253,1,0,0:0:0:0:
192,192,136253,1,0,0:0:0:0:
448,192,136342,1,0,0:0:0:0:
192,192,136430,1,0,0:0:0:0:
64,192,136430,1,0,0:0:0:0:
320,192,136430,1,0,0:0:0:0:
448,192,136518,1,0,0:0:0:0:
64,192,136606,1,0,0:0:0:0:
320,192,136606,1,0,0:0:0:0:
192,192,136695,1,0,0:0:0:0:
64,192,136783,1,0,0:0:0:0:
320,192,136783,1,0,0:0:0:0:
448,192,136783,1,0,0:0:0:0:
192,192,136871,1,0,0:0:0:0:
448,192,136959,1,0,0:0:0:0:
64,192,136959,1,0,0:0:0:0:
320,192,137047,1,0,0:0:0:0:
192,192,137136,1,0,0:0:0:0:
448,192,137136,1,0,0:0:0:0:
64,192,137136,1,0,0:0:0:0:
320,192,137224,1,0,0:0:0:0:
448,192,137312,1,0,0:0:0:0:
64,192,137312,1,0,0:0:0:0:
192,192,137400,1,0,0:0:0:0:
64,192,137489,1,0,0:0:0:0:
320,192,137489,1,0,0:0:0:0:
448,192,137489,1,0,0:0:0:0:
192,192,137577,1,0,0:0:0:0:
448,192,137665,1,0,0:0:0:0:
320,192,137665,1,0,0:0:0:0:
64,192,137753,1,0,0:0:0:0:
192,192,137842,1,0,0:0:0:0:
448,192,137842,1,0,0:0:0:0:
320,192,137842,1,0,0:0:0:0:
64,192,137930,1,0,0:0:0:0:
192,192,138018,1,0,0:0:0:0:
320,192,138018,1,0,0:0:0:0:
448,192,138106,1,0,0:0:0:0:
320,192,138195,1,0,0:0:0:0:
192,192,138195,1,0,0:0:0:0:
64,192,138195,1,0,0:0:0:0:
448,192,138283,1,0,0:0:0:0:
64,192,138371,1,0,0:0:0:0:
320,192,138371,1,0,0:0:0:0:
192,192,138459,1,0,0:0:0:0:
64,192,138547,1,0,0:0:0:0:
320,192,138547,1,0,0:0:0:0:
448,192,138547,1,0,0:0:0:0:
192,192,138636,1,0,0:0:0:0:
448,192,138724,1,0,0:0:0:0:
64,192,138724,1,0,0:0:0:0:
320,192,138812,1,0,0:0:0:0:
192,192,138900,1,0,0:0:0:0:
64,192,138900,1,0,0:0:0:0:
448,192,138900,1,0,0:0:0:0:
320,192,138989,1,0,0:0:0:0:
64,192,139077,1,0,0:0:0:0:
192,192,139077,1,0,0:0:0:0:
448,192,139165,1,0,0:0:0:0:
320,192,139253,1,0,0:0:0:0:
64,192,139253,1,0,0:0:0:0:
192,192,139253,1,0,0:0:0:0:
448,192,139342,1,0,0:0:0:0:
192,192,139430,1,0,0:0:0:0:
320,192,139430,1,0,0:0:0:0:
64,192,139518,1,0,0:0:0:0:
192,192,139606,1,0,0:0:0:0:
320,192,139606,1,0,0:0:0:0:
448,192,139606,1,0,0:0:0:0:
64,192,139695,1,0,0:0:0:0:
320,192,139783,1,0,0:0:0:0:
192,192,139783,1,0,0:0:0:0:
448,192,139871,1,0,0:0:0:0:
192,192,139959,1,0,0:0:0:0:
64,192,139959,1,0,0:0:0:0:
320,192,139959,1,0,0:0:0:0:
448,192,140047,1,0,0:0:0:0:
64,192,140136,1,0,0:0:0:0:
320,192,140136,1,0,0:0:0:0:
192,192,140224,1,0,0:0:0:0:
64,192,140312,1,0,0:0:0:0:
320,192,140312,1,0,0:0:0:0:
448,192,140312,1,0,0:0:0:0:
192,192,140400,1,0,0:0:0:0:
448,192,140489,1,0,0:0:0:0:
64,192,140489,1,0,0:0:0:0:
320,192,140577,1,0,0:0:0:0:
192,192,140665,1,0,0:0:0:0:
448,192,140665,1,0,0:0:0:0:
64,192,140665,1,0,0:0:0:0:
320,192,140753,1,0,0:0:0:0:
448,192,140842,1,0,0:0:0:0:
64,192,140842,1,0,0:0:0:0:
192,192,140930,1,0,0:0:0:0:
64,192,141018,1,0,0:0:0:0:
320,192,141018,1,0,0:0:0:0:
448,192,141018,1,0,0:0:0:0:
192,192,141106,1,0,0:0:0:0:
448,192,141195,1,0,0:0:0:0:
320,192,141195,1,0,0:0:0:0:
64,192,141283,1,0,0:0:0:0:
192,192,141371,1,0,0:0:0:0:
448,192,141371,1,0,0:0:0:0:
320,192,141371,1,0,0:0:0:0:
64,192,141459,1,0,0:0:0:0:
192,192,141547,1,0,0:0:0:0:
320,192,141547,1,0,0:0:0:0:
448,192,141636,1,0,0:0:0:0:
320,192,141724,1,0,0:0:0:0:
192,192,141724,1,0,0:0:0:0:
64,192,141724,1,0,0:0:0:0:
448,192,141812,1,0,0:0:0:0:
64,192,141900,1,0,0:0:0:0:
320,192,141900,1,0,0:0:0:0:
192,192,141989,1,0,0:0:0:0:
64,192,142077,1,0,0:0:0:0:
320,192,142077,1,0,0:0:0:0:
448,192,142077,1,0,0:0:0:0:
192,192,142165,1,0,0:0:0:0:
448,192,142253,1,0,0:0:0:0:
64,192,142253,1,0,0:0:0:0:
320,192,142342,1,0,0:0:0:0:
192,192,142430,1,0,0:0:0:0:
64,192,142430,1,0,0:0:0:0:
448,192,142430,1,0,0:0:0:0:
320,192,142518,1,0,0:0:0:0:
64,192,142606,1,0,0:0:0:0:
192,192,142606,1,0,0:0:0:0:
448,192,142695,1,0,0:0:0:0:
320,192,142783,1,0,0:0:0:0:
64,192,142783,1,0,0:0:0:0:
192,192,142783,1,0,0:0:0:0:
448,192,142871,1,0,0:0:0:0:
192,192,142959,1,0,0:0:0:0:
320,192,142959,1,0,0:0:0:0:
64,192,143047,1,0,0:0:0:0:
192,192,143136,1,0,0:0:0:0:
320,192,143136,1,0,0:0:0:0:
448,192,143136,1,0,0:0:0:0:
64,192,143224,1,0,0:0:0:0:
192,192,143312,1,0,0:0:0:0:
320,192,143312,1,0,0:0:0:0:
448,192,143400,1,0,0:0:0:0:
320,192,143489,1,0,0:0:0:0:
64,192,143489,1,0,0:0:0:0:
192,192,143489,1,0,0:0:0:0:
448,192,143577,1,0,0:0:0:0:
320,192,143665,1,0,0:0:0:0:
64,192,143665,1,0,0:0:0:0:
192,192,143753,1,0,0:0:0:0:
448,192,143842,1,0,0:0:0:0:
320,192,143842,1,0,0:0:0:0:
64,192,143842,1,0,0:0:0:0:
192,192,143930,1,0,0:0:0:0:
64,192,144018,1,0,0:0:0:0:
448,192,144018,1,0,0:0:0:0:
320,192,144106,1,0,0:0:0:0:
64,192,144195,1,0,0:0:0:0:
448,192,144195,1,0,0:0:0:0:
192,192,144195,1,0,0:0:0:0:
320,192,144283,1,0,0:0:0:0:
64,192,144371,1,0,0:0:0:0:
448,192,144371,1,0,0:0:0:0:
192,192,144459,1,0,0:0:0:0:
448,192,144547,1,0,0:0:0:0:
320,192,144547,1,0,0:0:0:0:
64,192,144547,1,0,0:0:0:0:
192,192,144636,1,0,0:0:0:0:
320,192,144724,1,0,0:0:0:0:
448,192,144724,1,0,0:0:0:0:
64,192,144812,1,0,0:0:0:0:
320,192,144900,1,0,0:0:0:0:
448,192,144900,1,0,0:0:0:0:
192,192,144900,1,0,0:0:0:0:
64,192,144989,1,0,0:0:0:0:
320,192,145077,1,0,0:0:0:0:
192,192,145077,1,0,0:0:0:0:
448,192,145165,1,0,0:0:0:0:
64,192,145253,1,0,0:0:0:0:
192,192,145253,1,0,0:0:0:0:
320,192,145253,1,0,0:0:0:0:
448,192,145342,1,0,0:0:0:0:
320,192,145430,1,0,0:0:0:0:
64,192,145430,1,0,0:0:0:0:
192,192,145518,1,0,0:0:0:0:
448,192,145606,1,0,0:0:0:0:
320,192,145606,1,0,0:0:0:0:
64,192,145606,1,0,0:0:0:0:
192,192,145695,1,0,0:0:0:0:
64,192,145783,1,0,0:0:0:0:
448,192,145783,1,0,0:0:0:0:
320,192,145871,1,0,0:0:0:0:
448,192,145959,1,0,0:0:0:0:
64,192,145959,1,0,0:0:0:0:
192,192,145959,1,0,0:0:0:0:
320,192,146047,1,0,0:0:0:0:
192,192,146136,1,0,0:0:0:0:
64,192,146136,1,0,0:0:0:0:
448,192,146224,5,0,0:0:0:0:
192,192,146312,1,0,0:0:0:0:
64,192,146312,1,0,0:0:0:0:
320,192,146312,1,0,0:0:0:0:
448,192,146400,1,0,0:0:0:0:
320,192,146489,1,0,0:0:0:0:
192,192,146489,1,0,0:0:0:0:
64,192,146577,1,0,0:0:0:0:
448,192,146665,1,0,0:0:0:0:
320,192,146665,1,0,0:0:0:0:
192,192,146753,1,0,0:0:0:0:
64,192,146753,1,0,0:0:0:0:
448,192,146842,1,0,0:0:0:0:
192,192,146930,1,0,0:0:0:0:
320,192,146930,1,0,0:0:0:0:
64,192,147018,1,0,0:0:0:0:
448,192,147018,1,0,0:0:0:0:
320,192,147195,1,0,0:0:0:0:
448,192,147371,5,0,0:0:0:0:
192,192,147371,1,0,0:0:0:0:
64,192,147371,1,0,0:0:0:0:
192,192,147547,1,0,0:0:0:0:
448,192,147724,1,0,0:0:0:0:
320,192,147724,1,0,0:0:0:0:
448,192,147900,1,0,0:0:0:0:
64,192,148077,1,0,0:0:0:0:
192,192,148077,1,0,0:0:0:0:
64,192,148253,1,0,0:0:0:0:
448,192,148430,1,0,0:0:0:0:
192,192,148430,1,0,0:0:0:0:
448,192,148606,1,0,0:0:0:0:
64,192,148783,1,0,0:0:0:0:
192,192,148783,1,0,0:0:0:0:
320,192,148783,1,0,0:0:0:0:
192,192,148959,1,0,0:0:0:0:
448,192,149136,1,0,0:0:0:0:
320,192,149136,1,0,0:0:0:0:
320,192,149312,1,0,0:0:0:0:
192,192,149489,1,0,0:0:0:0:
448,192,149489,1,0,0:0:0:0:
192,192,149665,1,0,0:0:0:0:
448,192,149842,1,0,0:0:0:0:
64,192,149842,1,0,0:0:0:0:
448,192,150018,1,0,0:0:0:0:
320,192,150195,1,0,0:0:0:0:
64,192,150195,1,0,0:0:0:0:
192,192,150195,1,0,0:0:0:0:
64,192,150371,1,0,0:0:0:0:
192,192,150547,1,0,0:0:0:0:
320,192,150547,1,0,0:0:0:0:
320,192,150724,1,0,0:0:0:0:
192,192,150900,1,0,0:0:0:0:
64,192,150900,1,0,0:0:0:0:
192,192,151077,1,0,0:0:0:0:
448,192,151253,1,0,0:0:0:0:
320,192,151253,1,0,0:0:0:0:
448,192,151430,1,0,0:0:0:0:
320,192,151606,1,0,0:0:0:0:
192,192,151606,1,0,0:0:0:0:
64,192,151606,1,0,0:0:0:0:
192,192,151783,1,0,0:0:0:0:
448,192,151959,1,0,0:0:0:0:
320,192,151959,1,0,0:0:0:0:
320,192,152136,1,0,0:0:0:0:
64,192,152312,1,0,0:0:0:0:
448,192,152312,1,0,0:0:0:0:
64,192,152489,1,0,0:0:0:0:
448,192,152665,1,0,0:0:0:0:
448,192,152842,1,0,0:0:0:0:
64,192,153018,1,0,0:0:0:0:
192,192,153018,1,0,0:0:0:0:
320,192,153018,1,0,0:0:0:0:
448,192,153106,1,0,0:0:0:0:
64,192,153195,1,0,0:0:0:0:
192,192,153371,1,0,0:0:0:0:
320,192,153371,1,0,0:0:0:0:
320,192,153547,1,0,0:0:0:0:
64,192,153724,1,0,0:0:0:0:
448,192,153724,1,0,0:0:0:0:
192,192,153724,1,0,0:0:0:0:
320,192,153812,1,0,0:0:0:0:
64,192,153900,1,0,0:0:0:0:
448,192,154077,1,0,0:0:0:0:
192,192,154077,1,0,0:0:0:0:
448,192,154253,1,0,0:0:0:0:
64,192,154430,1,0,0:0:0:0:
320,192,154430,1,0,0:0:0:0:
192,192,154430,1,0,0:0:0:0:
448,192,154518,1,0,0:0:0:0:
64,192,154606,1,0,0:0:0:0:
320,192,154783,1,0,0:0:0:0:
192,192,154783,1,0,0:0:0:0:
448,192,154783,1,0,0:0:0:0:
192,192,154959,1,0,0:0:0:0:
320,192,155136,1,0,0:0:0:0:
448,192,155136,1,0,0:0:0:0:
64,192,155136,1,0,0:0:0:0:
192,192,155224,1,0,0:0:0:0:
320,192,155312,1,0,0:0:0:0:
448,192,155489,1,0,0:0:0:0:
64,192,155489,1,0,0:0:0:0:
192,192,155489,1,0,0:0:0:0:
448,192,155665,1,0,0:0:0:0:
64,192,155842,1,0,0:0:0:0:
192,192,155842,1,0,0:0:0:0:
448,192,155930,1,0,0:0:0:0:
64,192,156018,1,0,0:0:0:0:
192,192,156018,1,0,0:0:0:0:
320,192,156106,1,0,0:0:0:0:
64,192,156195,1,0,0:0:0:0:
448,192,156195,1,0,0:0:0:0:
192,192,156283,1,0,0:0:0:0:
64,192,156371,1,0,0:0:0:0:
448,192,156371,1,0,0:0:0:0:
192,192,156459,1,0,0:0:0:0:
320,192,156547,1,0,0:0:0:0:
448,192,156547,1,0,0:0:0:0:
64,192,156636,1,0,0:0:0:0:
320,192,156724,1,0,0:0:0:0:
448,192,156724,1,0,0:0:0:0:
192,192,156812,1,0,0:0:0:0:
320,192,156900,1,0,0:0:0:0:
64,192,156900,1,0,0:0:0:0:
448,192,156989,1,0,0:0:0:0:
64,192,157077,1,0,0:0:0:0:
320,192,157077,1,0,0:0:0:0:
192,192,157165,1,0,0:0:0:0:
64,192,157253,1,0,0:0:0:0:
448,192,157253,1,0,0:0:0:0:
192,192,157430,1,0,0:0:0:0:
320,192,157430,1,0,0:0:0:0:
448,192,157606,1,0,0:0:0:0:
64,192,157606,1,0,0:0:0:0:
192,192,157695,1,0,0:0:0:0:
320,192,157695,1,0,0:0:0:0:
64,192,157959,1,0,0:0:0:0:
448,192,157959,1,0,0:0:0:0:
64,192,158224,1,0,0:0:0:0:
320,192,158224,1,0,0:0:0:0:
192,192,158489,1,0,0:0:0:0:
320,192,158489,1,0,0:0:0:0:
192,192,158665,1,0,0:0:0:0:
448,192,158665,1,0,0:0:0:0:
192,192,159018,1,0,0:0:0:0:
448,192,159018,1,0,0:0:0:0:
64,192,159371,1,0,0:0:0:0:
320,192,159371,1,0,0:0:0:0:
192,192,159547,1,0,0:0:0:0:
64,192,159636,1,0,0:0:0:0:
448,192,159636,1,0,0:0:0:0:
64,192,159900,1,0,0:0:0:0:
448,192,159900,1,0,0:0:0:0:
192,192,160077,1,0,0:0:0:0:
448,192,160077,1,0,0:0:0:0:
192,192,160253,1,0,0:0:0:0:
448,192,160253,1,0,0:0:0:0:
64,192,160430,1,0,0:0:0:0:
192,192,160518,1,0,0:0:0:0:
448,192,160518,1,0,0:0:0:0:
64,192,160783,1,0,0:0:0:0:
192,192,160783,1,0,0:0:0:0:
320,192,161047,1,0,0:0:0:0:
64,192,161047,1,0,0:0:0:0:
64,192,161312,1,0,0:0:0:0:
320,192,161312,1,0,0:0:0:0:
192,192,161489,1,0,0:0:0:0:
448,192,161489,1,0,0:0:0:0:
192,192,161842,1,0,0:0:0:0:
448,192,161842,1,0,0:0:0:0:
64,192,162195,1,0,0:0:0:0:
320,192,162195,1,0,0:0:0:0:
320,192,162371,1,0,0:0:0:0:
64,192,162459,1,0,0:0:0:0:
448,192,162459,1,0,0:0:0:0:
64,192,162724,1,0,0:0:0:0:
448,192,162724,1,0,0:0:0:0:
320,192,162900,1,0,0:0:0:0:
448,192,162900,1,0,0:0:0:0:
192,192,163077,1,0,0:0:0:0:
320,192,163077,1,0,0:0:0:0:
320,192,163253,1,0,0:0:0:0:
192,192,163342,1,0,0:0:0:0:
448,192,163342,1,0,0:0:0:0:
64,192,163606,1,0,0:0:0:0:
320,192,163606,1,0,0:0:0:0:
64,192,163871,1,0,0:0:0:0:
192,192,163871,1,0,0:0:0:0:
192,192,164136,1,0,0:0:0:0:
64,192,164136,1,0,0:0:0:0:
192,192,164312,1,0,0:0:0:0:
448,192,164312,1,0,0:0:0:0:
192,192,164665,1,0,0:0:0:0:
448,192,164665,1,0,0:0:0:0:
64,192,165018,1,0,0:0:0:0:
320,192,165018,1,0,0:0:0:0:
192,192,165195,1,0,0:0:0:0:
64,192,165283,1,0,0:0:0:0:
448,192,165283,1,0,0:0:0:0:
64,192,165547,1,0,0:0:0:0:
448,192,165547,1,0,0:0:0:0:
192,192,165724,1,0,0:0:0:0:
448,192,165724,1,0,0:0:0:0:
192,192,165900,1,0,0:0:0:0:
448,192,165900,1,0,0:0:0:0:
64,192,166077,1,0,0:0:0:0:
192,192,166165,1,0,0:0:0:0:
448,192,166165,1,0,0:0:0:0:
64,192,166430,1,0,0:0:0:0:
192,192,166430,1,0,0:0:0:0:
320,192,166695,1,0,0:0:0:0:
64,192,166695,1,0,0:0:0:0:
64,192,166959,1,0,0:0:0:0:
320,192,166959,1,0,0:0:0:0:
192,192,167136,1,0,0:0:0:0:
448,192,167136,1,0,0:0:0:0:
192,192,167489,1,0,0:0:0:0:
448,192,167489,1,0,0:0:0:0:
64,192,167842,1,0,0:0:0:0:
320,192,167842,1,0,0:0:0:0:
320,192,168018,1,0,0:0:0:0:
64,192,168106,1,0,0:0:0:0:
448,192,168106,1,0,0:0:0:0:
64,192,168371,1,0,0:0:0:0:
448,192,168371,1,0,0:0:0:0:
320,192,168547,1,0,0:0:0:0:
448,192,168547,1,0,0:0:0:0:
192,192,168724,1,0,0:0:0:0:
320,192,168724,1,0,0:0:0:0:
448,192,168900,1,0,0:0:0:0:
64,192,168989,1,0,0:0:0:0:
320,192,168989,1,0,0:0:0:0:
64,192,169253,1,0,0:0:0:0:
448,192,169253,1,0,0:0:0:0:
64,192,169518,1,0,0:0:0:0:
320,192,169518,1,0,0:0:0:0:
192,192,169783,1,0,0:0:0:0:
64,192,169783,1,0,0:0:0:0:
448,192,169959,1,0,0:0:0:0:
192,192,169959,1,0,0:0:0:0:
320,192,169959,1,0,0:0:0:0:
448,192,170312,1,0,0:0:0:0:
192,192,170312,1,0,0:0:0:0:
64,192,170312,1,0,0:0:0:0:
320,192,170665,1,0,0:0:0:0:
64,192,170665,1,0,0:0:0:0:
448,192,170665,1,0,0:0:0:0:
192,192,170842,1,0,0:0:0:0:
448,192,170930,1,0,0:0:0:0:
64,192,170930,1,0,0:0:0:0:
320,192,171018,1,0,0:0:0:0:
192,192,171018,1,0,0:0:0:0:
448,192,171195,1,0,0:0:0:0:
64,192,171195,1,0,0:0:0:0:
448,192,171371,1,0,0:0:0:0:
192,192,171371,1,0,0:0:0:0:
320,192,171371,1,0,0:0:0:0:
448,192,171547,1,0,0:0:0:0:
192,192,171547,1,0,0:0:0:0:
320,192,171724,1,0,0:0:0:0:
64,192,171724,1,0,0:0:0:0:
192,192,171724,1,0,0:0:0:0:
448,192,171812,1,0,0:0:0:0:
192,192,172077,1,0,0:0:0:0:
64,192,172077,1,0,0:0:0:0:
448,192,172077,1,0,0:0:0:0:
64,192,172342,1,0,0:0:0:0:
320,192,172342,1,0,0:0:0:0:
192,192,172430,1,0,0:0:0:0:
448,192,172430,1,0,0:0:0:0:
320,192,172606,1,0,0:0:0:0:
64,192,172606,1,0,0:0:0:0:
448,192,172783,1,0,0:0:0:0:
192,192,172783,1,0,0:0:0:0:
64,192,172783,1,0,0:0:0:0:
448,192,173136,1,0,0:0:0:0:
192,192,173136,1,0,0:0:0:0:
64,192,173136,1,0,0:0:0:0:
320,192,173489,1,0,0:0:0:0:
64,192,173489,1,0,0:0:0:0:
448,192,173489,1,0,0:0:0:0:
320,192,173665,1,0,0:0:0:0:
448,192,173753,1,0,0:0:0:0:
64,192,173753,1,0,0:0:0:0:
192,192,173842,1,0,0:0:0:0:
320,192,173842,1,0,0:0:0:0:
448,192,174018,1,0,0:0:0:0:
64,192,174018,1,0,0:0:0:0:
448,192,174195,1,0,0:0:0:0:
320,192,174195,1,0,0:0:0:0:
64,192,174195,1,0,0:0:0:0:
320,192,174371,1,0,0:0:0:0:
192,192,174371,1,0,0:0:0:0:
64,192,174547,1,0,0:0:0:0:
320,192,174547,1,0,0:0:0:0:
448,192,174547,1,0,0:0:0:0:
192,192,174636,1,0,0:0:0:0:
320,192,174900,1,0,0:0:0:0:
64,192,174900,1,0,0:0:0:0:
448,192,174900,1,0,0:0:0:0:
192,192,175165,1,0,0:0:0:0:
64,192,175165,1,0,0:0:0:0:
320,192,175253,1,0,0:0:0:0:
448,192,175253,1,0,0:0:0:0:
64,192,175430,1,0,0:0:0:0:
192,192,175430,1,0,0:0:0:0:
448,192,175606,1,0,0:0:0:0:
192,192,175606,1,0,0:0:0:0:
320,192,175606,1,0,0:0:0:0:
448,192,175959,1,0,0:0:0:0:
192,192,175959,1,0,0:0:0:0:
64,192,175959,1,0,0:0:0:0:
320,192,176312,1,0,0:0:0:0:
64,192,176312,1,0,0:0:0:0:
448,192,176312,1,0,0:0:0:0:
192,192,176489,1,0,0:0:0:0:
448,192,176577,1,0,0:0:0:0:
64,192,176577,1,0,0:0:0:0:
320,192,176665,1,0,0:0:0:0:
192,192,176665,1,0,0:0:0:0:
448,192,176842,1,0,0:0:0:0:
64,192,176842,1,0,0:0:0:0:
448,192,177018,1,0,0:0:0:0:
192,192,177018,1,0,0:0:0:0:
320,192,177018,1,0,0:0:0:0:
448,192,177195,1,0,0:0:0:0:
192,192,177195,1,0,0:0:0:0:
320,192,177371,1,0,0:0:0:0:
64,192,177371,1,0,0:0:0:0:
192,192,177371,1,0,0:0:0:0:
448,192,177459,1,0,0:0:0:0:
192,192,177724,1,0,0:0:0:0:
64,192,177724,1,0,0:0:0:0:
448,192,177724,1,0,0:0:0:0:
64,192,177989,1,0,0:0:0:0:
192,192,178077,1,0,0:0:0:0:
448,192,178077,1,0,0:0:0:0:
320,192,178077,1,0,0:0:0:0:
64,192,178253,1,0,0:0:0:0:
448,192,178430,1,0,0:0:0:0:
192,192,178430,1,0,0:0:0:0:
448,192,178783,1,0,0:0:0:0:
192,192,178783,1,0,0:0:0:0:
320,192,179136,1,0,0:0:0:0:
64,192,179136,1,0,0:0:0:0:
448,192,179312,1,0,0:0:0:0:
64,192,179400,1,0,0:0:0:0:
192,192,179489,1,0,0:0:0:0:
320,192,179489,1,0,0:0:0:0:
192,192,179665,1,0,0:0:0:0:
448,192,179842,1,0,0:0:0:0:
320,192,179842,1,0,0:0:0:0:
192,192,180018,1,0,0:0:0:0:
448,192,180195,5,0,0:0:0:0:
320,192,180195,1,0,0:0:0:0:
64,192,180283,1,0,0:0:0:0:
64,192,180547,1,0,0:0:0:0:
448,192,180547,1,0,0:0:0:0:
192,192,180812,1,0,0:0:0:0:
320,192,180900,1,0,0:0:0:0:
448,192,180900,1,0,0:0:0:0:
192,192,181077,1,0,0:0:0:0:
64,192,181253,5,0,0:0:0:0:
320,192,181253,1,0,0:0:0:0:
320,192,181430,1,0,0:0:0:0:
64,192,181430,1,0,0:0:0:0:
64,192,181606,1,0,0:0:0:0:
448,192,181606,1,0,0:0:0:0:
448,192,181783,1,0,0:0:0:0:
64,192,181783,1,0,0:0:0:0:
448,192,181959,1,0,0:0:0:0:
320,192,181959,1,0,0:0:0:0:
320,192,182136,1,0,0:0:0:0:
448,192,182136,1,0,0:0:0:0:
192,192,182312,1,0,0:0:0:0:
320,192,182312,1,0,0:0:0:0:
192,192,182489,1,0,0:0:0:0:
320,192,182489,1,0,0:0:0:0:
192,192,182665,1,0,0:0:0:0:
448,192,182665,1,0,0:0:0:0:
192,192,182842,1,0,0:0:0:0:
448,192,182842,1,0,0:0:0:0:
448,192,183018,1,0,0:0:0:0:
64,192,183018,1,0,0:0:0:0:
64,192,183195,1,0,0:0:0:0:
448,192,183195,1,0,0:0:0:0:
192,192,183371,1,0,0:0:0:0:
64,192,183371,1,0,0:0:0:0:
192,192,183547,1,0,0:0:0:0:
64,192,183547,1,0,0:0:0:0:
448,192,183724,1,0,0:0:0:0:
192,192,183724,1,0,0:0:0:0:
448,192,183900,1,0,0:0:0:0:
192,192,183900,1,0,0:0:0:0:
64,192,184077,1,0,0:0:0:0:
448,192,184077,1,0,0:0:0:0:
64,192,184253,1,0,0:0:0:0:
448,192,184253,1,0,0:0:0:0:
320,192,184430,1,0,0:0:0:0:
64,192,184430,1,0,0:0:0:0:
320,192,184606,1,0,0:0:0:0:
64,192,184606,1,0,0:0:0:0:
192,192,184783,1,0,0:0:0:0:
320,192,184783,1,0,0:0:0:0:
192,192,184959,1,0,0:0:0:0:
320,192,184959,1,0,0:0:0:0:
448,192,185136,1,0,0:0:0:0:
192,192,185136,1,0,0:0:0:0:
448,192,185312,1,0,0:0:0:0:
192,192,185312,1,0,0:0:0:0:
320,192,185489,1,0,0:0:0:0:
448,192,185489,1,0,0:0:0:0:
320,192,185665,1,0,0:0:0:0:
448,192,185665,1,0,0:0:0:0:
64,192,185842,1,0,0:0:0:0:
320,192,185842,1,0,0:0:0:0:
320,192,186018,1,0,0:0:0:0:
64,192,186018,1,0,0:0:0:0:
64,192,186195,1,0,0:0:0:0:
448,192,186195,1,0,0:0:0:0:
64,192,186371,1,0,0:0:0:0:
448,192,186371,1,0,0:0:0:0:
192,192,186547,1,0,0:0:0:0:
448,192,186547,1,0,0:0:0:0:
192,192,186724,1,0,0:0:0:0:
448,192,186724,1,0,0:0:0:0:
64,192,186900,1,0,0:0:0:0:
192,192,186900,1,0,0:0:0:0:
320,192,186989,1,0,0:0:0:0:
448,192,186989,1,0,0:0:0:0:
64,192,187077,1,0,0:0:0:0:
192,192,187077,1,0,0:0:0:0:
448,192,187253,1,0,0:0:0:0:
64,192,187253,1,0,0:0:0:0:
64,192,187430,1,0,0:0:0:0:
448,192,187430,1,0,0:0:0:0:
192,192,187606,1,0,0:0:0:0:
448,192,187606,1,0,0:0:0:0:
320,192,187695,1,0,0:0:0:0:
64,192,187695,1,0,0:0:0:0:
192,192,187783,1,0,0:0:0:0:
448,192,187783,1,0,0:0:0:0:
192,192,187959,1,0,0:0:0:0:
320,192,187959,1,0,0:0:0:0:
192,192,188136,1,0,0:0:0:0:
320,192,188136,1,0,0:0:0:0:
64,192,188312,1,0,0:0:0:0:
320,192,188312,1,0,0:0:0:0:
192,192,188400,1,0,0:0:0:0:
448,192,188400,1,0,0:0:0:0:
320,192,188489,1,0,0:0:0:0:
64,192,188489,1,0,0:0:0:0:
64,192,188665,1,0,0:0:0:0:
192,192,188665,1,0,0:0:0:0:
64,192,188842,1,0,0:0:0:0:
192,192,188842,1,0,0:0:0:0:
192,192,189018,1,0,0:0:0:0:
320,192,189018,1,0,0:0:0:0:
448,192,189106,1,0,0:0:0:0:
64,192,189106,1,0,0:0:0:0:
320,192,189195,1,0,0:0:0:0:
192,192,189195,1,0,0:0:0:0:
320,192,189371,1,0,0:0:0:0:
448,192,189371,1,0,0:0:0:0:
320,192,189547,1,0,0:0:0:0:
448,192,189547,1,0,0:0:0:0:
448,192,189724,1,0,0:0:0:0:
64,192,189724,1,0,0:0:0:0:
192,192,189812,1,0,0:0:0:0:
320,192,189812,1,0,0:0:0:0:
64,192,189900,1,0,0:0:0:0:
448,192,189900,1,0,0:0:0:0:
192,192,189989,1,0,0:0:0:0:
320,192,190077,1,0,0:0:0:0:
448,192,190077,1,0,0:0:0:0:
192,192,190165,1,0,0:0:0:0:
64,192,190165,1,0,0:0:0:0:
320,192,190253,1,0,0:0:0:0:
448,192,190253,1,0,0:0:0:0:
64,192,190342,1,0,0:0:0:0:
192,192,190430,1,0,0:0:0:0:
448,192,190430,1,0,0:0:0:0:
320,192,190518,1,0,0:0:0:0:
64,192,190518,1,0,0:0:0:0:
192,192,190606,1,0,0:0:0:0:
448,192,190606,1,0,0:0:0:0:
320,192,190695,1,0,0:0:0:0:
192,192,190783,1,0,0:0:0:0:
64,192,190783,1,0,0:0:0:0:
320,192,190871,1,0,0:0:0:0:
448,192,190871,1,0,0:0:0:0:
192,192,190959,1,0,0:0:0:0:
64,192,190959,1,0,0:0:0:0:
448,192,191047,1,0,0:0:0:0:
64,192,191136,1,0,0:0:0:0:
320,192,191136,1,0,0:0:0:0:
192,192,191136,1,0,0:0:0:0:
320,192,191489,1,0,0:0:0:0:
448,192,191489,1,0,0:0:0:0:
192,192,191489,1,0,0:0:0:0:
192,192,191665,1,0,0:0:0:0:
64,192,191665,1,0,0:0:0:0:
448,192,191842,1,0,0:0:0:0:
320,192,191842,1,0,0:0:0:0:
64,192,191842,1,0,0:0:0:0:
448,192,192018,1,0,0:0:0:0:
192,192,192018,1,0,0:0:0:0:
192,192,192195,1,0,0:0:0:0:
64,192,192195,1,0,0:0:0:0:
320,192,192195,1,0,0:0:0:0:
192,192,192547,1,0,0:0:0:0:
64,192,192547,1,0,0:0:0:0:
320,192,192606,1,0,0:0:0:0:
192,192,192665,1,0,0:0:0:0:
448,192,192724,1,0,0:0:0:0:
64,192,192783,1,0,0:0:0:0:
320,192,192842,1,0,0:0:0:0:
192,192,192900,1,0,0:0:0:0:
448,192,192900,1,0,0:0:0:0:
320,192,192959,1,0,0:0:0:0:
64,192,193018,1,0,0:0:0:0:
448,192,193077,1,0,0:0:0:0:
320,192,193136,1,0,0:0:0:0:
64,192,193195,1,0,0:0:0:0:
192,192,193253,1,0,0:0:0:0:
448,192,193253,1,0,0:0:0:0:
320,192,193312,1,0,0:0:0:0:
64,192,193371,1,0,0:0:0:0:
448,192,193430,1,0,0:0:0:0:
320,192,193489,1,0,0:0:0:0:
64,192,193547,1,0,0:0:0:0:
448,192,193606,1,0,0:0:0:0:
192,192,193606,1,0,0:0:0:0:
320,192,193665,1,0,0:0:0:0:
64,192,193724,1,0,0:0:0:0:
192,192,193783,1,0,0:0:0:0:
448,192,193842,1,0,0:0:0:0:
320,192,193900,1,0,0:0:0:0:
64,192,193959,1,0,0:0:0:0:
192,192,193959,1,0,0:0:0:0:
448,192,194018,1,0,0:0:0:0:
320,192,194077,1,0,0:0:0:0:
64,192,194136,1,0,0:0:0:0:
192,192,194195,1,0,0:0:0:0:
320,192,194253,1,0,0:0:0:0:
192,192,194312,1,0,0:0:0:0:
64,192,194312,1,0,0:0:0:0:
448,192,194371,1,0,0:0:0:0:
320,192,194430,1,0,0:0:0:0:
64,192,194489,1,0,0:0:0:0:
448,192,194547,1,0,0:0:0:0:
192,192,194606,1,0,0:0:0:0:
320,192,194665,1,0,0:0:0:0:
64,192,194665,1,0,0:0:0:0:
448,192,194724,1,0,0:0:0:0:
192,192,194783,1,0,0:0:0:0:
64,192,194842,1,0,0:0:0:0:
448,192,194900,1,0,0:0:0:0:
320,192,194959,1,0,0:0:0:0:
192,192,195018,1,0,0:0:0:0:
64,192,195018,1,0,0:0:0:0:
448,192,195077,1,0,0:0:0:0:
320,192,195136,1,0,0:0:0:0:
192,192,195195,1,0,0:0:0:0:
64,192,195253,1,0,0:0:0:0:
320,192,195312,1,0,0:0:0:0:
192,192,195371,1,0,0:0:0:0:
448,192,195371,1,0,0:0:0:0:
64,192,195459,1,0,0:0:0:0:
192,192,195547,1,0,0:0:0:0:
320,192,195606,1,0,0:0:0:0:
64,192,195665,1,0,0:0:0:0:
448,192,195724,1,0,0:0:0:0:
192,192,195724,1,0,0:0:0:0:
320,192,195783,1,0,0:0:0:0:
448,192,195842,1,0,0:0:0:0:
64,192,195900,1,0,0:0:0:0:
320,192,195959,1,0,0:0:0:0:
192,192,196018,1,0,0:0:0:0:
64,192,196077,1,0,0:0:0:0:
448,192,196077,1,0,0:0:0:0:
320,192,196136,1,0,0:0:0:0:
192,192,196195,1,0,0:0:0:0:
64,192,196253,1,0,0:0:0:0:
320,192,196312,1,0,0:0:0:0:
192,192,196371,1,0,0:0:0:0:
64,192,196430,1,0,0:0:0:0:
448,192,196430,1,0,0:0:0:0:
320,192,196489,1,0,0:0:0:0:
192,192,196547,1,0,0:0:0:0:
64,192,196606,1,0,0:0:0:0:
320,192,196665,1,0,0:0:0:0:
192,192,196724,1,0,0:0:0:0:
448,192,196783,1,0,0:0:0:0:
64,192,196783,1,0,0:0:0:0:
320,192,196842,1,0,0:0:0:0:
64,192,196900,1,0,0:0:0:0:
192,192,196959,1,0,0:0:0:0:
320,192,197018,1,0,0:0:0:0:
448,192,197077,1,0,0:0:0:0:
192,192,197136,1,0,0:0:0:0:
64,192,197136,1,0,0:0:0:0:
320,192,197195,1,0,0:0:0:0:
448,192,197253,1,0,0:0:0:0:
64,192,197312,1,0,0:0:0:0:
192,192,197371,1,0,0:0:0:0:
320,192,197430,1,0,0:0:0:0:
64,192,197489,1,0,0:0:0:0:
448,192,197489,1,0,0:0:0:0:
192,192,197547,1,0,0:0:0:0:
320,192,197606,1,0,0:0:0:0:
64,192,197665,1,0,0:0:0:0:
320,192,197724,1,0,0:0:0:0:
448,192,197783,1,0,0:0:0:0:
192,192,197842,1,0,0:0:0:0:
64,192,197842,1,0,0:0:0:0:
320,192,197900,1,0,0:0:0:0:
64,192,197959,1,0,0:0:0:0:
448,192,198018,1,0,0:0:0:0:
192,192,198077,1,0,0:0:0:0:
448,192,198136,1,0,0:0:0:0:
320,192,198195,1,0,0:0:0:0:
192,192,198195,1,0,0:0:0:0:
64,192,198253,1,0,0:0:0:0:
448,192,198312,1,0,0:0:0:0:
192,192,198371,1,0,0:0:0:0:
320,192,198430,1,0,0:0:0:0:
448,192,198489,1,0,0:0:0:0:
192,192,198547,1,0,0:0:0:0:
64,192,198547,1,0,0:0:0:0:
320,192,198606,1,0,0:0:0:0:
448,192,198665,1,0,0:0:0:0:
192,192,198724,1,0,0:0:0:0:
64,192,198783,1,0,0:0:0:0:
448,192,198842,1,0,0:0:0:0:
320,192,198900,1,0,0:0:0:0:
192,192,198900,1,0,0:0:0:0:
64,192,198959,1,0,0:0:0:0:
448,192,199018,1,0,0:0:0:0:
192,192,199077,1,0,0:0:0:0:
64,192,199136,1,0,0:0:0:0:
448,192,199195,1,0,0:0:0:0:
192,192,199253,1,0,0:0:0:0:
320,192,199253,1,0,0:0:0:0:
64,192,199312,1,0,0:0:0:0:
448,192,199371,1,0,0:0:0:0:
320,192,199430,1,0,0:0:0:0:
192,192,199489,1,0,0:0:0:0:
64,192,199547,1,0,0:0:0:0:
192,192,199606,1,0,0:0:0:0:
320,192,199606,1,0,0:0:0:0:
448,192,199665,1,0,0:0:0:0:
64,192,199724,1,0,0:0:0:0:
320,192,199783,1,0,0:0:0:0:
192,192,199842,1,0,0:0:0:0:
64,192,199900,1,0,0:0:0:0:
320,192,199959,1,0,0:0:0:0:
448,192,199959,1,0,0:0:0:0:
192,192,200018,1,0,0:0:0:0:
64,192,200077,1,0,0:0:0:0:
320,192,200136,1,0,0:0:0:0:
448,192,200195,1,0,0:0:0:0:
64,192,200253,1,0,0:0:0:0:
192,192,200312,1,0,0:0:0:0:
320,192,200312,1,0,0:0:0:0:
448,192,200371,1,0,0:0:0:0:
64,192,200430,1,0,0:0:0:0:
320,192,200489,1,0,0:0:0:0:
448,192,200547,1,0,0:0:0:0:
192,192,200606,1,0,0:0:0:0:
320,192,200665,1,0,0:0:0:0:
64,192,200665,1,0,0:0:0:0:
448,192,200724,1,0,0:0:0:0:
192,192,200783,1,0,0:0:0:0:
64,192,200842,1,0,0:0:0:0:
448,192,200900,1,0,0:0:0:0:
320,192,200959,1,0,0:0:0:0:
192,192,201018,1,0,0:0:0:0:
64,192,201018,1,0,0:0:0:0:
320,192,201106,1,0,0:0:0:0:
448,192,201195,1,0,0:0:0:0:
192,192,201253,1,0,0:0:0:0:
320,192,201312,1,0,0:0:0:0:
64,192,201371,1,0,0:0:0:0:
448,192,201371,1,0,0:0:0:0:
192,192,201430,1,0,0:0:0:0:
64,192,201489,1,0,0:0:0:0:
448,192,201547,1,0,0:0:0:0:
320,192,201606,1,0,0:0:0:0:
64,192,201665,1,0,0:0:0:0:
448,192,201724,1,0,0:0:0:0:
192,192,201724,1,0,0:0:0:0:
320,192,201783,1,0,0:0:0:0:
64,192,201842,1,0,0:0:0:0:
448,192,201900,1,0,0:0:0:0:
320,192,201959,1,0,0:0:0:0:
64,192,202018,1,0,0:0:0:0:
448,192,202077,1,0,0:0:0:0:
192,192,202077,1,0,0:0:0:0:
320,192,202136,1,0,0:0:0:0:
64,192,202195,1,0,0:0:0:0:
448,192,202253,1,0,0:0:0:0:
320,192,202312,1,0,0:0:0:0:
64,192,202371,1,0,0:0:0:0:
192,192,202430,1,0,0:0:0:0:
448,192,202430,1,0,0:0:0:0:
320,192,202489,1,0,0:0:0:0:
64,192,202547,1,0,0:0:0:0:
192,192,202606,1,0,0:0:0:0:
448,192,202665,1,0,0:0:0:0:
64,192,202724,1,0,0:0:0:0:
320,192,202783,1,0,0:0:0:0:
448,192,202783,1,0,0:0:0:0:
192,192,202842,1,0,0:0:0:0:
64,192,202900,1,0,0:0:0:0:
448,192,202959,1,0,0:0:0:0:
320,192,203018,1,0,0:0:0:0:
64,192,203077,1,0,0:0:0:0:
448,192,203136,1,0,0:0:0:0:
192,192,203136,1,0,0:0:0:0:
64,192,203224,1,0,0:0:0:0:
320,192,203224,1,0,0:0:0:0:
192,192,203312,1,0,0:0:0:0:
448,192,203400,1,0,0:0:0:0:
64,192,203400,1,0,0:0:0:0:
320,192,203489,1,0,0:0:0:0:
192,192,203489,1,0,0:0:0:0:
64,192,203547,1,0,0:0:0:0:
448,192,203606,1,0,0:0:0:0:
320,192,203665,1,0,0:0:0:0:
192,192,203724,1,0,0:0:0:0:
64,192,203783,1,0,0:0:0:0:
320,192,203842,1,0,0:0:0:0:
192,192,203842,1,0,0:0:0:0:
448,192,203900,1,0,0:0:0:0:
64,192,203959,1,0,0:0:0:0:
320,192,204018,1,0,0:0:0:0:
192,192,204077,1,0,0:0:0:0:
64,192,204136,1,0,0:0:0:0:
448,192,204195,1,0,0:0:0:0:
320,192,204195,1,0,0:0:0:0:
192,192,204253,1,0,0:0:0:0:
64,192,204312,1,0,0:0:0:0:
320,192,204371,1,0,0:0:0:0:
448,192,204430,1,0,0:0:0:0:
64,192,204489,1,0,0:0:0:0:
320,192,204547,1,0,0:0:0:0:
192,192,204547,1,0,0:0:0:0:
448,192,204606,1,0,0:0:0:0:
64,192,204665,1,0,0:0:0:0:
320,192,204724,1,0,0:0:0:0:
448,192,204783,1,0,0:0:0:0:
64,192,204842,1,0,0:0:0:0:
192,192,204900,1,0,0:0:0:0:
320,192,204900,1,0,0:0:0:0:
448,192,204959,1,0,0:0:0:0:
64,192,205018,1,0,0:0:0:0:
192,192,205077,1,0,0:0:0:0:
320,192,205136,1,0,0:0:0:0:
448,192,205195,1,0,0:0:0:0:
192,192,205253,1,0,0:0:0:0:
320,192,205253,1,0,0:0:0:0:
64,192,205312,1,0,0:0:0:0:
448,192,205371,1,0,0:0:0:0:
192,192,205430,1,0,0:0:0:0:
320,192,205489,1,0,0:0:0:0:
448,192,205547,1,0,0:0:0:0:
64,192,205606,1,0,0:0:0:0:
192,192,205606,1,0,0:0:0:0:
320,192,205665,1,0,0:0:0:0:
448,192,205724,1,0,0:0:0:0:
192,192,205783,1,0,0:0:0:0:
64,192,205842,1,0,0:0:0:0:
448,192,205900,1,0,0:0:0:0:
192,192,205959,1,0,0:0:0:0:
320,192,205959,1,0,0:0:0:0:
64,192,206018,1,0,0:0:0:0:
448,192,206077,1,0,0:0:0:0:
192,192,206136,1,0,0:0:0:0:
64,192,206195,1,0,0:0:0:0:
320,192,206253,1,0,0:0:0:0:
448,192,206312,1,0,0:0:0:0:
192,192,206312,1,0,0:0:0:0:
64,192,206371,1,0,0:0:0:0:
320,192,206430,1,0,0:0:0:0:
448,192,206489,1,0,0:0:0:0:
64,192,206547,1,0,0:0:0:0:
192,192,206606,1,0,0:0:0:0:
448,192,206665,1,0,0:0:0:0:
320,192,206665,1,0,0:0:0:0:
192,192,206753,1,0,0:0:0:0:
64,192,206842,1,0,0:0:0:0:
192,192,206900,1,0,0:0:0:0:
320,192,206959,1,0,0:0:0:0:
64,192,207018,1,0,0:0:0:0:
448,192,207018,1,0,0:0:0:0:
192,192,207077,1,0,0:0:0:0:
448,192,207136,1,0,0:0:0:0:
64,192,207195,1,0,0:0:0:0:
320,192,207253,1,0,0:0:0:0:
448,192,207312,1,0,0:0:0:0:
192,192,207371,1,0,0:0:0:0:
64,192,207371,1,0,0:0:0:0:
320,192,207430,1,0,0:0:0:0:
448,192,207489,1,0,0:0:0:0:
64,192,207547,1,0,0:0:0:0:
320,192,207606,1,0,0:0:0:0:
448,192,207665,1,0,0:0:0:0:
192,192,207724,1,0,0:0:0:0:
64,192,207724,1,0,0:0:0:0:
320,192,207783,1,0,0:0:0:0:
448,192,207842,1,0,0:0:0:0:
64,192,207900,1,0,0:0:0:0:
320,192,207959,1,0,0:0:0:0:
448,192,208018,1,0,0:0:0:0:
64,192,208077,1,0,0:0:0:0:
192,192,208077,1,0,0:0:0:0:
320,192,208136,1,0,0:0:0:0:
64,192,208195,1,0,0:0:0:0:
448,192,208253,1,0,0:0:0:0:
192,192,208312,1,0,0:0:0:0:
320,192,208371,1,0,0:0:0:0:
64,192,208430,1,0,0:0:0:0:
192,192,208430,1,0,0:0:0:0:
448,192,208489,1,0,0:0:0:0:
320,192,208547,1,0,0:0:0:0:
64,192,208606,1,0,0:0:0:0:
192,192,208665,1,0,0:0:0:0:
448,192,208724,1,0,0:0:0:0:
64,192,208783,1,0,0:0:0:0:
320,192,208783,1,0,0:0:0:0:
192,192,208842,1,0,0:0:0:0:
448,192,208900,1,0,0:0:0:0:
64,192,208959,1,0,0:0:0:0:
320,192,209018,1,0,0:0:0:0:
448,192,209077,1,0,0:0:0:0:
64,192,209136,1,0,0:0:0:0:
192,192,209136,1,0,0:0:0:0:
320,192,209195,1,0,0:0:0:0:
448,192,209253,1,0,0:0:0:0:
192,192,209312,1,0,0:0:0:0:
64,192,209371,1,0,0:0:0:0:
448,192,209430,1,0,0:0:0:0:
320,192,209489,1,0,0:0:0:0:
192,192,209489,1,0,0:0:0:0:
64,192,209547,1,0,0:0:0:0:
448,192,209606,1,0,0:0:0:0:
192,192,209665,1,0,0:0:0:0:
320,192,209724,1,0,0:0:0:0:
448,192,209783,1,0,0:0:0:0:
192,192,209842,1,0,0:0:0:0:
64,192,209842,1,0,0:0:0:0:
320,192,209900,1,0,0:0:0:0:
448,192,209959,1,0,0:0:0:0:
192,192,210018,1,0,0:0:0:0:
64,192,210077,1,0,0:0:0:0:
448,192,210136,1,0,0:0:0:0:
320,192,210195,1,0,0:0:0:0:
192,192,210195,1,0,0:0:0:0:
64,192,210253,1,0,0:0:0:0:
448,192,210312,1,0,0:0:0:0:
192,192,210371,1,0,0:0:0:0:
64,192,210430,1,0,0:0:0:0:
448,192,210489,1,0,0:0:0:0:
192,192,210547,1,0,0:0:0:0:
320,192,210547,1,0,0:0:0:0:
64,192,210606,1,0,0:0:0:0:
448,192,210665,1,0,0:0:0:0:
320,192,210724,1,0,0:0:0:0:
192,192,210783,1,0,0:0:0:0:
64,192,210842,1,0,0:0:0:0:
192,192,210900,1,0,0:0:0:0:
320,192,210900,1,0,0:0:0:0:
448,192,210959,1,0,0:0:0:0:
64,192,211018,1,0,0:0:0:0:
320,192,211077,1,0,0:0:0:0:
192,192,211136,1,0,0:0:0:0:
64,192,211195,1,0,0:0:0:0:
320,192,211253,1,0,0:0:0:0:
448,192,211253,1,0,0:0:0:0:
192,192,211312,1,0,0:0:0:0:
64,192,211371,1,0,0:0:0:0:
320,192,211430,1,0,0:0:0:0:
448,192,211489,1,0,0:0:0:0:
64,192,211547,1,0,0:0:0:0:
192,192,211606,1,0,0:0:0:0:
320,192,211606,1,0,0:0:0:0:
448,192,211665,1,0,0:0:0:0:
64,192,211724,1,0,0:0:0:0:
320,192,211783,1,0,0:0:0:0:
448,192,211842,1,0,0:0:0:0:
192,192,211900,1,0,0:0:0:0:
320,192,211959,1,0,0:0:0:0:
64,192,211959,1,0,0:0:0:0:
448,192,212018,1,0,0:0:0:0:
192,192,212077,1,0,0:0:0:0:
64,192,212136,1,0,0:0:0:0:
448,192,212195,1,0,0:0:0:0:
320,192,212253,1,0,0:0:0:0:
192,192,212312,1,0,0:0:0:0:
192,192,212665,1,0,0:0:0:0:
64,192,213018,1,0,0:0:0:0:
320,192,213018,1,0,0:0:0:0:
192,192,213195,1,0,0:0:0:0:
64,192,213283,1,0,0:0:0:0:
448,192,213283,1,0,0:0:0:0:
64,192,213547,1,0,0:0:0:0:
448,192,213547,1,0,0:0:0:0:
192,192,213724,1,0,0:0:0:0:
320,192,213724,1,0,0:0:0:0:
448,192,213724,1,0,0:0:0:0:
320,192,213900,1,0,0:0:0:0:
192,192,213900,1,0,0:0:0:0:
192,192,214077,1,0,0:0:0:0:
448,192,214077,1,0,0:0:0:0:
320,192,214165,1,0,0:0:0:0:
192,192,214253,1,0,0:0:0:0:
64,192,214253,1,0,0:0:0:0:
64,192,214430,1,0,0:0:0:0:
320,192,214430,1,0,0:0:0:0:
448,192,214430,1,0,0:0:0:0:
192,192,214606,1,0,0:0:0:0:
320,192,214606,1,0,0:0:0:0:
448,192,214695,1,0,0:0:0:0:
192,192,214783,1,0,0:0:0:0:
320,192,214783,1,0,0:0:0:0:
64,192,214783,1,0,0:0:0:0:
64,192,214959,1,0,0:0:0:0:
192,192,214959,1,0,0:0:0:0:
192,192,215136,1,0,0:0:0:0:
448,192,215136,1,0,0:0:0:0:
320,192,215136,1,0,0:0:0:0:
64,192,215224,1,0,0:0:0:0:
320,192,215312,1,0,0:0:0:0:
448,192,215400,1,0,0:0:0:0:
192,192,215489,1,0,0:0:0:0:
64,192,215489,1,0,0:0:0:0:
320,192,215489,1,0,0:0:0:0:
448,192,215577,1,0,0:0:0:0:
64,192,215665,1,0,0:0:0:0:
192,192,215753,1,0,0:0:0:0:
64,192,215842,1,0,0:0:0:0:
320,192,215842,1,0,0:0:0:0:
448,192,215842,1,0,0:0:0:0:
192,192,215930,1,0,0:0:0:0:
448,192,216018,1,0,0:0:0:0:
320,192,216106,1,0,0:0:0:0:
192,192,216195,1,0,0:0:0:0:
448,192,216195,1,0,0:0:0:0:
64,192,216195,1,0,0:0:0:0:
320,192,216283,1,0,0:0:0:0:
64,192,216371,1,0,0:0:0:0:
192,192,216459,1,0,0:0:0:0:
64,192,216547,1,0,0:0:0:0:
320,192,216547,1,0,0:0:0:0:
448,192,216547,1,0,0:0:0:0:
192,192,216636,1,0,0:0:0:0:
320,192,216724,1,0,0:0:0:0:
64,192,216812,1,0,0:0:0:0:
192,192,216900,1,0,0:0:0:0:
448,192,216900,1,0,0:0:0:0:
320,192,216900,1,0,0:0:0:0:
64,192,216989,1,0,0:0:0:0:
192,192,217077,1,0,0:0:0:0:
448,192,217165,1,0,0:0:0:0:
320,192,217253,1,0,0:0:0:0:
192,192,217253,1,0,0:0:0:0:
64,192,217253,1,0,0:0:0:0:
448,192,217342,1,0,0:0:0:0:
320,192,217430,1,0,0:0:0:0:
192,192,217518,1,0,0:0:0:0:
64,192,217606,1,0,0:0:0:0:
320,192,217606,1,0,0:0:0:0:
448,192,217606,1,0,0:0:0:0:
192,192,217695,1,0,0:0:0:0:
64,192,217783,1,0,0:0:0:0:
320,192,217871,1,0,0:0:0:0:
192,192,217959,1,0,0:0:0:0:
64,192,217959,1,0,0:0:0:0:
448,192,217959,1,0,0:0:0:0:
320,192,218047,1,0,0:0:0:0:
448,192,218136,1,0,0:0:0:0:
192,192,218224,1,0,0:0:0:0:
320,192,218312,1,0,0:0:0:0:
64,192,218312,1,0,0:0:0:0:
448,192,218312,1,0,0:0:0:0:
192,192,218400,1,0,0:0:0:0:
320,192,218489,1,0,0:0:0:0:
64,192,218577,1,0,0:0:0:0:
192,192,218665,1,0,0:0:0:0:
320,192,218665,1,0,0:0:0:0:
448,192,218665,1,0,0:0:0:0:
64,192,218753,1,0,0:0:0:0:
320,192,218842,1,0,0:0:0:0:
448,192,218930,1,0,0:0:0:0:
192,192,219018,1,0,0:0:0:0:
64,192,219018,1,0,0:0:0:0:
320,192,219018,1,0,0:0:0:0:
448,192,219106,1,0,0:0:0:0:
64,192,219195,1,0,0:0:0:0:
192,192,219283,1,0,0:0:0:0:
64,192,219371,1,0,0:0:0:0:
320,192,219371,1,0,0:0:0:0:
448,192,219371,1,0,0:0:0:0:
192,192,219459,1,0,0:0:0:0:
448,192,219547,1,0,0:0:0:0:
320,192,219636,1,0,0:0:0:0:
192,192,219724,1,0,0:0:0:0:
448,192,219724,1,0,0:0:0:0:
64,192,219724,1,0,0:0:0:0:
320,192,219812,1,0,0:0:0:0:
64,192,219900,1,0,0:0:0:0:
192,192,219989,1,0,0:0:0:0:
64,192,220077,1,0,0:0:0:0:
320,192,220077,1,0,0:0:0:0:
448,192,220077,1,0,0:0:0:0:
192,192,220165,1,0,0:0:0:0:
320,192,220253,1,0,0:0:0:0:
64,192,220342,1,0,0:0:0:0:
192,192,220430,1,0,0:0:0:0:
448,192,220430,1,0,0:0:0:0:
320,192,220430,1,0,0:0:0:0:
320,192,220783,1,0,0:0:0:0:
192,192,220783,1,0,0:0:0:0:
64,192,220783,1,0,0:0:0:0:
448,192,220871,1,0,0:0:0:0:
320,192,220959,1,0,0:0:0:0:
192,192,221047,1,0,0:0:0:0:
64,192,221136,1,0,0:0:0:0:
320,192,221136,1,0,0:0:0:0:
448,192,221136,1,0,0:0:0:0:
192,192,221224,1,0,0:0:0:0:
64,192,221312,1,0,0:0:0:0:
320,192,221400,1,0,0:0:0:0:
192,192,221489,1,0,0:0:0:0:
64,192,221489,1,0,0:0:0:0:
448,192,221489,1,0,0:0:0:0:
320,192,221577,1,0,0:0:0:0:
192,192,221665,1,0,0:0:0:0:
448,192,221753,1,0,0:0:0:0:
320,192,221842,1,0,0:0:0:0:
64,192,221842,1,0,0:0:0:0:
192,192,221842,1,0,0:0:0:0:
448,192,221930,1,0,0:0:0:0:
320,192,222018,1,0,0:0:0:0:
64,192,222106,1,0,0:0:0:0:
192,192,222195,1,0,0:0:0:0:
320,192,222195,1,0,0:0:0:0:
448,192,222195,1,0,0:0:0:0:
64,192,222283,1,0,0:0:0:0:
192,192,222371,1,0,0:0:0:0:
448,192,222459,1,0,0:0:0:0:
320,192,222547,1,0,0:0:0:0:
64,192,222547,1,0,0:0:0:0:
192,192,222547,1,0,0:0:0:0:
448,192,222636,1,0,0:0:0:0:
64,192,222724,1,0,0:0:0:0:
192,192,222812,1,0,0:0:0:0:
448,192,222900,1,0,0:0:0:0:
320,192,222900,1,0,0:0:0:0:
64,192,222900,1,0,0:0:0:0:
192,192,222989,1,0,0:0:0:0:
448,192,223077,1,0,0:0:0:0:
320,192,223165,1,0,0:0:0:0:
64,192,223253,1,0,0:0:0:0:
448,192,223253,1,0,0:0:0:0:
192,192,223253,1,0,0:0:0:0:
320,192,223342,1,0,0:0:0:0:
448,192,223430,1,0,0:0:0:0:
192,192,223518,1,0,0:0:0:0:
448,192,223606,1,0,0:0:0:0:
320,192,223606,1,0,0:0:0:0:
64,192,223606,1,0,0:0:0:0:
192,192,223695,1,0,0:0:0:0:
320,192,223783,1,0,0:0:0:0:
64,192,223871,1,0,0:0:0:0:
320,192,223959,1,0,0:0:0:0:
448,192,223959,1,0,0:0:0:0:
192,192,223959,1,0,0:0:0:0:
64,192,224047,1,0,0:0:0:0:
192,192,224136,1,0,0:0:0:0:
448,192,224224,1,0,0:0:0:0:
64,192,224312,1,0,0:0:0:0:
192,192,224312,1,0,0:0:0:0:
320,192,224312,1,0,0:0:0:0:
448,192,224400,1,0,0:0:0:0:
320,192,224489,1,0,0:0:0:0:
192,192,224577,1,0,0:0:0:0:
448,192,224665,1,0,0:0:0:0:
320,192,224665,1,0,0:0:0:0:
64,192,224665,1,0,0:0:0:0:
192,192,224753,1,0,0:0:0:0:
64,192,224842,1,0,0:0:0:0:
320,192,224930,1,0,0:0:0:0:
448,192,225018,1,0,0:0:0:0:
64,192,225018,1,0,0:0:0:0:
192,192,225018,1,0,0:0:0:0:
320,192,225106,1,0,0:0:0:0:
192,192,225195,1,0,0:0:0:0:
448,192,225283,5,0,0:0:0:0:
192,192,225371,1,0,0:0:0:0:
64,192,225371,1,0,0:0:0:0:
320,192,225371,1,0,0:0:0:0:
448,192,225459,1,0,0:0:0:0:
320,192,225547,1,0,0:0:0:0:
64,192,225636,1,0,0:0:0:0:
448,192,225724,1,0,0:0:0:0:
320,192,225724,1,0,0:0:0:0:
192,192,225812,1,0,0:0:0:0:
64,192,225812,1,0,0:0:0:0:
448,192,225900,1,0,0:0:0:0:
192,192,225989,1,0,0:0:0:0:
320,192,225989,1,0,0:0:0:0:
64,192,226077,1,0,0:0:0:0:
448,192,226077,1,0,0:0:0:0:
320,192,226253,1,0,0:0:0:0:
