osu file format v14

[General]
AudioFilename: audio.mp3
AudioLeadIn: 0
PreviewTime: 56510
Countdown: 0
SampleSet: Drum
StackLeniency: 0.7
Mode: 3
LetterboxInBreaks: 0
SpecialStyle: 0
WidescreenStoryboard: 1

[Editor]
Bookmarks: 59693,90398,101693,112987,138398,169457
DistanceSpacing: 1
BeatDivisor: 4
GridSize: 8
TimelineZoom: 1.2

[Metadata]
Title:Party Don't Stop
TitleUnicode:Party Don't Stop
Artist:Darren Styles, Dougal & Gammer
ArtistUnicode:Darren Styles, Dougal & Gammer
Creator:Voxa
Version:DH's Hard
Source:
Tags:dont uncaged vol. volume 2 two electronic cyber dubstep Happy Hardcore dudehacker hard dance monstercat instrumental dh drum-hitnormal darckoseth
BeatmapID:1778690
BeatmapSetID:843916

[Difficulty]
HPDrainRate:8
CircleSize:4
OverallDifficulty:8
ApproachRate:5
SliderMultiplier:1.4
SliderTickRate:1

[Events]
//Background and Video events
0,0,"bg.jpg",0,0
//Break Periods
//Storyboard Layer 0 (Background)
//Storyboard Layer 1 (Fail)
//Storyboard Layer 2 (Pass)
//Storyboard Layer 3 (Foreground)
//Storyboard Layer 4 (Overlay)
//Storyboard Sound Samples
Sample,45216,0,"LR_CymbalQST.wav",70
Sample,47863,0,"Snare.wav",70
Sample,48039,0,"LR_Clap Normal.wav",70
Sample,50687,0,"Snare.wav",70
Sample,109451,0,"Snare.wav",70
Sample,111216,0,"Snare.wav",70
Sample,112275,0,"Snare.wav",70
Sample,126922,0,"Snare.wav",70
Sample,127098,0,"LR_Clap Normal.wav",70
Sample,129745,0,"Snare.wav",70
Sample,132922,0,"Snare.wav",70

[TimingPoints]
40,352.941176470588,4,3,1,55,1,0
59334,-100,4,3,1,55,0,1
90039,-100,4,3,1,55,0,0
138392,-100,4,3,1,55,0,1
169098,-100,4,3,1,55,0,0

[HitObjects]
192,192,40,5,6,0:0:0:0:
448,192,216,1,0,0:0:0:0:
64,192,392,1,8,0:0:0:0:
320,192,392,1,0,0:0:0:0:
448,192,569,1,0,0:0:0:0:
192,192,745,1,6,0:0:0:0:
448,192,922,1,0,0:0:0:0:
64,192,1098,1,8,0:0:0:0:
320,192,1098,1,0,0:0:0:0:
448,192,1275,1,0,0:0:0:0:
192,192,1451,1,6,0:0:0:0:
448,192,1628,1,0,0:0:0:0:
64,192,1804,1,8,0:0:0:0:
320,192,1804,1,0,0:0:0:0:
448,192,1981,1,0,0:0:0:0:
192,192,2157,1,6,0:0:0:0:
448,192,2334,1,0,0:0:0:0:
64,192,2510,1,8,0:0:0:0:
320,192,2510,1,0,0:0:0:0:
320,192,2863,1,6,0:0:0:0:
64,192,3039,1,0,0:0:0:0:
192,192,3216,1,8,0:0:0:0:
448,192,3216,1,0,0:0:0:0:
64,192,3392,1,0,0:0:0:0:
320,192,3569,1,6,0:0:0:0:
64,192,3745,1,0,0:0:0:0:
192,192,3922,1,8,0:0:0:0:
448,192,3922,1,0,0:0:0:0:
64,192,4098,1,0,0:0:0:0:
320,192,4275,1,6,0:0:0:0:
64,192,4451,1,0,0:0:0:0:
192,192,4628,1,8,0:0:0:0:
448,192,4628,1,0,0:0:0:0:
64,192,4804,1,0,0:0:0:0:
320,192,4981,1,6,0:0:0:0:
64,192,5157,1,0,0:0:0:0:
448,192,5334,128,0,5510:0:0:0:0:
320,192,5510,128,0,5687:0:0:0:0:
192,192,5687,1,6,0:0:0:0:
448,192,5863,1,0,0:0:0:0:
64,192,6039,1,8,0:0:0:0:
320,192,6039,1,0,0:0:0:0:
448,192,6216,1,0,0:0:0:0:
192,192,6392,1,6,0:0:0:0:
448,192,6569,1,0,0:0:0:0:
64,192,6745,1,8,0:0:0:0:
320,192,6745,1,0,0:0:0:0:
448,192,6922,1,0,0:0:0:0:
192,192,7098,1,6,0:0:0:0:
448,192,7275,1,0,0:0:0:0:
64,192,7451,1,8,0:0:0:0:
320,192,7451,1,0,0:0:0:0:
448,192,7628,1,0,0:0:0:0:
192,192,7804,1,6,0:0:0:0:
448,192,7981,1,0,0:0:0:0:
64,192,8157,1,8,0:0:0:0:
320,192,8157,1,0,0:0:0:0:
192,192,8510,1,6,0:0:0:0:
64,192,8687,1,0,0:0:0:0:
320,192,8863,1,8,0:0:0:0:
448,192,8863,1,0,0:0:0:0:
64,192,9039,1,0,0:0:0:0:
192,192,9216,1,6,0:0:0:0:
64,192,9392,1,0,0:0:0:0:
320,192,9569,1,8,0:0:0:0:
448,192,9569,1,0,0:0:0:0:
64,192,9745,1,0,0:0:0:0:
64,192,10098,1,0,0:0:0:70:Tom2.wav
192,192,10187,1,0,0:0:0:70:Tom2.wav
320,192,10275,1,0,0:0:0:70:Tom1.wav
448,192,10275,1,0,0:0:0:0:
64,192,10451,1,0,0:0:0:70:Tom2.wav
192,192,10451,1,0,0:0:0:0:
64,192,10628,1,0,0:0:0:70:Tom2.wav
192,192,10628,1,0,0:0:0:0:
320,192,10804,1,0,0:0:0:70:Tom1.wav
448,192,10804,1,0,0:0:0:0:
192,192,10981,1,0,0:0:0:70:Tom3.wav
320,192,10981,1,0,0:0:0:0:
192,192,11157,1,0,0:0:0:70:Tom3.wav
320,192,11157,1,0,0:0:0:0:
64,192,11334,1,2,0:0:0:0:
192,192,11334,1,0,0:0:0:70:LR_CymbalQST.wav
448,192,11334,1,0,0:0:0:0:
64,192,11687,1,2,0:0:0:0:
320,192,11687,1,8,0:0:0:0:
192,192,11863,1,0,0:0:0:70:Snare.wav
448,192,11863,1,0,0:0:0:0:
64,192,12039,1,2,0:0:0:0:
320,192,12039,1,0,0:0:0:0:
448,192,12216,1,0,0:0:0:0:
64,192,12392,1,2,0:0:0:0:
320,192,12392,1,8,0:0:0:0:
448,192,12569,1,0,0:0:0:0:
64,192,12745,1,2,0:0:0:0:
320,192,12745,1,0,0:0:0:0:
192,192,12922,1,0,0:0:0:70:Snare.wav
448,192,12922,1,0,0:0:0:0:
64,192,13098,1,2,0:0:0:0:
320,192,13098,1,8,0:0:0:0:
448,192,13275,1,0,0:0:0:0:
64,192,13451,1,2,0:0:0:0:
320,192,13451,1,0,0:0:0:0:
448,192,13628,1,0,0:0:0:0:
64,192,13804,1,2,0:0:0:0:
320,192,13804,1,8,0:0:0:0:
192,192,13981,1,0,0:0:0:70:Snare.wav
320,192,14069,1,0,0:0:0:70:Snare.wav
64,192,14157,1,2,0:0:0:0:
448,192,14157,1,0,0:0:0:0:
320,192,14334,1,0,0:0:0:0:
64,192,14510,1,2,0:0:0:0:
448,192,14510,1,8,0:0:0:0:
192,192,14687,1,0,0:0:0:70:Snare.wav
320,192,14687,1,0,0:0:0:0:
64,192,14863,1,2,0:0:0:0:
448,192,14863,1,0,0:0:0:0:
320,192,15039,1,0,0:0:0:0:
64,192,15216,1,2,0:0:0:0:
448,192,15216,1,8,0:0:0:0:
320,192,15392,1,0,0:0:0:0:
64,192,15569,1,2,0:0:0:0:
192,192,15745,1,0,0:0:0:70:Snare.wav
320,192,15745,1,0,0:0:0:0:
64,192,15922,1,2,0:0:0:0:
448,192,15922,1,8,0:0:0:0:
192,192,16098,1,0,0:0:0:70:Snare.wav
320,192,16098,1,0,0:0:0:0:
64,192,16275,1,2,0:0:0:0:
448,192,16275,1,0,0:0:0:0:
320,192,16451,1,0,0:0:0:0:
64,192,16628,128,0,16804:0:0:0:0:
192,192,16804,128,0,16981:0:0:0:0:
448,192,16981,1,2,0:0:0:0:
320,192,17157,1,0,0:0:0:70:Snare.wav
192,192,17245,1,0,0:0:0:70:Snare.wav
64,192,17334,1,2,0:0:0:0:
448,192,17334,1,8,0:0:0:0:
192,192,17510,1,0,0:0:0:70:Snare.wav
320,192,17598,1,0,0:0:0:70:Snare.wav
64,192,17687,1,2,0:0:0:0:
448,192,17687,1,0,0:0:0:0:
320,192,17863,1,0,0:0:0:70:Snare.wav
192,192,17951,1,0,0:0:0:70:Snare.wav
64,192,18039,1,2,0:0:0:0:
448,192,18039,1,8,0:0:0:0:
192,192,18216,1,0,0:0:0:70:Snare.wav
320,192,18304,1,0,0:0:0:70:Snare.wav
64,192,18392,1,2,0:0:0:0:
448,192,18392,1,0,0:0:0:0:
448,192,18569,1,0,0:0:0:70:Snare.wav
320,192,18657,1,0,0:0:0:70:Snare.wav
64,192,18745,1,2,0:0:0:0:
192,192,18745,1,8,0:0:0:0:
64,192,18922,1,0,0:0:0:70:Snare.wav
192,192,19010,1,0,0:0:0:70:Snare.wav
320,192,19098,1,2,0:0:0:0:
448,192,19098,1,0,0:0:0:0:
448,192,19275,1,0,0:0:0:70:Snare.wav
320,192,19363,1,0,0:0:0:70:Snare.wav
64,192,19451,1,2,0:0:0:0:
192,192,19451,1,8,0:0:0:0:
64,192,19628,1,0,0:0:0:70:Snare.wav
192,192,19716,1,0,0:0:0:70:Snare.wav
320,192,19804,1,2,0:0:0:0:
448,192,19804,1,0,0:0:0:0:
64,192,19892,1,0,0:0:0:70:Snare.wav
192,192,19981,1,0,0:0:0:70:Snare.wav
320,192,20069,1,0,0:0:0:70:Snare.wav
448,192,20157,1,10,0:0:0:0:
64,192,20245,1,0,0:0:0:70:Snare.wav
192,192,20334,1,0,0:0:0:70:Snare.wav
320,192,20422,1,0,0:0:0:70:Snare.wav
448,192,20510,1,2,0:0:0:0:
64,192,20598,1,0,0:0:0:70:Snare.wav
192,192,20687,1,0,0:0:0:70:Snare.wav
320,192,20775,1,0,0:0:0:70:Snare.wav
448,192,20863,1,10,0:0:0:0:
64,192,20951,1,0,0:0:0:70:Snare.wav
192,192,21039,1,0,0:0:0:70:Snare.wav
320,192,21128,1,0,0:0:0:70:Snare.wav
64,192,21922,1,0,0:0:0:70:Tom1.wav
192,192,22098,1,0,0:0:0:70:Tom1.wav
320,192,22187,1,0,0:0:0:70:Tom1.wav
448,192,22275,1,0,0:0:0:70:Tom2.wav
448,192,22451,1,0,0:0:0:70:Tom2.wav
64,192,22628,128,0,22981:0:0:0:70:LR_CymbalQST.wav
320,192,22628,128,0,22804:0:0:0:0:
192,192,22981,128,0,23157:0:0:0:0:
64,192,23334,128,0,23510:0:0:0:80:drum-hitfinish.wav
192,192,23687,128,0,23863:0:0:0:0:
320,192,24039,128,0,24216:0:0:0:70:drum-hitfinish.wav
448,192,24392,128,0,24569:0:0:0:0:
320,192,24745,128,0,24922:0:0:0:65:drum-hitfinish.wav
192,192,25098,128,0,25275:0:0:0:0:
64,192,25451,128,0,25628:0:0:0:60:drum-hitfinish.wav
192,192,25804,128,0,25981:0:0:0:0:
320,192,26157,128,0,26334:0:0:0:55:drum-hitfinish.wav
448,192,26510,128,0,26687:0:0:0:0:
320,192,26863,128,0,27039:0:0:0:50:drum-hitfinish.wav
192,192,27216,128,0,27392:0:0:0:0:
64,192,27569,128,0,27745:0:0:0:45:drum-hitfinish.wav
192,192,27922,128,0,28098:0:0:0:0:
320,192,28275,128,0,28451:0:0:0:30:drum-hitfinish.wav
448,192,28628,128,0,28804:0:0:0:0:
320,192,28981,128,0,29157:0:0:0:25:drum-hitfinish.wav
192,192,29334,128,0,29510:0:0:0:0:
64,192,29687,128,0,29863:0:0:0:20:drum-hitfinish.wav
192,192,30039,128,0,30216:0:0:0:0:
320,192,30392,128,0,30569:0:0:0:20:drum-hitfinish.wav
448,192,30745,128,0,30922:0:0:0:0:
320,192,31098,128,0,31275:0:0:0:20:drum-hitfinish.wav
192,192,31451,128,0,31628:0:0:0:0:
64,192,31804,128,0,31981:0:0:0:0:
192,192,32157,128,0,32334:0:0:0:0:
320,192,32510,128,0,32687:0:0:0:0:
64,192,32687,1,0,0:0:0:70:Tom2.wav
192,192,32775,1,0,0:0:0:70:Tom2.wav
320,192,32863,1,0,0:0:0:70:Tom1.wav
448,192,32863,1,0,0:0:0:0:
64,192,33039,1,0,0:0:0:70:Tom2.wav
192,192,33039,1,0,0:0:0:0:
64,192,33216,1,0,0:0:0:70:Tom2.wav
192,192,33216,1,0,0:0:0:0:
320,192,33392,1,0,0:0:0:70:Tom1.wav
448,192,33392,1,0,0:0:0:0:
192,192,33569,1,0,0:0:0:70:Tom3.wav
320,192,33569,1,0,0:0:0:0:
192,192,33745,1,0,0:0:0:70:Tom3.wav
320,192,33745,1,0,0:0:0:0:
64,192,33922,1,0,0:0:0:70:LR_Clap Normal.wav
320,192,33922,1,0,0:0:0:0:
448,192,33922,1,0,0:0:0:0:
64,192,34275,128,0,34451:0:0:0:70:LR_Clap Normal.wav
320,192,34275,1,0,0:0:0:0:
64,192,34628,128,0,34804:0:0:0:70:LR_Clap Normal.wav
320,192,34628,1,0,0:0:0:0:
64,192,34981,128,0,35157:0:0:0:70:LR_Clap Normal.wav
320,192,34981,1,0,0:0:0:0:
64,192,35334,128,0,35510:0:0:0:70:LR_Clap Normal.wav
320,192,35334,1,0,0:0:0:0:
192,192,35687,1,0,0:0:0:70:LR_Clap Normal.wav
448,192,35687,128,0,35863:0:0:0:0:
192,192,36039,1,0,0:0:0:70:LR_Clap Normal.wav
448,192,36039,128,0,36216:0:0:0:0:
192,192,36392,1,0,0:0:0:70:LR_Clap Normal.wav
448,192,36392,128,0,36569:0:0:0:0:
192,192,36745,1,0,0:0:0:70:LR_Clap Normal.wav
448,192,36745,128,0,36922:0:0:0:0:
64,192,37098,1,0,0:0:0:70:LR_Clap Normal.wav
320,192,37098,128,0,37275:0:0:0:0:
64,192,37451,1,0,0:0:0:70:LR_Clap Normal.wav
320,192,37451,128,0,37628:0:0:0:0:
64,192,37804,1,0,0:0:0:70:LR_Clap Normal.wav
320,192,37804,128,0,37981:0:0:0:0:
64,192,38157,1,0,0:0:0:70:LR_Clap Normal.wav
320,192,38157,128,0,38334:0:0:0:0:
192,192,38510,128,0,38687:0:0:0:70:LR_Clap Normal.wav
448,192,38510,1,0,0:0:0:0:
192,192,38863,128,0,39039:0:0:0:70:LR_Clap Normal.wav
448,192,38863,1,0,0:0:0:0:
192,192,39216,128,0,39392:0:0:0:70:LR_Clap Normal.wav
448,192,39216,1,0,0:0:0:0:
64,192,39392,1,0,0:0:0:70:Snare.wav
320,192,39481,1,0,0:0:0:70:Snare.wav
192,192,39569,128,0,39745:0:0:0:70:LR_Clap Normal.wav
448,192,39569,1,0,0:0:0:0:
192,192,39922,1,0,0:0:0:70:LR_Clap Normal.wav
448,192,39922,128,0,40098:0:0:0:0:
64,192,40098,1,0,0:0:0:70:Snare.wav
192,192,40275,1,0,0:0:0:70:LR_Clap Normal.wav
448,192,40275,128,0,40451:0:0:0:0:
64,192,40628,1,0,0:0:0:70:LR_Clap Normal.wav
192,192,40628,1,0,0:0:0:70:Snare.wav
448,192,40628,128,0,40804:0:0:0:0:
192,192,40981,1,0,0:0:0:70:LR_Clap Normal.wav
448,192,40981,128,0,41157:0:0:0:0:
64,192,41157,1,0,0:0:0:70:Snare.wav
64,192,41334,1,0,0:0:0:70:LR_Clap Normal.wav
192,192,41334,128,0,41510:0:0:0:0:
64,192,41687,1,0,0:0:0:70:LR_Clap Normal.wav
192,192,41687,128,0,41863:0:0:0:70:Snare.wav
320,192,41687,1,0,0:0:0:0:
64,192,42039,1,0,0:0:0:70:LR_Clap Normal.wav
192,192,42039,128,0,42216:0:0:0:0:
320,192,42216,1,0,0:0:0:70:Snare.wav
448,192,42304,1,0,0:0:0:70:Snare.wav
64,192,42392,1,0,0:0:0:70:LR_Clap Normal.wav
192,192,42392,128,0,42569:0:0:0:0:
320,192,42745,128,0,42922:0:0:0:70:LR_Clap Normal.wav
448,192,42745,1,0,0:0:0:0:
64,192,42922,1,0,0:0:0:70:Snare.wav
320,192,43098,128,0,43275:0:0:0:70:LR_Clap Normal.wav
448,192,43098,1,0,0:0:0:0:
64,192,43451,1,0,0:0:0:70:LR_Clap Normal.wav
320,192,43451,128,0,43628:0:0:0:70:Snare.wav
448,192,43451,1,0,0:0:0:0:
320,192,43804,128,0,43981:0:0:0:70:LR_Clap Normal.wav
448,192,43804,1,0,0:0:0:0:
64,192,43981,1,0,0:0:0:70:Snare.wav
64,192,44157,128,0,44334:0:0:0:70:LR_Clap Normal.wav
192,192,44157,1,0,0:0:0:0:
320,192,44334,1,0,0:0:0:70:Snare.wav
64,192,44510,128,0,44687:0:0:0:70:LR_Clap Normal.wav
192,192,44510,1,0,0:0:0:70:Snare.wav
448,192,44510,1,0,0:0:0:0:
64,192,44863,128,0,45039:0:0:0:70:LR_Clap Normal.wav
192,192,44863,1,0,0:0:0:0:
192,192,45128,1,0,0:0:0:70:Snare.wav
320,192,45216,1,2,0:0:0:0:
448,192,45216,1,0,0:0:0:70:Snare.wav
448,192,45392,1,0,0:0:0:70:Snare.wav
320,192,45481,1,0,0:0:0:70:Snare.wav
64,192,45569,1,2,0:0:0:0:
192,192,45569,1,0,0:0:0:70:LR_Clap Normal.wav
64,192,45745,1,0,0:0:0:70:Snare.wav
192,192,45834,1,0,0:0:0:70:Snare.wav
320,192,45922,1,2,0:0:0:0:
448,192,45922,1,0,0:0:0:70:LR_Clap Normal.wav
448,192,46098,1,0,0:0:0:70:Snare.wav
320,192,46187,1,0,0:0:0:70:Snare.wav
64,192,46275,1,2,0:0:0:0:
192,192,46275,1,0,0:0:0:70:LR_Clap Normal.wav
64,192,46451,1,0,0:0:0:70:Snare.wav
192,192,46539,1,0,0:0:0:70:Snare.wav
320,192,46628,1,2,0:0:0:0:
448,192,46628,1,0,0:0:0:70:LR_Clap Normal.wav
320,192,46804,1,0,0:0:0:70:Snare.wav
192,192,46892,1,0,0:0:0:70:Snare.wav
64,192,46981,1,2,0:0:0:0:
448,192,46981,1,0,0:0:0:70:LR_Clap Normal.wav
192,192,47157,1,0,0:0:0:70:Snare.wav
320,192,47245,1,0,0:0:0:70:Snare.wav
64,192,47334,1,2,0:0:0:0:
448,192,47334,1,0,0:0:0:70:LR_Clap Normal.wav
320,192,47510,1,0,0:0:0:70:Snare.wav
192,192,47598,1,0,0:0:0:70:Snare.wav
64,192,47687,1,2,0:0:0:0:
448,192,47687,1,0,0:0:0:70:LR_Clap Normal.wav
192,192,47863,1,2,0:0:0:0:
320,192,47951,1,0,0:0:0:0:
64,192,48039,1,2,0:0:0:0:
448,192,48039,1,0,0:0:0:70:LR_CymbalQST.wav
448,192,48216,1,0,0:0:0:70:Snare.wav
320,192,48304,1,0,0:0:0:70:Snare.wav
64,192,48392,1,2,0:0:0:0:
192,192,48392,1,0,0:0:0:70:LR_Clap Normal.wav
64,192,48569,1,0,0:0:0:70:Snare.wav
192,192,48657,1,0,0:0:0:70:Snare.wav
320,192,48745,1,2,0:0:0:0:
448,192,48745,1,0,0:0:0:70:LR_Clap Normal.wav
448,192,48922,1,0,0:0:0:70:Snare.wav
320,192,49010,1,0,0:0:0:70:Snare.wav
64,192,49098,1,2,0:0:0:0:
192,192,49098,1,0,0:0:0:70:LR_Clap Normal.wav
64,192,49275,1,0,0:0:0:70:Snare.wav
192,192,49363,1,0,0:0:0:70:Snare.wav
320,192,49451,1,2,0:0:0:0:
448,192,49451,1,0,0:0:0:70:LR_Clap Normal.wav
320,192,49628,1,0,0:0:0:70:Snare.wav
192,192,49716,1,0,0:0:0:70:Snare.wav
64,192,49804,1,2,0:0:0:0:
448,192,49804,1,0,0:0:0:70:LR_Clap Normal.wav
64,192,49981,1,0,0:0:0:70:Snare.wav
192,192,50069,1,0,0:0:0:70:Snare.wav
320,192,50157,1,2,0:0:0:0:
448,192,50157,1,0,0:0:0:70:LR_Clap Normal.wav
448,192,50334,1,0,0:0:0:70:Snare.wav
320,192,50422,1,0,0:0:0:70:Snare.wav
64,192,50510,1,2,0:0:0:0:
192,192,50510,1,0,0:0:0:70:LR_Clap Normal.wav
192,192,50687,1,2,0:0:0:0:
320,192,50775,1,0,0:0:0:0:
64,192,50863,1,2,0:0:0:0:
448,192,50863,1,0,0:0:0:70:LR_CymbalQST.wav
64,192,51039,1,2,0:0:0:0:
448,192,51039,1,0,0:0:0:70:Snare.wav
64,192,51216,1,2,0:0:0:0:
448,192,51216,1,0,0:0:0:70:Snare.wav
64,192,51392,1,2,0:0:0:0:
448,192,51392,1,0,0:0:0:70:Snare.wav
192,192,51569,1,2,0:0:0:0:
320,192,51569,1,0,0:0:0:70:Snare.wav
192,192,51745,1,2,0:0:0:0:
320,192,51745,1,0,0:0:0:70:Snare.wav
192,192,51922,1,2,0:0:0:0:
320,192,51922,1,0,0:0:0:70:Snare.wav
192,192,52098,1,2,0:0:0:0:
320,192,52098,1,0,0:0:0:70:Snare.wav
320,192,52275,1,2,0:0:0:0:
448,192,52275,1,0,0:0:0:70:Snare.wav
320,192,52451,1,2,0:0:0:0:
448,192,52451,1,0,0:0:0:70:Snare.wav
320,192,52628,1,2,0:0:0:0:
448,192,52628,1,0,0:0:0:70:Snare.wav
320,192,52804,1,2,0:0:0:0:
448,192,52804,1,0,0:0:0:70:Snare.wav
64,192,52981,1,2,0:0:0:0:
192,192,52981,1,0,0:0:0:70:Snare.wav
64,192,53157,1,2,0:0:0:0:
192,192,53157,1,0,0:0:0:70:Snare.wav
64,192,53334,1,2,0:0:0:0:
192,192,53334,1,0,0:0:0:70:Snare.wav
64,192,53510,1,2,0:0:0:0:
192,192,53510,1,0,0:0:0:70:Snare.wav
320,192,53687,1,2,0:0:0:0:
448,192,53687,1,0,0:0:0:0:
192,192,53775,1,2,0:0:0:0:
64,192,53863,1,2,0:0:0:0:
448,192,53951,1,2,0:0:0:0:
64,192,54039,1,2,0:0:0:0:
192,192,54039,1,0,0:0:0:0:
320,192,54128,1,2,0:0:0:0:
192,192,54216,1,2,0:0:0:0:
64,192,54304,1,2,0:0:0:0:
320,192,54392,1,2,0:0:0:0:
448,192,54392,1,0,0:0:0:0:
192,192,54481,1,2,0:0:0:0:
320,192,54569,1,2,0:0:0:0:
448,192,54657,1,2,0:0:0:0:
64,192,54745,1,2,0:0:0:0:
192,192,54745,1,0,0:0:0:0:
320,192,54834,1,2,0:0:0:0:
64,192,54922,1,2,0:0:0:0:
192,192,55010,1,2,0:0:0:0:
320,192,55098,1,0,0:0:0:30:LR_Clap Normal.wav
448,192,55098,1,0,0:0:0:70:Tom1.wav
192,192,55275,1,0,0:0:0:70:Tom2.wav
64,192,55451,1,0,0:0:0:30:LR_Clap Normal.wav
192,192,55451,1,0,0:0:0:70:Tom2.wav
320,192,55539,1,0,0:0:0:70:Tom2.wav
448,192,55628,1,0,0:0:0:70:Tom1.wav
64,192,55804,1,0,0:0:0:30:LR_Clap Normal.wav
192,192,55804,1,0,0:0:0:70:Tom2.wav
448,192,55981,1,0,0:0:0:70:Tom2.wav
320,192,56069,1,0,0:0:0:70:Tom2.wav
64,192,56157,1,0,0:0:0:30:LR_Clap Normal.wav
192,192,56157,1,0,0:0:0:70:Tom3.wav
320,192,56334,1,0,0:0:0:70:Tom3.wav
448,192,56334,1,0,0:0:0:0:
64,192,56510,1,2,0:0:0:0:
192,192,56510,1,0,0:0:0:0:
320,192,56510,1,0,0:0:0:0:
320,192,56863,1,0,0:0:0:70:LR2_HHatMch.wav
448,192,56922,1,0,0:0:0:0:
192,192,57216,1,0,0:0:0:70:LR2_HHatMch.wav
64,192,57275,1,0,0:0:0:0:
320,192,57569,1,0,0:0:0:70:LR2_HHatMch.wav
448,192,57628,1,0,0:0:0:0:
192,192,57922,1,0,0:0:0:70:LR2_HHatMch.wav
64,192,57981,1,0,0:0:0:0:
448,192,58275,1,0,0:0:0:70:LR2_HHatMch.wav
320,192,58334,1,0,0:0:0:0:
64,192,58451,1,0,0:0:0:70:LR2_HHatMch.wav
192,192,58510,1,0,0:0:0:0:
320,192,58628,1,0,0:0:0:70:Tom2.wav
448,192,58628,1,0,0:0:0:0:
64,192,58804,1,0,0:0:0:70:Tom2.wav
192,192,58892,1,0,0:0:0:70:Tom2.wav
320,192,58981,1,0,0:0:0:70:Tom1.wav
448,192,58981,1,0,0:0:0:0:
320,192,59157,1,0,0:0:0:70:Tom1.wav
448,192,59157,1,0,0:0:0:0:
64,192,59334,128,2,59510:0:0:0:0:
192,192,59334,1,0,0:0:0:0:
192,192,59687,1,2,0:0:0:0:
448,192,59687,128,0,59863:0:0:0:0:
64,192,59863,1,0,0:0:0:0:
192,192,60039,1,2,0:0:0:0:
448,192,60039,128,0,60216:0:0:0:0:
64,192,60216,1,0,0:0:0:0:
192,192,60392,1,2,0:0:0:0:
448,192,60392,128,0,60569:0:0:0:0:
64,192,60569,1,0,0:0:0:0:
192,192,60745,1,2,0:0:0:0:
448,192,60745,128,0,60922:0:0:0:0:
64,192,60922,1,0,0:0:0:0:
320,192,61098,1,2,0:0:0:0:
448,192,61098,128,0,61275:0:0:0:0:
192,192,61275,128,0,61451:0:0:0:0:
320,192,61451,128,2,61628:0:0:0:0:
448,192,61451,1,0,0:0:0:0:
64,192,61628,128,0,61804:0:0:0:0:
192,192,61804,128,0,62157:0:0:0:0:
448,192,61804,128,0,62157:0:0:0:0:
320,192,62157,128,0,62510:0:0:0:0:
64,192,62510,128,2,62687:0:0:0:0:
448,192,62510,1,0,0:0:0:0:
320,192,62687,1,0,0:0:0:0:
64,192,62863,128,2,63039:0:0:0:0:
448,192,62863,1,0,0:0:0:0:
320,192,63039,1,0,0:0:0:0:
64,192,63216,128,2,63392:0:0:0:0:
448,192,63216,1,0,0:0:0:0:
320,192,63392,1,0,0:0:0:0:
64,192,63569,128,2,63745:0:0:0:0:
448,192,63569,1,0,0:0:0:0:
320,192,63745,1,0,0:0:0:0:
64,192,63922,128,2,64098:0:0:0:0:
448,192,63922,1,0,0:0:0:0:
320,192,64098,128,0,64275:0:0:0:0:
192,192,64275,128,2,64451:0:0:0:0:
448,192,64275,1,0,0:0:0:0:
64,192,64451,128,0,64628:0:0:0:0:
192,192,64628,1,2,0:0:0:0:
448,192,64628,128,0,64804:0:0:0:0:
320,192,64804,1,0,0:0:0:0:
64,192,64981,128,2,65157:0:0:0:0:
192,192,64981,1,0,0:0:0:0:
320,192,65157,1,0,0:0:0:0:
64,192,65334,1,2,0:0:0:0:
448,192,65334,128,0,65510:0:0:0:0:
192,192,65510,1,0,0:0:0:0:
64,192,65687,1,2,0:0:0:0:
448,192,65687,128,0,65863:0:0:0:0:
192,192,65863,1,0,0:0:0:0:
64,192,66039,1,2,0:0:0:0:
448,192,66039,128,0,66216:0:0:0:0:
64,192,66216,1,0,0:0:0:0:
192,192,66304,1,0,0:0:0:0:
320,192,66392,1,8,0:0:0:0:
448,192,66392,1,2,0:0:0:0:
320,192,66569,1,8,0:0:0:0:
448,192,66569,1,2,0:0:0:0:
320,192,66745,1,8,0:0:0:0:
448,192,66745,1,2,0:0:0:0:
320,192,66922,1,8,0:0:0:0:
448,192,66922,1,2,0:0:0:0:
64,192,67098,1,8,0:0:0:0:
192,192,67098,1,2,0:0:0:0:
64,192,67275,1,8,0:0:0:0:
192,192,67275,1,2,0:0:0:0:
64,192,67451,1,0,0:0:0:0:
448,192,67451,128,0,67628:0:0:0:0:
320,192,67628,128,0,67804:0:0:0:0:
64,192,67804,1,2,0:0:0:0:
192,192,67804,1,0,0:0:0:70:LR_CymbalQST.wav
64,192,68157,1,2,0:0:0:0:
320,192,68157,128,8,68334:0:0:0:0:
192,192,68334,1,0,0:0:0:0:
64,192,68510,1,2,0:0:0:0:
320,192,68510,128,0,68687:0:0:0:0:
192,192,68687,1,0,0:0:0:0:
64,192,68863,1,2,0:0:0:0:
320,192,68863,128,8,69039:0:0:0:0:
192,192,69039,1,0,0:0:0:0:
64,192,69216,1,2,0:0:0:0:
320,192,69216,128,0,69392:0:0:0:0:
192,192,69392,1,0,0:0:0:0:
64,192,69569,1,2,0:0:0:0:
320,192,69569,128,8,69745:0:0:0:0:
448,192,69745,128,0,69922:0:0:0:0:
64,192,69922,128,2,70098:0:0:0:0:
320,192,69922,1,0,0:0:0:0:
192,192,70098,128,0,70275:0:0:0:70:sel_l.wav
320,192,70275,128,2,70451:0:0:0:0:
448,192,70275,1,8,0:0:0:0:
64,192,70451,1,0,0:0:0:0:
192,192,70628,128,2,70804:0:0:0:0:
448,192,70628,1,0,0:0:0:0:
64,192,70804,1,0,0:0:0:0:
64,192,70981,128,2,71157:0:0:0:0:
320,192,70981,1,8,0:0:0:0:
448,192,71157,1,0,0:0:0:0:
64,192,71334,128,2,71510:0:0:0:0:
320,192,71334,1,0,0:0:0:0:
448,192,71510,1,0,0:0:0:0:
64,192,71687,128,8,71863:0:0:0:0:
320,192,71687,1,2,0:0:0:0:
448,192,71863,1,0,0:0:0:0:
64,192,72039,128,2,72216:0:0:0:0:
320,192,72039,1,0,0:0:0:0:
448,192,72216,1,0,0:0:0:0:
64,192,72392,128,2,72569:0:0:0:0:
320,192,72392,1,8,0:0:0:0:
448,192,72569,128,0,72745:0:0:0:0:
64,192,72745,1,2,0:0:0:0:
320,192,72745,128,0,72922:0:0:0:0:
192,192,72922,128,0,73098:0:0:0:0:
320,192,73098,128,8,73451:0:0:0:0:
448,192,73098,128,0,73451:0:0:0:0:
64,192,73451,128,0,73804:0:0:0:0:
192,192,73804,128,2,73981:0:0:0:0:
448,192,73804,1,8,0:0:0:0:
320,192,73981,1,0,0:0:0:0:
192,192,74157,128,2,74334:0:0:0:0:
448,192,74157,1,0,0:0:0:0:
320,192,74334,1,0,0:0:0:0:
192,192,74510,128,2,74687:0:0:0:0:
448,192,74510,1,8,0:0:0:0:
320,192,74687,1,0,0:0:0:0:
192,192,74863,128,2,75039:0:0:0:0:
448,192,74863,1,0,0:0:0:0:
320,192,75039,1,0,0:0:0:0:
192,192,75216,128,2,75392:0:0:0:0:
448,192,75216,1,8,0:0:0:0:
64,192,75392,128,0,75569:0:0:0:0:
192,192,75569,1,2,0:0:0:0:
448,192,75569,128,0,75745:0:0:0:0:
320,192,75745,128,0,75922:0:0:0:0:
64,192,75922,1,2,0:0:0:0:
192,192,75922,128,8,76098:0:0:0:0:
448,192,76098,1,0,0:0:0:0:
64,192,76275,1,2,0:0:0:0:
320,192,76275,128,0,76451:0:0:0:0:
192,192,76451,1,0,0:0:0:0:
64,192,76628,128,2,76804:0:0:0:0:
448,192,76628,1,8,0:0:0:0:
192,192,76804,1,0,0:0:0:0:
64,192,76981,128,2,77157:0:0:0:0:
448,192,76981,1,0,0:0:0:0:
192,192,77157,1,0,0:0:0:0:
64,192,77334,128,2,77510:0:0:0:0:
448,192,77334,1,8,0:0:0:0:
448,192,77510,1,0,0:0:0:0:
320,192,77598,1,0,0:0:0:0:
64,192,77687,1,2,0:0:0:0:
192,192,77687,1,8,0:0:0:0:
64,192,77863,1,2,0:0:0:0:
192,192,77863,1,8,0:0:0:0:
320,192,78039,1,2,0:0:0:0:
448,192,78039,1,8,0:0:0:0:
320,192,78216,1,2,0:0:0:0:
448,192,78216,1,8,0:0:0:0:
192,192,78392,1,2,0:0:0:0:
320,192,78392,1,8,0:0:0:0:
192,192,78569,1,2,0:0:0:0:
320,192,78569,1,8,0:0:0:0:
64,192,78745,1,2,0:0:0:0:
448,192,78745,1,8,0:0:0:0:
64,192,78922,1,2,0:0:0:0:
448,192,78922,1,8,0:0:0:0:
192,192,79098,1,2,0:0:0:0:
320,192,79098,1,0,0:0:0:70:LR_CymbalQST.wav
448,192,79275,1,0,0:0:0:70:Snare.wav
192,192,79451,1,2,0:0:0:0:
320,192,79451,1,0,0:0:0:0:
64,192,79628,1,0,0:0:0:70:Snare.wav
192,192,79804,1,2,0:0:0:0:
320,192,79804,1,0,0:0:0:0:
448,192,79981,1,0,0:0:0:70:Snare.wav
192,192,80157,1,2,0:0:0:0:
320,192,80157,1,0,0:0:0:0:
64,192,80334,1,0,0:0:0:70:Snare.wav
320,192,80510,1,2,0:0:0:0:
448,192,80510,1,0,0:0:0:0:
192,192,80687,1,0,0:0:0:70:Snare.wav
320,192,80863,1,2,0:0:0:0:
448,192,80863,1,0,0:0:0:0:
192,192,81039,1,0,0:0:0:70:Snare.wav
320,192,81216,1,2,0:0:0:0:
448,192,81216,1,0,0:0:0:0:
192,192,81392,1,0,0:0:0:70:Snare.wav
320,192,81569,1,2,0:0:0:0:
448,192,81569,1,0,0:0:0:0:
192,192,81745,1,0,0:0:0:70:Snare.wav
64,192,81922,1,2,0:0:0:0:
448,192,81922,1,0,0:0:0:0:
320,192,82098,1,0,0:0:0:70:Snare.wav
64,192,82275,1,2,0:0:0:0:
448,192,82275,1,0,0:0:0:0:
320,192,82451,1,0,0:0:0:70:Snare.wav
64,192,82628,1,2,0:0:0:0:
448,192,82628,1,0,0:0:0:0:
320,192,82804,1,0,0:0:0:70:Snare.wav
64,192,82981,1,2,0:0:0:0:
448,192,82981,1,0,0:0:0:0:
320,192,83157,1,0,0:0:0:70:Snare.wav
192,192,83334,1,2,0:0:0:0:
448,192,83334,1,0,0:0:0:0:
64,192,83510,1,0,0:0:0:70:Snare.wav
192,192,83687,1,2,0:0:0:0:
448,192,83687,1,0,0:0:0:0:
64,192,83863,1,0,0:0:0:70:Snare.wav
192,192,84039,1,2,0:0:0:0:
448,192,84039,1,0,0:0:0:0:
64,192,84216,1,0,0:0:0:70:Snare.wav
320,192,84392,1,8,0:0:0:0:
448,192,84392,1,0,0:0:0:0:
64,192,84569,1,8,0:0:0:0:
192,192,84569,1,0,0:0:0:0:
320,192,84745,128,2,84922:0:0:0:0:
448,192,84745,128,0,84922:0:0:0:0:
192,192,84922,1,8,0:0:0:0:
320,192,85098,128,2,85275:0:0:0:0:
448,192,85098,128,0,85275:0:0:0:0:
192,192,85275,1,8,0:0:0:0:
320,192,85451,128,2,85628:0:0:0:0:
448,192,85451,128,0,85628:0:0:0:0:
192,192,85628,1,8,0:0:0:0:
320,192,85804,128,2,85981:0:0:0:0:
448,192,85804,128,0,85981:0:0:0:0:
192,192,85981,1,8,0:0:0:0:
64,192,86157,128,2,86334:0:0:0:0:
192,192,86157,128,0,86334:0:0:0:0:
320,192,86334,1,8,0:0:0:0:
64,192,86510,128,2,86687:0:0:0:0:
192,192,86510,128,0,86687:0:0:0:0:
320,192,86687,1,8,0:0:0:0:
64,192,86863,128,2,87039:0:0:0:0:
192,192,86863,128,0,87039:0:0:0:0:
320,192,87039,1,8,0:0:0:0:
64,192,87216,128,2,87392:0:0:0:0:
192,192,87216,128,0,87392:0:0:0:0:
320,192,87392,1,8,0:0:0:0:
448,192,87569,1,0,0:0:0:70:Snare.wav
320,192,87657,1,0,0:0:0:70:Snare.wav
192,192,87745,1,0,0:0:0:70:Snare.wav
64,192,87834,1,0,0:0:0:70:Snare.wav
448,192,87922,1,0,0:0:0:70:Snare.wav
320,192,88010,1,0,0:0:0:70:Snare.wav
192,192,88098,1,0,0:0:0:70:Snare.wav
64,192,88187,1,0,0:0:0:70:Snare.wav
448,192,88275,1,0,0:0:0:70:Snare.wav
320,192,88363,1,0,0:0:0:70:Snare.wav
192,192,88451,1,0,0:0:0:70:Snare.wav
64,192,88539,1,0,0:0:0:70:Snare.wav
448,192,88628,1,0,0:0:0:70:Snare.wav
320,192,88716,1,0,0:0:0:70:Snare.wav
192,192,88804,1,0,0:0:0:70:Snare.wav
64,192,88892,1,0,0:0:0:70:Snare.wav
320,192,88981,1,0,0:0:0:70:Snare.wav
448,192,89069,1,0,0:0:0:70:Snare.wav
64,192,89157,1,0,0:0:0:70:Snare.wav
192,192,89245,1,0,0:0:0:70:Snare.wav
320,192,89334,1,0,0:0:0:70:Snare.wav
448,192,89422,1,0,0:0:0:70:Snare.wav
64,192,89510,1,0,0:0:0:70:Snare.wav
192,192,89598,1,0,0:0:0:70:Snare.wav
320,192,89687,1,0,0:0:0:70:Snare.wav
448,192,89775,1,0,0:0:0:70:Snare.wav
64,192,89863,1,0,0:0:0:70:Snare.wav
192,192,89951,1,0,0:0:0:70:Snare.wav
320,192,90039,1,0,0:0:0:70:drum-hitwhistle.wav
448,192,90039,1,0,0:0:0:0:
64,192,90392,1,0,0:0:0:70:LR_CymbalQST.wav
192,192,90392,1,0,0:0:0:0:
192,192,90745,1,0,0:0:0:0:
64,192,90922,1,0,0:0:0:0:
192,192,91098,1,0,0:0:0:70:drum-hitfinish.wav
320,192,91275,1,0,0:0:0:0:
192,192,91451,1,0,0:0:0:0:
320,192,91804,1,0,0:0:0:70:drum-hitfinish.wav
448,192,91981,1,0,0:0:0:0:
320,192,92157,1,0,0:0:0:0:
192,192,92334,1,0,0:0:0:0:
64,192,92510,1,0,0:0:0:70:drum-hitfinish.wav
192,192,92687,1,0,0:0:0:0:
320,192,92863,1,0,0:0:0:0:
448,192,93039,1,0,0:0:0:0:
192,192,93216,1,0,0:0:0:70:drum-hitfinish.wav
192,192,93569,1,0,0:0:0:0:
320,192,93745,1,0,0:0:0:0:
192,192,93922,1,0,0:0:0:70:drum-hitfinish.wav
64,192,94098,1,0,0:0:0:0:
192,192,94275,1,0,0:0:0:0:
320,192,94628,1,0,0:0:0:70:drum-hitfinish.wav
448,192,94804,1,0,0:0:0:0:
320,192,94981,1,0,0:0:0:0:
192,192,95157,1,0,0:0:0:0:
64,192,95334,1,0,0:0:0:0:
192,192,95510,1,0,0:0:0:0:
320,192,95687,1,0,0:0:0:0:
448,192,95863,1,0,0:0:0:0:
192,192,96039,1,0,0:0:0:0:
320,192,96392,1,0,0:0:0:0:
192,192,96569,1,0,0:0:0:0:
320,192,96745,1,0,0:0:0:0:
448,192,96922,1,0,0:0:0:0:
320,192,97098,1,0,0:0:0:0:
192,192,97451,1,0,0:0:0:0:
64,192,97628,1,0,0:0:0:0:
192,192,97804,1,0,0:0:0:0:
320,192,97981,1,0,0:0:0:0:
448,192,98157,1,0,0:0:0:0:
320,192,98334,1,0,0:0:0:0:
192,192,98510,1,0,0:0:0:0:
64,192,98687,1,0,0:0:0:0:
320,192,98863,1,0,0:0:0:0:
320,192,99216,1,0,0:0:0:0:
192,192,99392,1,0,0:0:0:0:
320,192,99569,1,0,0:0:0:0:
448,192,99745,1,0,0:0:0:0:
320,192,99922,1,0,0:0:0:0:
448,192,100275,1,0,0:0:0:0:
64,192,100451,1,0,0:0:0:70:Tom2.wav
192,192,100539,1,0,0:0:0:70:Tom2.wav
320,192,100628,1,0,0:0:0:70:Tom1.wav
64,192,100804,1,0,0:0:0:70:Tom2.wav
192,192,100804,1,0,0:0:0:0:
64,192,100981,1,0,0:0:0:70:Tom2.wav
192,192,100981,1,0,0:0:0:0:
320,192,101157,1,0,0:0:0:70:Tom1.wav
448,192,101157,1,0,0:0:0:0:
192,192,101334,1,0,0:0:0:70:Tom3.wav
320,192,101334,1,0,0:0:0:0:
192,192,101510,1,0,0:0:0:70:Tom3.wav
320,192,101510,1,0,0:0:0:0:
64,192,101687,1,0,0:0:0:70:LR_CymbalQST.wav
448,192,101687,128,0,102039:0:0:0:0:
64,192,102039,1,0,0:0:0:70:LR_Clap Normal.wav
320,192,102216,128,0,102569:0:0:0:0:
64,192,102392,1,0,0:0:0:70:LR_Clap Normal.wav
64,192,102745,1,0,0:0:0:70:LR_Clap Normal.wav
192,192,103098,128,0,103451:0:0:0:70:LR_Clap Normal.wav
448,192,103098,1,0,0:0:0:0:
320,192,103451,128,0,103628:0:0:0:70:LR_Clap Normal.wav
448,192,103451,1,0,0:0:0:0:
192,192,103628,128,0,103981:0:0:0:0:
448,192,103804,1,0,0:0:0:70:LR_Clap Normal.wav
64,192,103981,128,0,104334:0:0:0:0:
448,192,104157,1,0,0:0:0:70:LR_Clap Normal.wav
192,192,104510,128,0,104863:0:0:0:70:LR_Clap Normal.wav
448,192,104510,1,0,0:0:0:0:
64,192,104863,1,0,0:0:0:70:LR_Clap Normal.wav
320,192,105039,128,0,105392:0:0:0:0:
448,192,105216,1,0,0:0:0:70:LR_Clap Normal.wav
64,192,105569,1,0,0:0:0:70:LR_Clap Normal.wav
192,192,105922,128,0,106275:0:0:0:70:LR_Clap Normal.wav
448,192,105922,1,0,0:0:0:0:
64,192,106275,1,0,0:0:0:70:LR_Clap Normal.wav
320,192,106275,128,0,106451:0:0:0:0:
192,192,106451,128,0,106804:0:0:0:0:
448,192,106628,1,0,0:0:0:70:LR_Clap Normal.wav
64,192,106804,128,0,107157:0:0:0:0:
192,192,106981,1,0,0:0:0:70:LR_Clap Normal.wav
448,192,107157,1,0,0:0:0:70:Snare.wav
320,192,107245,1,0,0:0:0:70:Snare.wav
64,192,107334,1,0,0:0:0:70:LR_Clap Normal.wav
448,192,107334,128,0,107687:0:0:0:0:
64,192,107687,1,0,0:0:0:70:LR_Clap Normal.wav
320,192,107863,128,0,108216:0:0:0:70:Snare.wav
64,192,108039,1,0,0:0:0:70:LR_Clap Normal.wav
64,192,108392,1,0,0:0:0:70:LR_Clap Normal.wav
192,192,108745,128,0,109098:0:0:0:70:LR_Clap Normal.wav
448,192,108745,1,0,0:0:0:0:
320,192,109098,128,0,109275:0:0:0:70:LR_Clap Normal.wav
448,192,109098,1,0,0:0:0:0:
192,192,109275,128,0,109628:0:0:0:0:
448,192,109451,1,0,0:0:0:70:LR_Clap Normal.wav
64,192,109628,128,0,109981:0:0:0:0:
448,192,109804,1,0,0:0:0:70:LR_Clap Normal.wav
192,192,109981,1,0,0:0:0:70:Snare.wav
320,192,110069,1,0,0:0:0:70:Snare.wav
192,192,110157,128,0,110510:0:0:0:70:LR_Clap Normal.wav
448,192,110157,1,0,0:0:0:0:
64,192,110510,1,0,0:0:0:70:LR_Clap Normal.wav
448,192,110510,128,0,110687:0:0:0:0:
320,192,110687,128,0,111039:0:0:0:70:Snare.wav
64,192,110863,1,0,0:0:0:70:LR_Clap Normal.wav
192,192,111039,128,0,111216:0:0:0:0:
64,192,111216,1,0,0:0:0:70:LR_Clap Normal.wav
64,192,111569,1,0,0:0:0:70:LR_Clap Normal.wav
448,192,111569,128,0,111922:0:0:0:0:
64,192,111922,1,0,0:0:0:70:LR_Clap Normal.wav
320,192,111922,128,0,112098:0:0:0:0:
192,192,112098,128,0,112451:0:0:0:70:Snare.wav
448,192,112275,1,0,0:0:0:70:LR_Clap Normal.wav
64,192,112451,128,0,112804:0:0:0:0:
448,192,112628,1,0,0:0:0:70:LR_Clap Normal.wav
192,192,112892,1,0,0:0:0:70:Snare.wav
64,192,112981,1,2,0:0:0:0:
320,192,112981,128,0,113334:0:0:0:70:LR_Clap Normal.wav
448,192,112981,1,0,0:0:0:0:
64,192,113334,1,2,0:0:0:0:
448,192,113334,1,0,0:0:0:70:LR_Clap Normal.wav
192,192,113510,128,0,113863:0:0:0:70:Snare.wav
64,192,113687,1,2,0:0:0:0:
448,192,113687,1,0,0:0:0:70:LR_Clap Normal.wav
64,192,114039,1,2,0:0:0:0:
448,192,114039,1,0,0:0:0:70:LR_Clap Normal.wav
64,192,114392,1,2,0:0:0:0:
320,192,114392,128,0,114745:0:0:0:70:LR_Clap Normal.wav
448,192,114392,1,0,0:0:0:0:
64,192,114745,1,2,0:0:0:0:
448,192,114745,1,0,0:0:0:70:LR_Clap Normal.wav
192,192,114922,128,0,115275:0:0:0:0:
64,192,115098,1,2,0:0:0:0:
448,192,115098,1,0,0:0:0:70:LR_Clap Normal.wav
320,192,115275,128,0,115451:0:0:0:0:
192,192,115451,1,2,0:0:0:0:
448,192,115451,1,0,0:0:0:70:LR_Clap Normal.wav
64,192,115628,1,0,0:0:0:70:Snare.wav
192,192,115716,1,0,0:0:0:70:Snare.wav
64,192,115804,128,2,116157:0:0:0:0:
320,192,115804,1,0,0:0:0:70:LR_Clap Normal.wav
448,192,115804,1,0,0:0:0:0:
320,192,116157,1,2,0:0:0:0:
448,192,116157,1,0,0:0:0:70:LR_Clap Normal.wav
192,192,116334,128,0,116687:0:0:0:70:Snare.wav
320,192,116510,1,2,0:0:0:0:
448,192,116510,1,0,0:0:0:70:LR_Clap Normal.wav
320,192,116863,1,2,0:0:0:0:
448,192,116863,1,0,0:0:0:70:LR_Clap Normal.wav
64,192,117216,1,2,0:0:0:0:
192,192,117216,1,0,0:0:0:70:LR_Clap Normal.wav
448,192,117216,128,0,117569:0:0:0:0:
64,192,117569,1,2,0:0:0:0:
192,192,117569,1,0,0:0:0:70:LR_Clap Normal.wav
320,192,117745,128,0,118098:0:0:0:70:Snare.wav
64,192,117922,1,2,0:0:0:0:
192,192,117922,1,0,0:0:0:70:LR_Clap Normal.wav
448,192,118098,128,0,118275:0:0:0:0:
64,192,118275,1,2,0:0:0:0:
192,192,118275,1,0,0:0:0:70:LR_Clap Normal.wav
320,192,118451,1,0,0:0:0:0:
192,192,118539,1,0,0:0:0:70:Snare.wav
64,192,118628,128,2,118981:0:0:0:0:
320,192,118628,1,0,0:0:0:70:LR_Clap Normal.wav
448,192,118628,1,0,0:0:0:0:
320,192,118981,1,2,0:0:0:0:
448,192,118981,1,0,0:0:0:70:LR_Clap Normal.wav
192,192,119157,128,0,119510:0:0:0:70:Snare.wav
320,192,119334,1,2,0:0:0:0:
448,192,119334,1,0,0:0:0:70:LR_Clap Normal.wav
320,192,119687,1,2,0:0:0:0:
448,192,119687,1,0,0:0:0:70:LR_Clap Normal.wav
64,192,120039,1,2,0:0:0:0:
192,192,120039,1,0,0:0:0:70:LR_Clap Normal.wav
448,192,120039,128,0,120392:0:0:0:0:
64,192,120392,1,2,0:0:0:0:
192,192,120392,1,0,0:0:0:70:LR_Clap Normal.wav
320,192,120569,128,0,120922:0:0:0:0:
64,192,120745,1,2,0:0:0:0:
192,192,120745,1,0,0:0:0:70:LR_Clap Normal.wav
448,192,120922,128,0,121098:0:0:0:0:
64,192,121098,1,2,0:0:0:0:
192,192,121098,1,0,0:0:0:70:LR_Clap Normal.wav
320,192,121275,1,0,0:0:0:70:Snare.wav
192,192,121363,1,0,0:0:0:70:Snare.wav
64,192,121451,1,2,0:0:0:0:
320,192,121451,128,0,121804:0:0:0:70:LR_Clap Normal.wav
448,192,121451,1,0,0:0:0:0:
64,192,121804,1,2,0:0:0:0:
448,192,121804,1,0,0:0:0:70:LR_Clap Normal.wav
192,192,121981,128,0,122334:0:0:0:70:Snare.wav
64,192,122157,1,2,0:0:0:0:
448,192,122157,1,0,0:0:0:70:LR_Clap Normal.wav
320,192,122334,128,0,122510:0:0:0:0:
64,192,122510,1,2,0:0:0:0:
448,192,122510,1,0,0:0:0:70:LR_Clap Normal.wav
64,192,122863,1,0,0:0:0:70:LR_Clap Normal.wav
192,192,122863,1,0,0:0:0:0:
448,192,122863,128,0,123216:0:0:0:0:
64,192,123216,1,0,0:0:0:70:LR_Clap Normal.wav
192,192,123216,1,0,0:0:0:0:
320,192,123392,128,0,123745:0:0:0:70:Snare.wav
64,192,123569,1,0,0:0:0:70:LR_Clap Normal.wav
192,192,123569,1,0,0:0:0:70:Snare.wav
448,192,123745,128,0,123922:0:0:0:0:
64,192,123922,1,0,0:0:0:70:LR_Clap Normal.wav
192,192,123922,1,0,0:0:0:0:
64,192,124098,1,0,0:0:0:70:Snare.wav
192,192,124187,1,0,0:0:0:70:Snare.wav
320,192,124275,1,2,0:0:0:0:
448,192,124275,1,0,0:0:0:70:LR_CymbalQST.wav
448,192,124451,1,0,0:0:0:70:Snare.wav
320,192,124539,1,0,0:0:0:70:Snare.wav
64,192,124628,1,2,0:0:0:0:
192,192,124628,1,0,0:0:0:70:LR_Clap Normal.wav
64,192,124804,1,0,0:0:0:70:Snare.wav
192,192,124892,1,0,0:0:0:70:Snare.wav
320,192,124981,1,2,0:0:0:0:
448,192,124981,1,0,0:0:0:70:LR_Clap Normal.wav
448,192,125157,1,0,0:0:0:70:Snare.wav
320,192,125245,1,0,0:0:0:70:Snare.wav
64,192,125334,1,2,0:0:0:0:
192,192,125334,1,0,0:0:0:70:LR_Clap Normal.wav
192,192,125510,1,0,0:0:0:70:Snare.wav
320,192,125598,1,0,0:0:0:70:Snare.wav
64,192,125687,1,2,0:0:0:0:
448,192,125687,1,0,0:0:0:70:LR_Clap Normal.wav
320,192,125863,1,0,0:0:0:70:Snare.wav
192,192,125951,1,0,0:0:0:70:Snare.wav
64,192,126039,1,2,0:0:0:0:
448,192,126039,1,0,0:0:0:70:LR_Clap Normal.wav
192,192,126216,1,0,0:0:0:70:Snare.wav
320,192,126304,1,0,0:0:0:70:Snare.wav
64,192,126392,1,2,0:0:0:0:
448,192,126392,1,0,0:0:0:70:LR_Clap Normal.wav
320,192,126569,1,0,0:0:0:70:Snare.wav
192,192,126657,1,0,0:0:0:70:Snare.wav
64,192,126745,1,2,0:0:0:0:
448,192,126745,1,0,0:0:0:70:LR_Clap Normal.wav
64,192,126922,1,2,0:0:0:0:
192,192,127010,1,0,0:0:0:0:
320,192,127098,1,2,0:0:0:0:
448,192,127098,1,0,0:0:0:70:LR_CymbalQST.wav
448,192,127275,1,0,0:0:0:70:Snare.wav
320,192,127363,1,0,0:0:0:70:Snare.wav
64,192,127451,1,2,0:0:0:0:
192,192,127451,1,0,0:0:0:70:LR_Clap Normal.wav
64,192,127628,1,0,0:0:0:70:Snare.wav
192,192,127716,1,0,0:0:0:70:Snare.wav
320,192,127804,1,2,0:0:0:0:
448,192,127804,1,0,0:0:0:70:LR_Clap Normal.wav
448,192,127981,1,0,0:0:0:70:Snare.wav
320,192,128069,1,0,0:0:0:70:Snare.wav
64,192,128157,1,2,0:0:0:0:
192,192,128157,1,0,0:0:0:70:LR_Clap Normal.wav
192,192,128334,1,0,0:0:0:70:Snare.wav
320,192,128422,1,0,0:0:0:70:Snare.wav
64,192,128510,1,2,0:0:0:0:
448,192,128510,1,0,0:0:0:70:LR_Clap Normal.wav
320,192,128687,1,0,0:0:0:70:Snare.wav
192,192,128775,1,0,0:0:0:70:Snare.wav
64,192,128863,1,2,0:0:0:0:
448,192,128863,1,0,0:0:0:70:LR_Clap Normal.wav
192,192,129039,1,0,0:0:0:70:Snare.wav
320,192,129128,1,0,0:0:0:70:Snare.wav
64,192,129216,1,2,0:0:0:0:
448,192,129216,1,0,0:0:0:70:LR_Clap Normal.wav
320,192,129392,1,0,0:0:0:70:Snare.wav
192,192,129481,1,0,0:0:0:70:Snare.wav
64,192,129569,1,2,0:0:0:0:
448,192,129569,1,0,0:0:0:70:LR_Clap Normal.wav
192,192,129745,1,2,0:0:0:0:
320,192,129834,1,0,0:0:0:0:
64,192,129922,1,2,0:0:0:0:
448,192,129922,1,0,0:0:0:70:LR_CymbalQST.wav
64,192,130098,1,2,0:0:0:0:
448,192,130098,1,0,0:0:0:70:Snare.wav
64,192,130275,1,2,0:0:0:0:
448,192,130275,1,0,0:0:0:70:Snare.wav
64,192,130451,1,2,0:0:0:0:
448,192,130451,1,0,0:0:0:70:Snare.wav
192,192,130628,1,2,0:0:0:0:
320,192,130628,1,0,0:0:0:70:Snare.wav
192,192,130804,1,2,0:0:0:0:
320,192,130804,1,0,0:0:0:70:Snare.wav
192,192,130981,1,2,0:0:0:0:
320,192,130981,1,0,0:0:0:70:Snare.wav
192,192,131157,1,2,0:0:0:0:
320,192,131157,1,0,0:0:0:70:Snare.wav
320,192,131334,1,2,0:0:0:0:
448,192,131334,1,0,0:0:0:70:Snare.wav
320,192,131510,1,2,0:0:0:0:
448,192,131510,1,0,0:0:0:70:Snare.wav
320,192,131687,1,2,0:0:0:0:
448,192,131687,1,0,0:0:0:70:Snare.wav
320,192,131863,1,2,0:0:0:0:
448,192,131863,1,0,0:0:0:70:Snare.wav
64,192,132039,1,2,0:0:0:0:
192,192,132039,1,0,0:0:0:70:Snare.wav
64,192,132216,1,2,0:0:0:0:
192,192,132216,1,0,0:0:0:70:Snare.wav
64,192,132392,1,2,0:0:0:0:
192,192,132392,1,0,0:0:0:70:Snare.wav
64,192,132569,1,2,0:0:0:0:
192,192,132569,1,0,0:0:0:70:Snare.wav
320,192,132745,1,2,0:0:0:0:
448,192,132745,1,0,0:0:0:70:Snare.wav
192,192,132834,1,0,0:0:0:70:Snare.wav
64,192,132922,1,2,0:0:0:0:
448,192,133010,1,0,0:0:0:70:Snare.wav
64,192,133098,1,2,0:0:0:0:
192,192,133098,1,0,0:0:0:0:
320,192,133187,1,2,0:0:0:0:
192,192,133275,1,2,0:0:0:0:
64,192,133363,1,2,0:0:0:0:
320,192,133451,1,2,0:0:0:0:
448,192,133451,1,0,0:0:0:0:
64,192,133539,1,2,0:0:0:0:
192,192,133628,1,2,0:0:0:0:
320,192,133716,1,2,0:0:0:0:
64,192,133804,1,2,0:0:0:0:
192,192,133804,1,0,0:0:0:0:
448,192,133892,1,2,0:0:0:0:
320,192,133981,1,2,0:0:0:0:
192,192,134069,1,2,0:0:0:0:
64,192,134157,1,0,0:0:0:30:LR_Clap Normal.wav
448,192,134157,1,0,0:0:0:70:Tom1.wav
192,192,134334,1,0,0:0:0:70:Tom2.wav
320,192,134334,1,0,0:0:0:0:
64,192,134510,1,0,0:0:0:30:LR_Clap Normal.wav
192,192,134510,1,0,0:0:0:70:Tom2.wav
320,192,134598,1,0,0:0:0:70:Tom2.wav
448,192,134598,1,0,0:0:0:0:
64,192,134687,1,0,0:0:0:70:Tom1.wav
192,192,134687,1,0,0:0:0:0:
192,192,134863,1,0,0:0:0:30:LR_Clap Normal.wav
320,192,134863,1,0,0:0:0:70:Tom2.wav
320,192,135039,1,0,0:0:0:70:Tom2.wav
448,192,135039,1,0,0:0:0:0:
64,192,135128,1,0,0:0:0:70:Tom2.wav
192,192,135128,1,0,0:0:0:0:
320,192,135216,1,0,0:0:0:30:LR_Clap Normal.wav
448,192,135216,1,0,0:0:0:70:Tom3.wav
64,192,135392,1,0,0:0:0:70:Tom3.wav
192,192,135392,1,0,0:0:0:0:
320,192,135569,1,2,0:0:0:0:
448,192,135569,1,0,0:0:0:0:
192,192,135922,1,0,0:0:0:70:LR2_HHatMch.wav
64,192,135981,1,0,0:0:0:0:
320,192,136275,1,0,0:0:0:70:LR2_HHatMch.wav
448,192,136334,1,0,0:0:0:0:
192,192,136628,1,0,0:0:0:70:LR2_HHatMch.wav
64,192,136687,1,0,0:0:0:0:
320,192,136981,1,0,0:0:0:70:LR2_HHatMch.wav
448,192,137039,1,0,0:0:0:0:
192,192,137334,1,0,0:0:0:70:LR2_HHatMch.wav
64,192,137392,1,0,0:0:0:0:
320,192,137510,1,0,0:0:0:70:LR2_HHatMch.wav
448,192,137569,1,0,0:0:0:0:
64,192,137687,1,0,0:0:0:70:Tom2.wav
192,192,137687,1,0,0:0:0:0:
448,192,137863,1,0,0:0:0:70:Tom2.wav
320,192,137951,1,0,0:0:0:70:Tom2.wav
64,192,138039,1,0,0:0:0:70:Tom1.wav
192,192,138039,1,0,0:0:0:0:
192,192,138216,1,0,0:0:0:70:Tom1.wav
320,192,138216,1,0,0:0:0:0:
320,192,138392,128,2,138569:0:0:0:0:
448,192,138392,1,0,0:0:0:0:
192,192,138745,1,2,0:0:0:0:
448,192,138745,128,8,138922:0:0:0:0:
64,192,138922,1,0,0:0:0:0:
192,192,139098,1,2,0:0:0:0:
448,192,139098,128,0,139275:0:0:0:0:
64,192,139275,1,0,0:0:0:0:
192,192,139451,1,2,0:0:0:0:
448,192,139451,128,8,139628:0:0:0:0:
64,192,139628,1,0,0:0:0:0:
192,192,139804,1,2,0:0:0:0:
448,192,139804,128,0,139981:0:0:0:0:
64,192,139981,1,0,0:0:0:0:
320,192,140157,1,2,0:0:0:0:
448,192,140157,128,8,140334:0:0:0:0:
192,192,140334,128,0,140510:0:0:0:0:
320,192,140510,128,2,140687:0:0:0:0:
448,192,140510,1,0,0:0:0:0:
64,192,140687,128,0,140863:0:0:0:0:
192,192,140863,128,0,141216:0:0:0:0:
448,192,140863,128,0,141216:0:0:0:0:
320,192,141216,128,0,141569:0:0:0:0:
64,192,141569,128,2,141745:0:0:0:0:
448,192,141569,1,8,0:0:0:0:
320,192,141745,1,0,0:0:0:0:
64,192,141922,128,2,142098:0:0:0:0:
448,192,141922,1,0,0:0:0:0:
320,192,142098,1,0,0:0:0:0:
64,192,142275,128,2,142451:0:0:0:0:
448,192,142275,1,8,0:0:0:0:
320,192,142451,1,0,0:0:0:0:
64,192,142628,128,2,142804:0:0:0:0:
448,192,142628,1,0,0:0:0:0:
320,192,142804,1,0,0:0:0:0:
64,192,142981,128,2,143157:0:0:0:0:
448,192,142981,1,8,0:0:0:0:
320,192,143157,128,0,143334:0:0:0:0:
192,192,143334,128,2,143510:0:0:0:0:
448,192,143334,1,0,0:0:0:0:
64,192,143510,128,0,143687:0:0:0:0:
192,192,143687,1,2,0:0:0:0:
448,192,143687,128,8,143863:0:0:0:0:
320,192,143863,1,0,0:0:0:0:
64,192,144039,128,2,144216:0:0:0:0:
192,192,144039,1,0,0:0:0:0:
320,192,144216,1,0,0:0:0:0:
64,192,144392,1,2,0:0:0:0:
448,192,144392,128,8,144569:0:0:0:0:
192,192,144569,1,0,0:0:0:0:
64,192,144745,1,2,0:0:0:0:
448,192,144745,128,0,144922:0:0:0:0:
192,192,144922,1,0,0:0:0:0:
64,192,145098,1,2,0:0:0:0:
448,192,145098,128,8,145275:0:0:0:0:
192,192,145275,128,0,145451:0:0:0:0:
320,192,145451,1,0,0:0:0:0:
448,192,145451,1,0,0:0:0:0:
320,192,145628,1,0,0:0:0:0:
448,192,145628,1,0,0:0:0:0:
320,192,145804,1,0,0:0:0:0:
448,192,145804,1,0,0:0:0:0:
320,192,145981,1,0,0:0:0:0:
448,192,145981,1,0,0:0:0:0:
64,192,146157,1,0,0:0:0:0:
192,192,146157,1,0,0:0:0:0:
64,192,146334,1,0,0:0:0:0:
192,192,146334,1,0,0:0:0:0:
448,192,146510,128,0,146687:0:0:0:0:
320,192,146687,128,0,146863:0:0:0:0:
64,192,146863,1,2,0:0:0:0:
192,192,146863,1,0,0:0:0:70:LR_CymbalQST.wav
64,192,147216,1,2,0:0:0:0:
320,192,147216,128,8,147392:0:0:0:0:
192,192,147392,1,0,0:0:0:70:sel_l.wav
64,192,147569,1,2,0:0:0:0:
320,192,147569,128,0,147745:0:0:0:0:
192,192,147745,1,0,0:0:0:70:sel_l.wav
64,192,147922,1,2,0:0:0:0:
320,192,147922,128,8,148098:0:0:0:0:
192,192,148098,1,0,0:0:0:70:sel_l.wav
64,192,148275,1,2,0:0:0:0:
320,192,148275,128,0,148451:0:0:0:0:
192,192,148451,1,0,0:0:0:70:sel_l.wav
64,192,148628,1,2,0:0:0:0:
320,192,148628,128,8,148804:0:0:0:0:
448,192,148804,128,0,148981:0:0:0:70:sel_l.wav
64,192,148981,128,2,149157:0:0:0:0:
320,192,148981,1,0,0:0:0:0:
192,192,149157,128,0,149334:0:0:0:70:sel_l.wav
320,192,149334,128,2,149510:0:0:0:0:
448,192,149334,1,8,0:0:0:0:
64,192,149510,1,0,0:0:0:70:sel_l.wav
192,192,149687,128,2,149863:0:0:0:0:
448,192,149687,1,0,0:0:0:0:
64,192,149863,1,0,0:0:0:70:sel_l.wav
64,192,150039,128,2,150216:0:0:0:0:
320,192,150039,1,8,0:0:0:0:
448,192,150216,1,0,0:0:0:70:sel_l.wav
64,192,150392,128,2,150569:0:0:0:0:
320,192,150392,1,0,0:0:0:0:
448,192,150569,1,0,0:0:0:70:sel_l.wav
64,192,150745,128,2,150922:0:0:0:0:
320,192,150745,1,8,0:0:0:0:
448,192,150922,1,0,0:0:0:70:sel_l.wav
64,192,151098,128,2,151275:0:0:0:0:
320,192,151098,1,0,0:0:0:0:
448,192,151275,1,0,0:0:0:70:sel_l.wav
64,192,151451,128,2,151628:0:0:0:0:
320,192,151451,1,8,0:0:0:0:
448,192,151628,128,0,151804:0:0:0:70:sel_l.wav
64,192,151804,1,2,0:0:0:0:
320,192,151804,128,0,151981:0:0:0:0:
192,192,151981,128,0,152157:0:0:0:70:sel_l.wav
320,192,152157,128,8,152510:0:0:0:0:
448,192,152157,128,0,152510:0:0:0:0:
64,192,152510,128,0,152863:0:0:0:0:
192,192,152863,128,2,153039:0:0:0:0:
448,192,152863,1,8,0:0:0:0:
320,192,153039,1,0,0:0:0:70:sel_l.wav
192,192,153216,128,2,153392:0:0:0:0:
448,192,153216,1,0,0:0:0:0:
320,192,153392,1,0,0:0:0:70:sel_l.wav
192,192,153569,128,2,153745:0:0:0:0:
448,192,153569,1,8,0:0:0:0:
320,192,153745,1,0,0:0:0:70:sel_l.wav
192,192,153922,128,2,154098:0:0:0:0:
448,192,153922,1,0,0:0:0:0:
320,192,154098,1,0,0:0:0:70:sel_l.wav
192,192,154275,128,2,154451:0:0:0:0:
448,192,154275,1,8,0:0:0:0:
64,192,154451,128,0,154628:0:0:0:70:sel_l.wav
192,192,154628,1,2,0:0:0:0:
448,192,154628,128,0,154804:0:0:0:0:
320,192,154804,128,0,154981:0:0:0:70:sel_l.wav
64,192,154981,1,2,0:0:0:0:
192,192,154981,128,8,155157:0:0:0:0:
448,192,155157,1,0,0:0:0:70:sel_l.wav
64,192,155334,1,2,0:0:0:0:
320,192,155334,128,0,155510:0:0:0:0:
192,192,155510,1,0,0:0:0:70:sel_l.wav
64,192,155687,128,2,155863:0:0:0:0:
448,192,155687,1,8,0:0:0:0:
192,192,155863,1,0,0:0:0:70:sel_l.wav
64,192,156039,128,2,156216:0:0:0:0:
448,192,156039,1,0,0:0:0:0:
192,192,156216,1,0,0:0:0:70:sel_l.wav
64,192,156392,128,2,156569:0:0:0:0:
448,192,156392,1,8,0:0:0:0:
448,192,156569,1,0,0:0:0:70:sel_l.wav
320,192,156657,1,0,0:0:0:0:
64,192,156745,1,2,0:0:0:0:
192,192,156745,1,8,0:0:0:0:
64,192,156922,1,2,0:0:0:0:
192,192,156922,1,8,0:0:0:0:
320,192,157098,1,2,0:0:0:0:
448,192,157098,1,8,0:0:0:0:
320,192,157275,1,2,0:0:0:0:
448,192,157275,1,8,0:0:0:0:
192,192,157451,1,2,0:0:0:0:
320,192,157451,1,8,0:0:0:0:
192,192,157628,1,2,0:0:0:0:
320,192,157628,1,8,0:0:0:0:
64,192,157804,1,2,0:0:0:0:
448,192,157804,1,8,0:0:0:0:
64,192,157981,1,2,0:0:0:0:
448,192,157981,1,8,0:0:0:0:
192,192,158157,1,2,0:0:0:0:
320,192,158157,1,4,0:0:0:70:LR_CymbalQST.wav
448,192,158334,1,0,0:0:0:0:
192,192,158510,1,2,0:0:0:0:
320,192,158510,1,0,0:0:0:0:
64,192,158687,1,0,0:0:0:0:
192,192,158863,1,2,0:0:0:0:
320,192,158863,1,0,0:0:0:0:
448,192,159039,1,0,0:0:0:0:
192,192,159216,1,2,0:0:0:0:
320,192,159216,1,0,0:0:0:0:
64,192,159392,1,0,0:0:0:0:
320,192,159569,1,2,0:0:0:0:
448,192,159569,1,0,0:0:0:0:
192,192,159745,1,0,0:0:0:0:
320,192,159922,1,2,0:0:0:0:
448,192,159922,1,0,0:0:0:0:
192,192,160098,1,0,0:0:0:0:
320,192,160275,1,2,0:0:0:0:
448,192,160275,1,0,0:0:0:0:
192,192,160451,1,0,0:0:0:0:
320,192,160628,1,2,0:0:0:0:
448,192,160628,1,0,0:0:0:0:
192,192,160804,1,0,0:0:0:0:
64,192,160981,1,2,0:0:0:0:
448,192,160981,1,0,0:0:0:0:
320,192,161157,1,0,0:0:0:0:
64,192,161334,1,2,0:0:0:0:
448,192,161334,1,0,0:0:0:0:
320,192,161510,1,0,0:0:0:0:
64,192,161687,1,2,0:0:0:0:
448,192,161687,1,0,0:0:0:0:
320,192,161863,1,0,0:0:0:0:
64,192,162039,1,2,0:0:0:0:
448,192,162039,1,0,0:0:0:0:
320,192,162216,1,0,0:0:0:0:
192,192,162392,1,2,0:0:0:0:
448,192,162392,1,0,0:0:0:0:
64,192,162569,1,0,0:0:0:0:
192,192,162745,1,2,0:0:0:0:
448,192,162745,1,0,0:0:0:0:
64,192,162922,1,0,0:0:0:0:
192,192,163098,1,2,0:0:0:0:
448,192,163098,1,0,0:0:0:0:
64,192,163275,1,0,0:0:0:0:
320,192,163451,1,8,0:0:0:0:
448,192,163451,1,0,0:0:0:0:
64,192,163628,1,8,0:0:0:0:
192,192,163628,1,0,0:0:0:0:
320,192,163804,128,2,163981:0:0:0:0:
448,192,163804,128,0,163981:0:0:0:0:
192,192,163981,1,0,0:0:0:70:Snare.wav
320,192,164157,128,2,164334:0:0:0:0:
448,192,164157,128,0,164334:0:0:0:0:
192,192,164334,1,0,0:0:0:70:Snare.wav
320,192,164510,128,2,164687:0:0:0:0:
448,192,164510,128,0,164687:0:0:0:0:
192,192,164687,1,0,0:0:0:70:Snare.wav
320,192,164863,128,2,165039:0:0:0:0:
448,192,164863,128,0,165039:0:0:0:0:
192,192,165039,1,0,0:0:0:70:Snare.wav
64,192,165216,128,2,165392:0:0:0:0:
192,192,165216,128,0,165392:0:0:0:0:
320,192,165392,1,0,0:0:0:70:Snare.wav
64,192,165569,128,2,165745:0:0:0:0:
192,192,165569,128,0,165745:0:0:0:0:
320,192,165745,1,0,0:0:0:70:Snare.wav
64,192,165922,128,2,166098:0:0:0:0:
192,192,165922,128,0,166098:0:0:0:0:
320,192,166098,1,0,0:0:0:70:Snare.wav
64,192,166275,128,2,166451:0:0:0:0:
192,192,166275,128,0,166451:0:0:0:0:
320,192,166451,1,0,0:0:0:70:Snare.wav
448,192,166628,1,0,0:0:0:70:Snare.wav
320,192,166716,1,0,0:0:0:70:Snare.wav
192,192,166804,1,0,0:0:0:70:Snare.wav
64,192,166892,1,0,0:0:0:70:Snare.wav
448,192,166981,1,0,0:0:0:70:Snare.wav
320,192,167069,1,0,0:0:0:70:Snare.wav
192,192,167157,1,0,0:0:0:70:Snare.wav
64,192,167245,1,0,0:0:0:70:Snare.wav
448,192,167334,1,0,0:0:0:70:Snare.wav
320,192,167422,1,0,0:0:0:70:Snare.wav
192,192,167510,1,0,0:0:0:70:Snare.wav
64,192,167598,1,0,0:0:0:70:Snare.wav
448,192,167687,1,0,0:0:0:70:Snare.wav
320,192,167775,1,0,0:0:0:70:Snare.wav
192,192,167863,1,0,0:0:0:70:Snare.wav
64,192,167951,1,0,0:0:0:70:Snare.wav
320,192,168039,1,0,0:0:0:70:Snare.wav
448,192,168128,1,0,0:0:0:70:Snare.wav
64,192,168216,1,0,0:0:0:70:Snare.wav
192,192,168304,1,0,0:0:0:70:Snare.wav
320,192,168392,1,0,0:0:0:70:Snare.wav
448,192,168481,1,0,0:0:0:70:Snare.wav
64,192,168569,1,0,0:0:0:70:Snare.wav
192,192,168657,1,0,0:0:0:70:Snare.wav
320,192,168745,1,0,0:0:0:70:Snare.wav
448,192,168834,1,0,0:0:0:70:Snare.wav
64,192,168922,1,0,0:0:0:70:Snare.wav
192,192,169010,1,0,0:0:0:70:Snare.wav
320,192,169098,1,2,0:0:0:0:
448,192,169098,1,0,0:0:0:0:
64,192,169451,1,2,0:0:0:0:
192,192,169451,1,0,0:0:0:70:LR_CymbalQST.wav
448,192,169628,128,0,169804:0:0:0:70:sel_l.wav
64,192,169804,1,2,0:0:0:0:
192,192,169804,1,8,0:0:0:0:
448,192,169981,128,0,170157:0:0:0:70:sel_l.wav
64,192,170157,1,2,0:0:0:0:
192,192,170157,1,0,0:0:0:0:
448,192,170334,128,0,170510:0:0:0:70:sel_l.wav
64,192,170510,1,2,0:0:0:0:
192,192,170510,1,8,0:0:0:0:
448,192,170687,128,0,170863:0:0:0:70:sel_l.wav
192,192,170863,1,2,0:0:0:0:
320,192,170863,1,0,0:0:0:0:
64,192,171039,128,0,171216:0:0:0:70:sel_l.wav
192,192,171216,1,2,0:0:0:0:
320,192,171216,1,8,0:0:0:0:
64,192,171392,128,0,171569:0:0:0:70:sel_l.wav
192,192,171569,1,2,0:0:0:0:
320,192,171569,1,0,0:0:0:0:
64,192,171745,128,0,171922:0:0:0:70:sel_l.wav
192,192,171922,1,2,0:0:0:0:
320,192,171922,1,8,0:0:0:0:
64,192,172098,128,0,172275:0:0:0:70:sel_l.wav
320,192,172275,1,2,0:0:0:0:
448,192,172275,1,0,0:0:0:0:
192,192,172451,128,0,172628:0:0:0:70:sel_l.wav
320,192,172628,1,2,0:0:0:0:
448,192,172628,1,8,0:0:0:0:
192,192,172804,128,0,172981:0:0:0:70:sel_l.wav
320,192,172981,1,2,0:0:0:0:
448,192,172981,1,0,0:0:0:0:
192,192,173157,128,0,173334:0:0:0:70:sel_l.wav
320,192,173334,1,2,0:0:0:0:
448,192,173334,1,8,0:0:0:0:
192,192,173510,128,0,173687:0:0:0:70:sel_l.wav
64,192,173687,1,2,0:0:0:0:
448,192,173687,1,0,0:0:0:0:
320,192,173863,128,0,174039:0:0:0:70:sel_l.wav
64,192,174039,1,2,0:0:0:0:
448,192,174039,1,8,0:0:0:0:
320,192,174216,128,0,174392:0:0:0:70:sel_l.wav
64,192,174392,1,2,0:0:0:0:
448,192,174392,1,0,0:0:0:0:
320,192,174569,128,0,174745:0:0:0:70:sel_l.wav
64,192,174745,1,2,0:0:0:0:
448,192,174745,128,8,175098:0:0:0:0:
64,192,175098,128,0,175451:0:0:0:0:
320,192,175451,1,2,0:0:0:0:
448,192,175451,1,8,0:0:0:0:
192,192,175628,128,0,175804:0:0:0:70:sel_l.wav
320,192,175804,1,2,0:0:0:0:
448,192,175804,1,0,0:0:0:0:
192,192,175981,128,0,176157:0:0:0:70:sel_l.wav
320,192,176157,1,2,0:0:0:0:
448,192,176157,1,8,0:0:0:0:
192,192,176334,128,0,176510:0:0:0:70:sel_l.wav
64,192,176510,1,2,0:0:0:0:
448,192,176510,1,0,0:0:0:0:
320,192,176687,128,0,176863:0:0:0:70:sel_l.wav
64,192,176863,1,2,0:0:0:0:
448,192,176863,1,8,0:0:0:0:
320,192,177039,128,0,177216:0:0:0:70:sel_l.wav
64,192,177216,1,2,0:0:0:0:
448,192,177216,1,0,0:0:0:0:
320,192,177392,128,0,177569:0:0:0:70:sel_l.wav
64,192,177569,1,2,0:0:0:0:
448,192,177569,1,8,0:0:0:0:
320,192,177745,128,0,177922:0:0:0:70:sel_l.wav
64,192,177922,1,2,0:0:0:0:
192,192,177922,1,0,0:0:0:0:
448,192,178098,128,0,178275:0:0:0:70:sel_l.wav
64,192,178275,1,2,0:0:0:0:
192,192,178275,1,8,0:0:0:0:
448,192,178451,128,0,178628:0:0:0:70:sel_l.wav
64,192,178628,1,2,0:0:0:0:
192,192,178628,1,0,0:0:0:0:
448,192,178804,128,0,178981:0:0:0:70:sel_l.wav
64,192,178981,1,2,0:0:0:0:
192,192,178981,1,8,0:0:0:0:
448,192,179157,128,0,179334:0:0:0:70:sel_l.wav
192,192,179334,1,2,0:0:0:0:
320,192,179334,1,0,0:0:0:0:
64,192,179510,128,0,179687:0:0:0:70:sel_l.wav
192,192,179687,1,2,0:0:0:0:
320,192,179687,1,8,0:0:0:0:
64,192,179863,128,0,180039:0:0:0:70:sel_l.wav
192,192,180039,1,2,0:0:0:0:
320,192,180039,1,0,0:0:0:0:
64,192,180216,128,0,180392:0:0:0:70:sel_l.wav
192,192,180392,1,8,0:0:0:0:
320,192,180569,128,0,180745:0:0:0:70:sel_l.wav
64,192,180745,1,2,0:0:0:0:
192,192,180745,1,0,0:0:0:0:
448,192,180922,1,0,0:0:0:70:sel_l.wav
64,192,181098,1,8,0:0:0:0:
192,192,181098,1,2,0:0:0:0:
448,192,181275,1,0,0:0:0:70:sel_l.wav
64,192,181451,1,2,0:0:0:0:
192,192,181451,1,0,0:0:0:0:
448,192,181628,1,0,0:0:0:70:sel_l.wav
64,192,181804,1,2,0:0:0:0:
192,192,181804,1,8,0:0:0:0:
448,192,181981,1,0,0:0:0:70:sel_l.wav
192,192,182157,1,2,0:0:0:0:
320,192,182157,1,0,0:0:0:0:
64,192,182334,1,0,0:0:0:70:sel_l.wav
192,192,182510,1,2,0:0:0:0:
320,192,182510,1,8,0:0:0:0:
64,192,182687,1,0,0:0:0:70:sel_l.wav
192,192,182863,1,2,0:0:0:0:
320,192,182863,1,0,0:0:0:0:
64,192,183039,1,0,0:0:0:70:sel_l.wav
192,192,183216,1,2,0:0:0:0:
320,192,183216,1,8,0:0:0:0:
64,192,183392,1,0,0:0:0:70:sel_l.wav
320,192,183569,1,2,0:0:0:0:
448,192,183569,1,0,0:0:0:0:
192,192,183745,1,0,0:0:0:70:sel_l.wav
320,192,183922,1,2,0:0:0:0:
448,192,183922,1,8,0:0:0:0:
192,192,184098,1,0,0:0:0:70:sel_l.wav
320,192,184275,1,2,0:0:0:0:
448,192,184275,1,0,0:0:0:0:
192,192,184451,1,0,0:0:0:70:sel_l.wav
320,192,184628,1,2,0:0:0:0:
448,192,184628,1,8,0:0:0:0:
192,192,184804,1,0,0:0:0:70:sel_l.wav
64,192,184981,1,2,0:0:0:0:
448,192,184981,1,0,0:0:0:0:
320,192,185157,1,0,0:0:0:70:sel_l.wav
64,192,185334,1,2,0:0:0:0:
448,192,185334,1,8,0:0:0:0:
320,192,185510,1,0,0:0:0:70:sel_l.wav
64,192,185687,1,2,0:0:0:0:
448,192,185687,1,0,0:0:0:0:
320,192,185863,1,0,0:0:0:70:sel_l.wav
64,192,186039,1,0,0:0:0:0:
448,192,186039,128,0,186392:0:0:0:0:
320,192,186216,1,0,0:0:0:0:
64,192,186392,128,2,186745:0:0:0:0:
192,192,186569,1,0,0:0:0:70:sel_l.wav
320,192,186745,1,2,0:0:0:0:
448,192,186745,1,8,0:0:0:0:
192,192,186922,1,0,0:0:0:70:sel_l.wav
320,192,187098,1,2,0:0:0:0:
448,192,187098,1,0,0:0:0:0:
192,192,187275,1,0,0:0:0:70:sel_l.wav
320,192,187451,1,2,0:0:0:0:
448,192,187451,1,8,0:0:0:0:
192,192,187628,1,0,0:0:0:70:sel_l.wav
64,192,187804,1,2,0:0:0:0:
448,192,187804,1,0,0:0:0:0:
320,192,187981,1,0,0:0:0:70:sel_l.wav
64,192,188157,1,2,0:0:0:0:
448,192,188157,1,8,0:0:0:0:
320,192,188334,1,0,0:0:0:70:sel_l.wav
64,192,188510,1,2,0:0:0:0:
448,192,188510,1,0,0:0:0:0:
320,192,188687,1,0,0:0:0:70:sel_l.wav
64,192,188863,1,2,0:0:0:0:
448,192,188863,1,8,0:0:0:0:
320,192,189039,1,0,0:0:0:70:sel_l.wav
192,192,189216,1,2,0:0:0:0:
448,192,189216,1,0,0:0:0:0:
64,192,189392,1,0,0:0:0:70:sel_l.wav
192,192,189569,1,2,0:0:0:0:
448,192,189569,1,8,0:0:0:0:
64,192,189745,1,0,0:0:0:70:sel_l.wav
192,192,189922,1,2,0:0:0:0:
448,192,189922,1,0,0:0:0:0:
64,192,190098,1,0,0:0:0:70:sel_l.wav
192,192,190275,1,2,0:0:0:0:
448,192,190275,1,8,0:0:0:0:
64,192,190451,1,0,0:0:0:70:sel_l.wav
192,192,190628,1,2,0:0:0:0:
320,192,190628,1,0,0:0:0:0:
448,192,190804,1,0,0:0:0:70:sel_l.wav
192,192,190981,1,2,0:0:0:0:
320,192,190981,1,8,0:0:0:0:
448,192,191157,1,0,0:0:0:70:sel_l.wav
192,192,191334,1,2,0:0:0:0:
320,192,191334,1,0,0:0:0:0:
448,192,191510,1,0,0:0:0:70:sel_l.wav
192,192,191687,1,2,0:0:0:0:
320,192,191687,1,8,0:0:0:0:
448,192,191863,1,0,0:0:0:70:sel_l.wav
64,192,192039,128,0,192128:0:0:0:0:
192,192,192039,128,0,192216:0:0:0:0:
