osu file format v14

[General]
AudioFilename: audio.mp3
AudioLeadIn: 0
PreviewTime: 31033
Countdown: 0
SampleSet: Soft
StackLeniency: 0.3
Mode: 0
LetterboxInBreaks: 0
WidescreenStoryboard: 1

[Editor]
Bookmarks: 112916,115739
DistanceSpacing: 0.8
BeatDivisor: 8
GridSize: 32
TimelineZoom: 2

[Metadata]
Title:Sky Is Falling
TitleUnicode:Sky Is Falling
Artist:Darren Styles & Stonebank (feat. EMEL)
ArtistUnicode:Darren Styles & Stonebank (feat. EMEL)
Creator:Upgradefort
Version:Skyfall
Source:
Tags:
BeatmapID:1749735
BeatmapSetID:835416

[Difficulty]
HPDrainRate:6
CircleSize:3.4
OverallDifficulty:6.4
ApproachRate:9.2
SliderMultiplier:1.8
SliderTickRate:1

[Events]
//Background and Video events
0,0,"05032907_q2do.jpg",0,0
//Break Periods
//Storyboard Layer 0 (Background)
//Storyboard Layer 1 (Fail)
//Storyboard Layer 2 (Pass)
//Storyboard Layer 3 (Foreground)
//Storyboard Layer 4 (Overlay)
//Storyboard Sound Samples

[TimingPoints]
-23,352.941176470588,4,1,0,100,1,0
2800,-100,4,2,0,65,0,0
29624,-142.857142857143,4,2,0,65,0,0
31035,-100,4,2,0,65,0,0
32447,-200,4,2,0,65,0,0
33153,-100,4,2,0,65,0,0
33859,-200,4,2,0,65,0,0
34388,-100,4,2,0,65,0,0
34565,-142.857142857143,4,2,0,65,0,0
35271,-222.222222222222,4,2,0,65,0,0
36329,-125,4,2,0,65,0,0
37035,-95.2380952380952,4,2,0,65,0,0
43741,-190.47619047619,4,2,0,65,0,0
44271,-95.2380952380952,4,2,69,95,0,0
69153,-95.2380952380952,4,2,69,95,0,0
81859,-76.9230769230769,4,2,69,100,0,1
103035,-83.3333333333333,4,2,69,90,0,0
110094,-100,4,2,69,90,0,0
111506,-200,4,2,69,90,0,0

[Colours]
Combo1 : 166,145,229
Combo2 : 236,122,122

[HitObjects]
302,256,2800,6,0,P|346:261|387:245,1,90
333,173,3153,5,0,0:0:0:0:
333,173,3329,2,0,L|293:75,1,90
209,99,3682,1,0,0:0:0:0:
209,99,3859,2,0,L|249:197,1,90
180,247,4212,6,0,P|135:252|94:236,1,90
145,162,4565,5,0,0:0:0:0:
145,162,4741,2,0,L|105:64,1,90
21,92,5094,1,0,0:0:0:0:
21,92,5271,2,0,L|61:190,1,90
90,258,5624,6,0,P|101:301|88:343,1,90
190,272,5976,5,0,0:0:0:0:
190,272,6153,2,0,L|230:370,1,90
290,268,6506,1,0,0:0:0:0:
290,268,6682,2,0,L|330:366,1,90
379,230,7035,6,0,P|367:186|380:144,1,90
283,168,7388,5,0,0:0:0:0:
283,168,7565,2,0,L|243:70,1,90
163,137,7918,1,0,0:0:0:0:
163,137,8094,2,0,L|123:39,1,90
52,101,8447,6,0,P|27:138|27:182,1,90
221,199,8800,5,0,0:0:0:0:
221,199,8976,2,0,P|201:159|162:136,1,90
200,291,9329,1,0,0:0:0:0:
200,291,9505,2,0,P|244:293|282:271,1,90
221,199,9859,6,0,P|240:159|279:136,1,90
365,290,10212,5,0,0:0:0:0:
365,290,10388,2,0,P|320:292|282:270,1,90
434,226,10741,1,0,0:0:0:0:
434,226,10917,2,0,P|458:263|458:307,1,90
362,166,11271,6,0,P|359:121|381:83,1,90
268,163,11624,5,0,0:0:0:0:
268,163,11800,2,0,P|230:187|186:187,1,90
144,40,12153,1,0,0:0:0:0:
144,40,12329,2,0,P|183:59|206:98,1,90
118,125,12682,6,0,P|93:162|93:206,1,90
235,251,13035,5,0,0:0:0:0:
235,251,13212,2,0,P|215:211|176:188,1,90
215,334,13564,1,0,0:0:0:0:
215,334,13741,2,0,P|259:336|297:314,1,90
347,143,14094,6,0,B|372:224|371:253|371:253|391:287|391:287|392:319,1,180
259,204,14624,1,0,0:0:0:0:
454,223,14800,2,0,P|458:179|439:140,1,90
245,121,15152,2,0,P|240:165|259:204,1,90
347,143,15506,6,0,P|330:57|253:18,1,180
156,146,16035,1,0,0:0:0:0:
156,146,16212,2,0,L|113:59,1,90
215,219,16565,2,0,P|175:238|131:235,1,90
299,189,16918,6,0,P|379:221|403:305,1,180
308,285,17447,1,0,0:0:0:0:
308,284,17624,2,0,P|352:287|394:303,1,90
209,325,17976,1,0,0:0:0:0:
282,191,18153,6,0,B|297:135|346:92|346:92|268:114|191:91,1,270
483,170,18859,2,0,B|452:215|448:265|448:265|414:239|354:225,1,180
297,250,19388,2,0,B|281:348,1,90
198,227,19741,6,0,B|172:145|174:117|174:117|154:83|154:83|153:51,1,180
281,165,20271,1,0,0:0:0:0:
92,149,20448,2,0,P|87:193|106:232,1,90
297,250,20800,2,0,P|301:205|282:166,1,90
198,227,21153,6,0,P|214:312|291:351,1,180
391,236,21682,1,0,0:0:0:0:
391,236,21859,2,0,L|487:242,1,90
326,169,22212,2,0,P|299:204|296:249,1,90
432,145,22565,6,0,P|375:79|288:69,1,180
437,177,23094,1,0,0:0:0:0:
260,236,23271,6,0,L|187:172,1,90
325,168,23624,2,0,P|351:203|354:248,1,90
123,252,23976,6,0,P|96:216|93:171,1,90
150,96,24329,5,0,0:0:0:0:
150,96,24506,2,0,L|61:83,1,90
281,163,24859,1,0,0:0:0:0:
281,163,25036,2,0,L|192:176,1,90
368,143,25388,6,0,B|409:127|432:79|432:79|412:192,1,180
207,267,25918,5,0,0:0:0:0:
252,189,26094,1,0,0:0:0:0:
293,268,26271,1,0,0:0:0:0:
140,140,26447,5,0,0:0:0:0:
368,143,26624,1,0,0:0:0:0:
252,343,26800,2,0,B|176:384|154:310|54:368,1,180
140,140,27329,5,0,0:0:0:0:
140,140,27506,2,0,P|163:178|196:208,1,90
79,53,27859,2,0,P|55:91|22:121,1,90
189,44,28212,6,0,B|245:47|270:86|270:86|299:133|357:137,1,180
434,29,28741,1,0,0:0:0:0:
434,29,28918,2,0,L|311:60,1,90
334,218,29271,2,0,L|421:239,1,90
181,274,29624,6,0,P|175:305|176:337,2,62.9999980773926
238,202,30153,1,0,0:0:0:0:
296,305,30329,2,0,P|302:336|301:368,2,62.9999980773926
238,202,30859,1,0,0:0:0:0:
154,168,31035,6,0,P|131:129|135:85,1,90
345,94,31388,2,0,P|344:138|319:174,1,90
174,266,31741,5,0,0:0:0:0:
238,202,31918,1,0,0:0:0:0:
259,286,32094,1,0,0:0:0:0:
154,168,32271,5,0,0:0:0:0:
344,94,32447,2,0,B|384:88|384:88|397:93|397:93|414:94|414:94|448:98,1,90
329,186,32976,5,0,0:0:0:0:
329,186,33153,2,0,L|402:261,1,90
271,260,33506,2,0,L|322:351,1,90
176,247,33859,6,0,B|136:241|136:241|123:246|123:246|106:247|106:247|72:251,1,90
292,131,34388,5,0,0:0:0:0:
194,107,34565,2,0,P|223:118|254:121,1,62.9999980773926
342,49,34918,2,0,P|312:37|281:34,1,62.9999980773926
292,131,35271,6,0,B|314:177|362:202|362:202|420:204|463:236,1,202.499993820191
226,159,36329,2,0,P|257:141|291:130,1,72
210,186,36682,1,6,0:0:0:0:
55,165,37035,5,0,0:0:0:0:
79,168,37212,2,0,B|95:223|145:259|145:259|153:297|153:297|185:322,1,188.999994232178
226,159,37741,2,0,P|232:205|222:251,1,94.499997116089
417,285,38094,6,0,P|370:205|385:113,1,188.999994232178
301,87,38624,2,0,P|251:165|164:195,1,188.999994232178
163,287,39153,2,0,P|209:290|248:316,1,94.499997116089
163,195,39506,6,0,P|132:112|205:64,1,188.999994232178
336,107,40035,2,0,P|253:137|205:64,1,188.999994232178
293,237,40565,1,0,0:0:0:0:
163,195,40741,1,0,0:0:0:0:
336,107,40918,6,0,P|366:189|293:237,1,188.999994232178
163,195,41447,2,0,P|89:243|120:325,1,188.999994232178
213,340,41976,2,0,B|307:306|352:365|453:308,1,188.999994232178
238,230,42682,5,0,0:0:0:0:
238,230,42859,2,0,P|339:236|448:168,1,188.999994232178
265,138,43388,2,0,B|259:105|259:105|243:84|243:84|234:40,1,94.499997116089
353,116,43741,6,0,B|350:86|350:86|366:66|366:66|359:37|359:37|374:16,1,94.499997116089
441,87,44271,1,0,0:0:0:0:
441,87,44447,2,0,L|461:192,1,94.499997116089
356,306,44800,2,0,L|376:201,1,94.499997116089
298,155,45153,6,0,P|235:251|101:264,1,188.999994232178
133,280,45682,1,0,0:0:0:0:
109,144,46035,1,0,0:0:0:0:
102,32,46212,2,0,P|120:75|123:121,1,94.499997116089
304,136,46565,6,0,B|252:150|198:129|198:129|205:91|187:36,1,188.999994232178
325,227,47094,2,0,L|303:134,1,94.499997116089
405,179,47447,1,0,0:0:0:0:
405,179,47624,2,0,L|426:271,1,94.499997116089
252,313,47976,6,0,B|236:269|237:222|237:222|258:268|255:315,1,188.999994232178
157,287,48506,2,0,B|141:243|142:196|142:196|163:242|160:289,1,188.999994232178
63,259,49035,2,0,B|47:215|48:168|48:168|69:214|66:261,1,188.999994232178
101,86,49565,6,0,P|183:46|262:91,1,188.999994232178
180,143,50094,2,0,P|259:187|341:148,2,188.999994232178
180,143,51153,5,0,0:0:0:0:
180,143,51329,2,0,P|155:257|111:326,1,188.999994232178
259,170,51859,2,0,P|254:229|238:290,1,94.499997116089
217,348,52212,5,0,0:0:0:0:
347,195,52565,2,0,P|362:150|360:103,1,94.499997116089
452,135,53094,6,0,P|467:90|465:43,1,94.499997116089
271,130,53447,2,0,P|255:85|257:38,1,94.499997116089
376,285,53976,6,0,P|422:276|461:250,1,94.499997116089
155,220,54506,2,0,P|108:211|69:185,1,94.499997116089
312,132,55035,6,0,P|354:112|386:77,1,94.499997116089
191,106,55565,2,0,P|155:75|134:33,1,94.499997116089
265,220,56094,5,0,0:0:0:0:
265,220,56447,2,0,B|236:263|234:311|234:311|200:222,1,188.999994232178
115,248,56976,2,0,B|85:287|84:339|84:339|50:250,1,188.999994232178
81,77,57506,2,0,L|84:187,1,94.499997116089
178,167,57859,6,0,P|217:87|306:92,1,188.999994232178
389,234,58388,2,0,P|299:239|260:159,1,188.999994232178
404,100,58918,2,0,L|331:180,1,94.499997116089
131,276,59271,5,4,3:1:0:0:
260,159,59447,1,8,1:0:0:0:
90,196,59800,5,4,3:2:0:0:
260,159,59976,1,8,1:0:0:0:
95,107,60329,5,4,3:2:0:0:
260,159,60505,1,8,1:0:0:0:
382,269,61565,5,4,3:2:0:0:
381,269,61741,2,0,P|403:227|410:180,1,94.499997116089
121,260,62094,5,4,3:2:0:0:
286,313,62270,1,0,0:0:0:0:
169,184,62623,5,4,3:2:0:0:
286,313,62799,1,0,0:0:0:0:
249,144,63152,5,4,3:2:0:0:
286,313,63328,1,0,0:0:0:0:
51,328,64388,5,4,3:2:0:0:
50,328,64565,2,0,P|82:293|123:271,1,94.499997116089,4|0,3:2|0:0,0:0:0:0:
460,305,64918,5,4,3:2:0:0:
286,313,65094,1,0,0:0:0:0:
433,219,65447,5,4,3:2:0:0:
286,313,65623,1,0,0:0:0:0:
366,159,65976,5,4,3:2:0:0:
286,313,66152,1,0,0:0:0:0:
132,98,67212,5,4,3:2:0:0:
131,97,67388,2,0,P|157:137|163:183,1,94.499997116089,4|0,3:2|0:0,0:0:0:0:
209,285,67741,5,4,3:2:0:0:
80,167,67917,1,0,0:0:0:0:
250,205,68270,5,4,3:2:0:0:
80,167,68446,1,0,0:0:0:0:
245,115,68799,5,4,3:2:0:0:
80,167,68975,1,0,0:0:0:0:
250,205,69153,6,0,B|338:274|432:242|432:242|388:128|476:70,1,377.999988464356,6|0,2:1|0:0,0:0:0:0:
269,91,70035,1,0,0:0:0:0:
269,91,70124,1,0,0:0:0:0:
269,91,70212,2,0,P|292:131|329:160,1,94.499997116089,2|0,1:0|0:0,0:0:0:0:
430,217,70565,5,0,0:0:0:0:
427,225,70653,1,0,0:0:0:0:
423,234,70741,1,0,0:0:0:0:
419,243,70829,5,0,0:0:0:0:
415,251,70918,1,0,0:0:0:0:
410,260,71006,1,0,0:0:0:0:
405,267,71094,5,0,0:0:0:0:
399,275,71182,1,0,0:0:0:0:
393,282,71270,1,0,0:0:0:0:
387,289,71359,5,0,0:0:0:0:
380,296,71447,1,0,0:0:0:0:
373,302,71535,1,0,0:0:0:0:
365,308,71624,5,0,0:0:0:0:
358,313,71712,1,0,0:0:0:0:
350,318,71800,1,0,0:0:0:0:
341,322,71888,5,0,0:0:0:0:
333,326,71976,1,0,0:0:0:0:
324,330,72065,1,0,0:0:0:0:
315,333,72153,5,0,0:0:0:0:
306,335,72241,1,0,0:0:0:0:
297,337,72329,1,0,0:0:0:0:
287,339,72418,5,0,0:0:0:0:
278,340,72506,1,0,0:0:0:0:
268,340,72594,1,0,0:0:0:0:
259,340,72682,5,0,0:0:0:0:
249,339,72770,1,0,0:0:0:0:
240,338,72859,1,0,0:0:0:0:
231,337,72947,5,0,0:0:0:0:
222,335,73035,1,0,0:0:0:0:
213,332,73123,1,0,0:0:0:0:
204,329,73212,5,0,0:0:0:0:
195,325,73300,1,0,0:0:0:0:
187,320,73388,5,0,0:0:0:0:
188,310,73476,1,0,0:0:0:0:
191,301,73565,1,0,0:0:0:0:
193,292,73653,5,0,0:0:0:0:
195,283,73741,1,0,0:0:0:0:
199,274,73829,1,0,0:0:0:0:
202,265,73918,5,0,0:0:0:0:
207,257,74006,1,0,0:0:0:0:
211,249,74094,1,0,0:0:0:0:
217,240,74182,5,0,0:0:0:0:
222,233,74271,1,0,0:0:0:0:
227,226,74359,1,0,0:0:0:0:
234,218,74447,5,0,0:0:0:0:
240,212,74535,1,0,0:0:0:0:
248,206,74623,1,0,0:0:0:0:
256,200,74712,5,0,0:0:0:0:
263,194,74800,1,0,0:0:0:0:
271,189,74888,1,0,0:0:0:0:
279,185,74976,5,0,0:0:0:0:
287,181,75065,1,0,0:0:0:0:
297,177,75153,1,0,0:0:0:0:
305,174,75241,5,0,0:0:0:0:
315,171,75329,1,0,0:0:0:0:
323,169,75418,1,0,0:0:0:0:
333,167,75506,5,0,0:0:0:0:
342,167,75594,1,0,0:0:0:0:
352,166,75682,1,0,0:0:0:0:
361,166,75771,5,0,0:0:0:0:
370,166,75859,1,0,0:0:0:0:
380,167,75947,1,0,0:0:0:0:
389,168,76035,5,0,0:0:0:0:
399,171,76123,1,0,0:0:0:0:
406,174,76212,6,0,P|423:130|458:99,1,94.499997116089,6|2,3:2|0:0,0:0:0:0:
320,342,76565,2,0,P|312:295|287:255,1,94.499997116089,6|2,3:2|0:0,0:0:0:0:
427,331,76918,2,0,P|456:294|498:272,1,94.499997116089,6|2,3:2|0:0,0:0:0:0:
219,331,77271,2,0,P|189:294|147:272,1,94.499997116089,6|2,3:2|0:0,0:0:0:0:
273,213,77624,5,2,3:2:0:0:
58,227,77800,1,2,3:2:0:0:
259,123,77976,5,2,3:2:0:0:
52,145,78153,1,2,3:2:0:0:
198,62,78329,5,2,3:2:0:0:
95,73,78506,1,2,3:2:0:0:
337,59,78682,2,0,L|372:181,1,94.499997116089,12|2,1:3|0:0,0:0:0:0:
358,274,79035,5,8,1:3:0:0:
340,290,79124,1,2,1:0:0:0:
318,300,79212,1,2,1:0:0:0:
295,306,79300,5,2,1:0:0:0:
271,306,79388,1,10,1:3:0:0:
247,301,79476,1,2,1:0:0:0:
225,289,79565,5,2,1:0:0:0:
207,273,79653,1,2,1:0:0:0:
195,252,79741,1,10,1:3:0:0:
190,228,79829,5,2,1:0:0:0:
190,204,79918,1,2,1:0:0:0:
196,181,80006,1,2,1:0:0:0:
210,162,80094,5,10,1:3:0:0:
228,147,80182,1,2,1:0:0:0:
250,138,80271,5,2,1:0:0:0:
273,137,80359,1,2,1:0:0:0:
296,137,80447,6,0,L|364:138,1,47.2499985580445,6|0,3:2|0:0,0:0:0:0:
285,48,80624,2,0,L|217:49,1,47.2499985580445,8|0,2:0|0:0,0:0:0:0:
398,48,80800,6,0,L|466:49,1,47.2499985580445,4|0,3:2|0:0,0:0:0:0:
338,209,80976,2,0,L|282:237,1,47.2499985580445,6|0,3:2|0:0,0:0:0:0:
212,277,81153,6,0,L|211:229,1,47.2499985580445
165,152,81329,2,0,L|212:151,1,47.2499985580445,6|0,3:2|0:0,0:0:0:0:
384,136,81506,6,0,P|340:122|296:137,1,94.499997116089,12|0,1:3|0:0,0:0:0:0:
173,375,81859,6,0,P|127:339|109:284,1,116.999994644165,4|0,3:2|0:0,0:0:0:0:
227,74,82212,1,8,0:0:0:0:
93,209,82388,1,0,0:0:0:0:
295,137,82565,6,0,P|328:186|326:245,1,116.999994644165,2|0,3:2|0:0,0:0:0:0:
365,60,82918,1,8,0:0:0:0:
234,211,83094,1,0,0:0:0:0:
426,288,83271,5,4,3:2:0:0:
295,137,83447,1,0,0:0:0:0:
415,196,83624,5,8,1:2:0:0:
243,298,83800,1,0,0:0:0:0:
62,145,83976,6,0,P|51:202|56:260,1,116.999994644165,2|0,3:2|0:0,0:0:0:0:
154,183,84329,2,0,P|159:125|149:68,1,116.999994644165,8|0,0:0|0:0,0:0:0:0:
265,50,84682,6,0,P|322:58|380:52,1,116.999994644165,4|0,3:2|0:0,0:0:0:0:
341,251,85035,5,8,0:0:0:0:
248,139,85212,1,0,0:0:0:0:
331,110,85388,5,2,3:2:0:0:
184,256,85565,1,0,0:0:0:0:
403,183,85741,5,8,0:0:0:0:
166,115,85918,1,0,0:0:0:0:
341,251,86094,6,0,P|398:274|455:261,1,116.999994644165,4|0,2:2|0:0,0:0:0:0:
184,256,86447,2,0,P|208:312|257:344,1,116.999994644165,8|0,0:0|0:0,0:0:0:0:
373,352,86800,5,2,3:2:0:0:
285,157,86976,1,0,0:0:0:0:
429,56,87153,5,8,0:0:0:0:
341,251,87329,1,0,0:0:0:0:
446,194,87506,5,4,3:2:0:0:
200,77,87682,1,0,0:0:0:0:
285,156,87859,6,0,P|245:198|232:255,1,116.999994644165,8|0,0:0|0:0,0:0:0:0:
309,336,88212,5,2,3:2:0:0:
155,206,88388,1,0,0:0:0:0:
341,251,88565,5,8,0:0:0:0:
146,303,88741,1,0,0:0:0:0:
285,156,88918,6,0,P|250:109|201:78,1,116.999994644165,4|0,3:2|0:0,0:0:0:0:
43,231,89271,2,0,P|96:207|154:205,1,116.999994644165,8|0,0:0|0:0,0:0:0:0:
245,267,89624,5,2,3:2:0:0:
124,120,89800,1,0,0:0:0:0:
355,246,89976,5,8,0:0:0:0:
146,303,90152,1,0,0:0:0:0:
285,155,90329,6,0,P|329:118|385:104,1,116.999994644165,4|0,3:2|0:0,0:0:0:0:
485,175,90682,5,8,0:0:0:0:
261,57,90859,1,0,0:0:0:0:
453,281,91035,5,2,3:2:0:0:
390,106,91212,1,0,0:0:0:0:
222,331,91388,5,8,0:0:0:0:
285,156,91565,1,0,0:0:0:0:
347,307,91741,6,0,P|294:281|257:236,1,116.999994644165,4|0,3:2|0:0,0:0:0:0:
215,163,92006,5,2,3:2:0:0:
214,163,92094,2,0,P|161:184|119:225,1,116.999994644165,8|0,0:0|0:0,0:0:0:0:
78,301,92359,5,2,3:2:0:0:
77,301,92447,2,0,P|135:309|192:325,1,116.999994644165,8|0,0:0|0:0,0:0:0:0:
289,268,92800,6,0,B|227:284|227:284|210:334,1,116.999994644165,2|0,3:2|0:0,0:0:0:0:
296,150,93153,5,4,3:2:0:0:
62,299,93329,1,0,0:0:0:0:
228,146,93506,5,8,0:0:0:0:
385,327,93682,1,0,0:0:0:0:
280,70,93859,5,2,3:2:0:0:
366,106,94035,1,0,0:0:0:0:
451,144,94212,1,8,0:0:0:0:
162,108,94388,1,0,0:0:0:0:
274,198,94565,6,0,B|326:160|326:160|410:159,1,116.999994644165,4|0,3:2|0:0,0:0:0:0:
162,108,94918,2,0,B|112:69|112:69|26:69,1,116.999994644165,8|0,0:0|0:0,0:0:0:0:
443,100,95271,5,2,3:2:0:0:
278,105,95447,1,0,0:0:0:0:
380,255,95624,1,8,0:0:0:0:
356,56,95800,1,0,0:0:0:0:
286,306,95976,6,0,B|220:299|204:233,1,116.999994644165,4|0,3:2|0:0,0:0:0:0:
66,100,96329,5,8,0:0:0:0:
270,142,96506,1,0,0:0:0:0:
237,56,96682,5,2,3:2:0:0:
114,236,96859,1,0,0:0:0:0:
162,108,97035,5,8,0:0:0:0:
272,285,97212,1,0,0:0:0:0:
332,76,97388,6,0,L|448:69,1,116.999994644165,4|0,3:2|0:0,0:0:0:0:
310,184,97741,2,0,L|426:191,1,116.999994644165,2|0,3:2|0:0,0:0:0:0:
272,285,98094,2,0,L|382:321,1,116.999994644165,0|0,3:2|0:0,0:0:0:0:
197,332,98447,6,0,P|181:276|205:224,1,116.999994644165,8|0,0:0|0:0,0:0:0:0:
310,184,98800,1,4,3:2:0:0:
159,53,98976,1,0,0:0:0:0:
82,245,99153,5,8,0:0:0:0:
233,114,99329,1,0,0:0:0:0:
174,234,99506,5,2,3:2:0:0:
72,62,99682,1,0,0:0:0:0:
232,113,99859,6,0,P|290:108|342:81,1,116.999994644165,8|0,0:0|0:0,0:0:0:0:
463,18,100212,6,0,P|483:72|474:129,1,116.999994644165,4|0,3:2|0:0,0:0:0:0:
304,202,100565,5,8,0:0:0:0:
433,271,100741,1,0,0:0:0:0:
379,164,100918,5,2,3:2:0:0:
297,326,101094,1,0,0:0:0:0:
226,158,101271,5,8,0:0:0:0:
136,278,101447,1,0,0:0:0:0:
144,115,101624,6,0,P|184:73|241:66,1,116.999994644165,4|0,3:2|0:0,0:0:0:0:
289,250,101976,5,8,0:0:0:0:
226,158,102153,1,0,0:0:0:0:
333,112,102329,2,0,B|395:100|395:100|445:119,1,116.999994644165,2|0,3:2|0:0,0:0:0:0:
226,158,102682,2,0,B|214:96|214:96|233:45,1,116.999994644165,8|0,0:0|0:0,0:0:0:0:
256,192,103035,12,0,104094,0:0:0:0:
226,158,104447,6,0,L|119:175,1,107.999996704102,2|0,3:2|0:0,0:0:0:0:
367,192,104800,2,0,L|473:209,1,107.999996704102
222,243,105153,2,0,L|115:260,1,107.999996704102,2|0,3:2|0:0,0:0:0:0:
364,100,105506,2,0,L|470:82,1,107.999996704102
243,127,105859,6,0,L|305:38,1,107.999996704102,2|0,3:2|0:0,0:0:0:0:
426,188,106212,2,0,L|363:99,1,107.999996704102
134,134,106565,2,0,L|196:45,1,107.999996704102,2|0,3:2|0:0,0:0:0:0:
384,271,106918,2,0,L|321:182,1,107.999996704102
144,235,107271,6,0,L|250:252,1,107.999996704102,2|0,3:2|0:0,0:0:0:0:
490,253,107623,2,0,L|383:270,1,107.999996704102
148,320,107977,2,0,L|254:337,1,107.999996704102,2|0,3:2|0:0,0:0:0:0:
396,181,108329,2,0,L|289:163,1,107.999996704102
71,240,108682,6,0,P|63:133|182:74,1,215.999993408203,2|0,3:2|0:0,0:0:0:0:
155,175,109212,2,0,P|251:216|377:164,1,215.999993408203,8|0,0:0|0:0,0:0:0:0:
262,133,109741,2,0,L|265:13,1,107.999996704102,8|0,0:0|0:0,0:0:0:0:
350,51,110094,6,0,L|352:146,1,90,4|0,3:2|0:0,0:0:0:0:
467,172,110447,2,0,L|442:86,1,90
397,228,110800,6,0,L|370:319,1,90,2|0,3:2|0:0,0:0:0:0:
277,319,111153,2,0,L|290:230,1,90
185,237,111506,6,0,L|184:332,1,90,2|0,0:0|0:0,0:0:0:0:
91,292,112035,2,0,L|79:203,1,90,8|0,0:0|0:0,0:0:0:0:
73,157,112565,1,14,0:0:0:0:
184,236,112918,2,0,P|249:253|316:244,1,135,6|0,2:3|0:0,0:0:0:0:
256,192,113624,12,4,115035,0:0:0:0:
