osu file format v14

[General]
AudioFilename: audio.mp3
AudioLeadIn: 0
PreviewTime: 19786
Countdown: 0
SampleSet: Soft
StackLeniency: 0.7
Mode: 3
LetterboxInBreaks: 0
SpecialStyle: 0
WidescreenStoryboard: 0

[Editor]
DistanceSpacing: 0.6
BeatDivisor: 4
GridSize: 4
TimelineZoom: 1.7

[Metadata]
Title:Power To Progress
TitleUnicode:Power To Progress
Artist:Darren Loveday & Stephen Loveday
ArtistUnicode:Darren Loveday & Stephen Loveday
Creator:Benzopirene
Version:Improvement
Source:Life is Strange
Tags:
BeatmapID:1407620
BeatmapSetID:665071

[Difficulty]
HPDrainRate:8.5
CircleSize:4
OverallDifficulty:8.5
ApproachRate:5
SliderMultiplier:1.4
SliderTickRate:1

[Events]
//Background and Video events
0,0,"wp1850451.jpg",0,0
//Break Periods
//Storyboard Layer 0 (Background)
//Storyboard Layer 1 (Fail)
//Storyboard Layer 2 (Pass)
//Storyboard Layer 3 (Foreground)
//Storyboard Sound Samples

[TimingPoints]
150,545.454545454546,4,2,0,30,1,0
150,-142.857142857143,4,2,0,30,0,0
422.714285714286,-148.936170212766,4,2,0,30,0,0
695.428571428571,-155.555555555556,4,2,0,30,0,0
968.142857142857,-162.790697674419,4,2,0,30,0,0
1240.85714285714,-170.731707317073,4,2,0,30,0,0
1513.57142857143,-179.487179487179,4,2,0,30,0,0
1786.28571428571,-189.189189189189,4,2,0,30,0,0
2059,-200,4,2,0,30,0,0
2331,-86.9565217391304,4,2,0,30,0,0
2400,-142.857142857143,4,2,0,30,0,0
2603.71428571429,-148.936170212766,4,2,0,30,0,0
2876.42857142857,-155.555555555556,4,2,0,30,0,0
3149.14285714286,-162.790697674419,4,2,0,30,0,0
3421.85714285714,-170.731707317073,4,2,0,30,0,0
3694.57142857143,-179.487179487179,4,2,0,30,0,0
3967.28571428571,-189.189189189189,4,2,0,30,0,0
4240,-200,4,2,0,30,0,0
4513,-86.9565217391304,4,2,0,30,0,0
4581,-142.857142857143,4,2,0,30,0,0
4785.73333333333,-145.631067961165,4,2,0,30,0,0
5058.46666666667,-148.514851485149,4,2,0,30,0,0
5331.2,-151.515151515152,4,2,0,30,0,0
5603.93333333333,-154.639175257732,4,2,0,30,0,0
5876.66666666667,-157.894736842105,4,2,0,30,0,0
6149.4,-161.290322580645,4,2,0,30,0,0
6422.13333333333,-164.835164835165,4,2,0,30,0,0
6694.86666666667,-168.539325842697,4,2,0,30,0,0
6967.6,-172.413793103448,4,2,0,30,0,0
7240.33333333333,-176.470588235294,4,2,0,30,0,0
7513.06666666667,-180.722891566265,4,2,0,30,0,0
7785.8,-185.185185185185,4,2,0,30,0,0
8058.53333333333,-189.873417721519,4,2,0,30,0,0
8331.26666666667,-194.805194805195,4,2,0,30,0,0
8604,-200,4,2,0,30,0,0
8877,-86.9565217391304,4,2,0,30,0,0
8945,-142.857142857143,4,2,0,30,0,0
9149.71428571429,-148.936170212766,4,2,0,30,0,0
9422.42857142857,-155.555555555556,4,2,0,30,0,0
9695.14285714286,-162.790697674419,4,2,0,30,0,0
9967.85714285714,-170.731707317073,4,2,0,30,0,0
10240.5714285714,-179.487179487179,4,2,0,30,0,0
10513.2857142857,-189.189189189189,4,2,0,30,0,0
10786,-200,4,2,0,30,0,0
11059,-86.9565217391304,4,2,0,30,0,0
11127,-142.857142857143,4,2,0,30,0,0
11331.7142857143,-148.936170212766,4,2,0,30,0,0
11604.4285714286,-155.555555555556,4,2,0,30,0,0
11877.1428571429,-162.790697674419,4,2,0,30,0,0
12149.8571428571,-170.731707317073,4,2,0,30,0,0
12422.5714285714,-179.487179487179,4,2,0,30,0,0
12695.2857142857,-189.189189189189,4,2,0,30,0,0
12968,-200,4,2,0,30,0,0
13240,-86.9565217391304,4,2,0,30,0,0
13309,-142.857142857143,4,2,0,30,0,0
13512.8571428571,-148.936170212766,4,2,0,30,0,0
13785.7142857143,-155.555555555556,4,2,0,30,0,0
14058.5714285714,-162.790697674419,4,2,0,30,0,0
14331.4285714286,-170.731707317073,4,2,0,30,0,0
14604.2857142857,-179.487179487179,4,2,0,30,0,0
14877.1428571429,-189.189189189189,4,2,0,30,0,0
15150,-200,4,2,0,30,0,0
15422,-200,4,2,0,30,0,0
15694.7142857143,-199.186991869919,4,2,0,30,0,0
15967.4285714286,-196.787148594378,4,2,0,30,0,0
16240.1428571429,-192.913385826772,4,2,0,30,0,0
16512.8571428571,-187.739463601533,4,2,0,30,0,0
16785.5714285714,-181.481481481481,4,2,0,30,0,0
17058.2857142857,-174.377224199288,4,2,0,30,0,0
17331,-166.666666666667,4,2,0,30,0,0
17604,-166.666666666667,4,2,0,30,0,0
17876.8,-156.25,4,2,0,30,0,0
18149.6,-147.058823529412,4,2,0,30,0,0
18422.4,-138.888888888889,4,2,0,30,0,0
18695.2,-131.578947368421,4,2,0,30,0,0
18968,-125,4,2,0,30,0,0
19104.4,-123.762376237624,4,2,0,30,0,0
19240.8,-120.192307692308,4,2,0,30,0,0
19377.2,-114.678899082569,4,2,0,30,0,0
19513.6,-107.758620689655,4,2,0,30,0,0
19650,-100,4,2,0,30,0,0
19786,-55.5555555555556,4,2,0,30,0,0
19854,-100,4,2,0,30,0,0
21968,-55.5555555555556,4,2,0,30,0,0
22036,-100,4,2,0,30,0,0
24150,-55.5555555555556,4,2,0,30,0,0
24218,-100,4,2,0,30,0,0
28513,-55.5555555555556,4,2,0,30,0,0
28581,-100,4,2,0,30,0,0
30695,-55.5555555555556,4,2,0,30,0,0
30763,-100,4,2,0,30,0,0
32877,-55.5555555555556,4,2,0,30,0,0
32945,-100,4,2,0,30,0,0
37240,-55.5555555555556,4,2,0,30,0,0
37308,-100,4,2,0,30,0,0
39422,-55.5555555555556,4,2,0,30,0,0
39490,-100,4,2,0,30,0,0
41604,-55.5555555555556,4,2,0,30,0,0
41672,-100,4,2,0,30,0,0
45968,-55.5555555555556,4,2,0,30,0,0
46036,-100,4,2,0,30,0,0
48149,-55.5555555555556,4,2,0,30,0,0
48218,-100,4,2,0,30,0,0
50331,-55.5555555555556,4,2,0,30,0,0
50399,-100,4,2,0,30,0,0
54695,-55.5555555555556,4,2,0,30,0,0
54763,-100,4,2,0,30,0,0
56877,-55.5555555555556,4,2,0,30,0,0
56945,-100,4,2,0,30,0,0
59058,-55.5555555555556,4,2,0,30,0,0
59127,-100,4,2,0,30,0,0
63422,-55.5555555555556,4,2,0,30,0,0
63490,-100,4,2,0,30,0,0
65604,-55.5555555555556,4,2,0,30,0,0
65672,-100,4,2,0,30,0,0
67786,-55.5555555555556,4,2,0,30,0,0
67854,-100,4,2,0,30,0,0
71468,-100,4,2,0,30,0,0
71604.4,-99.2063492063492,4,2,0,30,0,0
71740.8,-96.8992248062015,4,2,0,30,0,0
71877.2,-93.2835820895522,4,2,0,30,0,0
72013.6,-88.6524822695035,4,2,0,30,0,0
72150,-50,4,2,0,30,0,0
72218,-83.3333333333333,4,2,0,30,0,0
72422.6666666667,-86.7052023121387,4,2,0,30,0,0
72695.3333333333,-90.3614457831325,4,2,0,30,0,0
72968,-94.3396226415094,4,2,0,30,0,0
73240.6666666667,-98.6842105263158,4,2,0,30,0,0
73513.3333333333,-103.448275862069,4,2,0,30,0,0
73786,-108.695652173913,4,2,0,30,0,0
74058.6666666667,-114.503816793893,4,2,0,30,0,0
74331.3333333333,-120.967741935484,4,2,0,30,0,0
74604,-128.205128205128,4,2,0,30,0,0
74876.6666666667,-136.363636363636,4,2,0,30,0,0
75149.3333333333,-145.631067961165,4,2,0,30,0,0
75422,-156.25,4,2,0,30,0,0
75694.6666666667,-168.539325842697,4,2,0,30,0,0
75967.3333333333,-182.926829268293,4,2,0,30,0,0
76240,-200,4,2,0,30,0,0
76513,-76.9230769230769,4,2,0,30,0,0
76581,-142.857142857143,4,2,0,30,0,0
78695,-76.9230769230769,4,2,0,30,0,0
78763,-142.857142857143,4,2,0,30,0,0
80877,-76.923076923077,4,2,0,30,0,0
80945,-142.857142857143,4,2,0,30,0,0
82513,-142.857142857143,4,2,0,30,0,0
82785.7777777778,-147.540983606557,4,2,0,30,0,0
83058.5555555556,-152.542372881356,4,2,0,30,0,0
83331.3333333333,-157.894736842105,4,2,0,30,0,0
83604.1111111111,-163.636363636364,4,2,0,30,0,0
83876.8888888889,-169.811320754717,4,2,0,30,0,0
84149.6666666667,-176.470588235294,4,2,0,30,0,0
84422.4444444444,-183.673469387755,4,2,0,30,0,0
84695.2222222222,-191.489361702128,4,2,0,30,0,0
84968,-200,4,2,0,30,0,0
85240,-76.9230769230769,4,2,0,30,0,0
85308,-142.857142857143,4,2,0,30,0,0
87422,-76.9230769230769,4,2,0,30,0,0
87490,-142.857142857143,4,2,0,30,0,0
89604,-76.9230769230769,4,2,0,30,0,0
89672,-142.857142857143,4,2,0,30,0,0
91786,-142.857142857143,4,2,0,30,0,0
92058.75,-140.350877192982,4,2,0,30,0,0
92331.5,-137.931034482759,4,2,0,30,0,0
92604.25,-135.593220338983,4,2,0,30,0,0
92877,-133.333333333333,4,2,0,30,0,0
93149.75,-131.147540983607,4,2,0,30,0,0
93422.5,-129.032258064516,4,2,0,30,0,0
93695.25,-126.984126984127,4,2,0,30,0,0
93968,-71.4285714285714,4,2,0,30,0,0
94036,-125,4,2,0,30,0,0
96149,-76.9230769230769,4,2,0,30,0,0
96218,-125,4,2,0,30,0,0
98331,-71.4285714285714,4,2,0,30,0,0
98399,-125,4,2,0,30,0,0
102695,-71.4285714285714,4,2,0,30,0,0
102763,-125,4,2,0,30,0,0
104877,-62.5,4,2,0,30,0,0
104945,-125,4,2,0,30,0,0
107058,-83.3333333333333,4,2,0,30,0,0
107127,-125,4,2,0,30,0,0
109512.8,-119.047619047619,4,2,0,30,0,0
109785.6,-113.636363636364,4,2,0,30,0,0
110058.4,-108.695652173913,4,2,0,30,0,0
110331.2,-104.166666666667,4,2,0,30,0,0
110604,-100,4,2,0,30,0,0
110740.4,-99.2063492063492,4,2,0,30,0,0
110876.8,-96.8992248062015,4,2,0,30,0,0
111013.2,-93.2835820895522,4,2,0,30,0,0
111149.6,-88.6524822695035,4,2,0,30,0,0
111286,-83.3333333333333,4,2,0,30,0,0
111422,-55.5555555555556,4,2,0,30,0,0
111490,-100,4,2,0,30,0,0
113604,-55.5555555555556,4,2,0,30,0,0
113672,-100,4,2,0,30,0,0
115786,-55.5555555555556,4,2,0,30,0,0
115854,-100,4,2,0,30,0,0
120149,-55.5555555555556,4,2,0,30,0,0
120218,-100,4,2,0,30,0,0
122331,-55.5555555555556,4,2,0,30,0,0
122399,-100,4,2,0,30,0,0
124513,-55.5555555555556,4,2,0,30,0,0
124581,-100,4,2,0,30,0,0
128877,-55.5555555555556,4,2,0,30,0,0
128945,-100,4,2,0,30,0,0
131058,-55.5555555555556,4,2,0,30,0,0
131127,-100,4,2,0,30,0,0
133240,-55.5555555555556,4,2,0,30,0,0
133308,-100,4,2,0,30,0,0
137604,-55.5555555555556,4,2,0,30,0,0
137672,-100,4,2,0,30,0,0
139786,-55.5555555555556,4,2,0,30,0,0
139854,-100,4,2,0,30,0,0
141968,-55.5555555555556,4,2,0,30,0,0
142036,-100,4,2,0,30,0,0
146331,-55.5555555555556,4,2,0,30,0,0
146399,-100,4,2,0,30,0,0
147285.75,-114.285714285714,4,2,0,30,0,0
148240.5,-133.333333333333,4,2,0,30,0,0
149195.25,-160,4,2,0,30,0,0
150150,-200,4,2,0,30,0,0

[HitObjects]
64,192,150,128,0,2059:0:0:0:0:
64,192,2331,128,0,4240:0:0:0:0:
192,192,4513,128,0,8604:0:0:0:0:
320,192,8877,128,0,10786:0:0:0:0:
448,192,11059,128,0,12968:0:0:0:0:
320,192,13240,128,0,19650:0:0:0:0:
192,192,15422,128,0,19650:0:0:0:0:
64,192,17604,128,0,19650:0:0:0:0:
64,192,19786,128,0,19922:0:0:0:0:
448,192,19786,128,0,20877:0:0:0:0:
320,192,19786,1,0,0:0:0:0:
320,192,20059,128,0,20195:0:0:0:0:
64,192,20195,1,0,0:0:0:0:
192,192,20195,128,0,20604:0:0:0:0:
320,192,20331,1,0,0:0:0:0:
64,192,20604,1,0,0:0:0:0:
320,192,20877,128,0,21150:0:0:0:0:
192,192,20877,128,0,21013:0:0:0:0:
448,192,21013,128,0,21286:0:0:0:0:
64,192,21013,1,0,0:0:0:0:
192,192,21150,128,0,21422:0:0:0:0:
64,192,21286,128,0,21559:0:0:0:0:
320,192,21286,128,0,21422:0:0:0:0:
448,192,21422,1,0,0:0:0:0:
192,192,21559,128,0,21831:0:0:0:0:
448,192,21695,128,0,21831:0:0:0:0:
192,192,21968,128,0,22104:0:0:0:0:
64,192,21968,128,0,23059:0:0:0:0:
448,192,22240,128,0,22513:0:0:0:0:
320,192,22377,128,0,22650:0:0:0:0:
192,192,22513,128,0,22786:0:0:0:0:
448,192,22650,1,0,0:0:0:0:
320,192,22786,128,0,23059:0:0:0:0:
448,192,23059,128,0,23331:0:0:0:0:
192,192,23059,1,0,0:0:0:0:
320,192,23331,128,0,23740:0:0:0:0:
192,192,23468,128,0,23604:0:0:0:0:
64,192,23604,128,0,23740:0:0:0:0:
192,192,23740,128,0,24013:0:0:0:0:
320,192,23877,128,0,24013:0:0:0:0:
64,192,24150,128,0,25240:0:0:0:0:
448,192,24150,128,0,24286:0:0:0:0:
448,192,24422,128,0,24695:0:0:0:0:
320,192,24559,128,0,24831:0:0:0:0:
192,192,24695,128,0,24968:0:0:0:0:
448,192,24968,1,0,0:0:0:0:
192,192,25240,1,0,0:0:0:0:
448,192,25240,128,0,25513:0:0:0:0:
320,192,25377,128,0,25650:0:0:0:0:
64,192,25377,1,0,0:0:0:0:
192,192,25513,128,0,25786:0:0:0:0:
448,192,25650,1,0,0:0:0:0:
64,192,25650,128,0,25922:0:0:0:0:
320,192,25786,1,0,0:0:0:0:
192,192,25922,1,0,0:0:0:0:
320,192,26059,128,0,26331:0:0:0:0:
64,192,26331,1,0,0:0:0:0:
192,192,26331,1,0,0:0:0:0:
320,192,26604,128,0,26877:0:0:0:0:
64,192,26740,128,0,27013:0:0:0:0:
448,192,26740,128,0,27013:0:0:0:0:
192,192,26877,128,0,27286:0:0:0:0:
448,192,27150,128,0,27695:0:0:0:0:
320,192,27150,128,0,27422:0:0:0:0:
64,192,27422,128,0,27831:0:0:0:0:
192,192,27422,128,0,27695:0:0:0:0:
320,192,27695,128,0,27831:0:0:0:0:
448,192,27831,128,0,28104:0:0:0:0:
192,192,27831,128,0,28377:0:0:0:0:
64,192,27968,128,0,28377:0:0:0:0:
320,192,27968,128,0,28104:0:0:0:0:
320,192,28240,128,0,28377:0:0:0:0:
448,192,28240,128,0,28377:0:0:0:0:
192,192,28513,128,0,29604:0:0:0:0:
64,192,28513,128,0,28650:0:0:0:0:
320,192,28786,128,0,28922:0:0:0:0:
64,192,28922,128,0,29195:0:0:0:0:
448,192,28922,1,0,0:0:0:0:
320,192,29059,1,0,0:0:0:0:
448,192,29331,128,0,29604:0:0:0:0:
64,192,29604,128,0,29877:0:0:0:0:
320,192,29740,128,0,30013:0:0:0:0:
192,192,29877,128,0,30150:0:0:0:0:
448,192,30013,1,0,0:0:0:0:
64,192,30013,128,0,30286:0:0:0:0:
320,192,30150,1,0,0:0:0:0:
192,192,30286,1,0,0:0:0:0:
64,192,30422,128,0,30559:0:0:0:0:
320,192,30695,1,0,0:0:0:0:
448,192,30695,128,0,31786:0:0:0:0:
192,192,30695,128,0,30831:0:0:0:0:
64,192,30968,128,0,31240:0:0:0:0:
320,192,31104,128,0,31240:0:0:0:0:
192,192,31240,128,0,31513:0:0:0:0:
320,192,31377,128,0,31650:0:0:0:0:
64,192,31513,128,0,31786:0:0:0:0:
192,192,31786,128,0,31922:0:0:0:0:
320,192,31786,128,0,31922:0:0:0:0:
448,192,32059,128,0,32331:0:0:0:0:
64,192,32195,128,0,32468:0:0:0:0:
192,192,32195,1,0,0:0:0:0:
320,192,32331,128,0,32604:0:0:0:0:
192,192,32468,128,0,32740:0:0:0:0:
448,192,32604,1,0,0:0:0:0:
64,192,32877,128,0,33968:0:0:0:0:
320,192,32877,128,0,33013:0:0:0:0:
448,192,33150,128,0,33422:0:0:0:0:
320,192,33286,128,0,33559:0:0:0:0:
192,192,33422,128,0,33695:0:0:0:0:
448,192,33695,128,0,33968:0:0:0:0:
320,192,33968,128,0,34240:0:0:0:0:
192,192,34104,128,0,34377:0:0:0:0:
64,192,34240,128,0,34513:0:0:0:0:
448,192,34240,1,0,0:0:0:0:
320,192,34377,1,0,0:0:0:0:
192,192,34513,1,0,0:0:0:0:
64,192,34650,1,0,0:0:0:0:
320,192,34650,128,0,34786:0:0:0:0:
192,192,34786,128,0,35059:0:0:0:0:
64,192,35059,128,0,35331:0:0:0:0:
448,192,35059,128,0,35331:0:0:0:0:
320,192,35331,128,0,35604:0:0:0:0:
192,192,35468,128,0,35740:0:0:0:0:
448,192,35468,128,0,35740:0:0:0:0:
64,192,35604,128,0,35877:0:0:0:0:
320,192,35877,128,0,36150:0:0:0:0:
448,192,36150,128,0,36422:0:0:0:0:
192,192,36150,128,0,36286:0:0:0:0:
64,192,36150,128,0,36559:0:0:0:0:
192,192,36422,128,0,36695:0:0:0:0:
448,192,36559,128,0,36831:0:0:0:0:
64,192,36695,128,0,37104:0:0:0:0:
320,192,36695,128,0,36831:0:0:0:0:
192,192,36831,128,0,37104:0:0:0:0:
320,192,36968,128,0,37104:0:0:0:0:
448,192,36968,128,0,37104:0:0:0:0:
448,192,37240,128,0,38331:0:0:0:0:
320,192,37240,128,0,37377:0:0:0:0:
64,192,37240,128,0,37513:0:0:0:0:
192,192,37513,128,0,37650:0:0:0:0:
64,192,37650,1,0,0:0:0:0:
320,192,37650,1,0,0:0:0:0:
192,192,37786,1,0,0:0:0:0:
192,192,38059,128,0,38331:0:0:0:0:
64,192,38331,128,0,38468:0:0:0:0:
320,192,38331,128,0,38604:0:0:0:0:
448,192,38468,128,0,38740:0:0:0:0:
192,192,38468,128,0,38604:0:0:0:0:
64,192,38604,128,0,39150:0:0:0:0:
192,192,38740,128,0,39013:0:0:0:0:
320,192,38740,128,0,38877:0:0:0:0:
448,192,38877,1,0,0:0:0:0:
320,192,39013,1,0,0:0:0:0:
192,192,39150,1,0,0:0:0:0:
64,192,39422,128,0,40513:0:0:0:0:
448,192,39422,128,0,39559:0:0:0:0:
320,192,39422,128,0,39695:0:0:0:0:
192,192,39695,128,0,39831:0:0:0:0:
320,192,39831,1,0,0:0:0:0:
448,192,39831,1,0,0:0:0:0:
192,192,39968,1,0,0:0:0:0:
192,192,40240,128,0,40513:0:0:0:0:
448,192,40513,128,0,40786:0:0:0:0:
320,192,40513,128,0,40650:0:0:0:0:
320,192,40786,128,0,41195:0:0:0:0:
448,192,40922,128,0,41331:0:0:0:0:
192,192,40922,128,0,41059:0:0:0:0:
64,192,41059,1,0,0:0:0:0:
192,192,41195,1,0,0:0:0:0:
320,192,41331,1,0,0:0:0:0:
448,192,41604,128,0,42695:0:0:0:0:
64,192,41604,128,0,41877:0:0:0:0:
192,192,41604,128,0,41740:0:0:0:0:
192,192,41877,128,0,42013:0:0:0:0:
64,192,42013,1,0,0:0:0:0:
320,192,42013,1,0,0:0:0:0:
192,192,42150,1,0,0:0:0:0:
192,192,42422,128,0,42695:0:0:0:0:
64,192,42695,128,0,42831:0:0:0:0:
320,192,42695,128,0,42831:0:0:0:0:
448,192,42831,128,0,42968:0:0:0:0:
192,192,42831,128,0,42968:0:0:0:0:
320,192,42968,128,0,43240:0:0:0:0:
192,192,43104,128,0,43377:0:0:0:0:
448,192,43104,128,0,43377:0:0:0:0:
64,192,43240,128,0,43513:0:0:0:0:
320,192,43377,1,0,0:0:0:0:
192,192,43513,1,0,0:0:0:0:
64,192,43786,128,0,44059:0:0:0:0:
448,192,43786,128,0,44059:0:0:0:0:
192,192,44059,128,0,44195:0:0:0:0:
64,192,44195,1,0,0:0:0:0:
448,192,44195,1,0,0:0:0:0:
192,192,44331,1,0,0:0:0:0:
320,192,44604,128,0,44877:0:0:0:0:
448,192,44877,128,0,45013:0:0:0:0:
192,192,44877,128,0,45286:0:0:0:0:
64,192,44877,128,0,45150:0:0:0:0:
448,192,45150,128,0,45286:0:0:0:0:
320,192,45286,128,0,45422:0:0:0:0:
64,192,45286,128,0,45559:0:0:0:0:
448,192,45422,1,0,0:0:0:0:
192,192,45422,128,0,45559:0:0:0:0:
320,192,45559,1,0,0:0:0:0:
64,192,45695,1,0,0:0:0:0:
192,192,45695,1,0,0:0:0:0:
64,192,45968,128,0,47059:0:0:0:0:
320,192,45968,128,0,46104:0:0:0:0:
448,192,45968,128,0,46240:0:0:0:0:
192,192,46240,128,0,46377:0:0:0:0:
320,192,46377,1,0,0:0:0:0:
448,192,46377,1,0,0:0:0:0:
192,192,46513,1,0,0:0:0:0:
192,192,46786,128,0,47059:0:0:0:0:
448,192,47059,128,0,47468:0:0:0:0:
320,192,47059,128,0,47331:0:0:0:0:
64,192,47195,128,0,47331:0:0:0:0:
192,192,47331,128,0,47740:0:0:0:0:
320,192,47468,128,0,47604:0:0:0:0:
64,192,47468,128,0,47877:0:0:0:0:
448,192,47604,1,0,0:0:0:0:
320,192,47740,1,0,0:0:0:0:
192,192,47877,1,0,0:0:0:0:
448,192,48150,128,0,49240:0:0:0:0:
64,192,48150,128,0,48422:0:0:0:0:
192,192,48150,128,0,48286:0:0:0:0:
192,192,48422,128,0,48559:0:0:0:0:
320,192,48559,1,0,0:0:0:0:
64,192,48559,1,0,0:0:0:0:
192,192,48695,1,0,0:0:0:0:
192,192,48968,128,0,49240:0:0:0:0:
320,192,49240,128,0,49513:0:0:0:0:
64,192,49240,128,0,49513:0:0:0:0:
192,192,49513,128,0,49650:0:0:0:0:
320,192,49650,1,0,0:0:0:0:
64,192,49650,1,0,0:0:0:0:
192,192,49786,128,0,50059:0:0:0:0:
320,192,49922,128,0,50195:0:0:0:0:
448,192,50059,128,0,50195:0:0:0:0:
64,192,50331,128,0,51422:0:0:0:0:
192,192,50331,128,0,50604:0:0:0:0:
320,192,50331,128,0,50468:0:0:0:0:
320,192,50604,128,0,50740:0:0:0:0:
192,192,50740,1,0,0:0:0:0:
448,192,50740,1,0,0:0:0:0:
320,192,50877,1,0,0:0:0:0:
192,192,51150,128,0,51422:0:0:0:0:
448,192,51422,128,0,51695:0:0:0:0:
320,192,51559,128,0,51831:0:0:0:0:
192,192,51695,128,0,51968:0:0:0:0:
64,192,51831,128,0,52104:0:0:0:0:
448,192,51831,1,0,0:0:0:0:
320,192,51968,1,0,0:0:0:0:
192,192,52104,1,0,0:0:0:0:
64,192,52240,1,0,0:0:0:0:
64,192,52513,128,0,52786:0:0:0:0:
448,192,52513,128,0,52786:0:0:0:0:
320,192,52786,128,0,52922:0:0:0:0:
64,192,52922,1,0,0:0:0:0:
448,192,52922,1,0,0:0:0:0:
320,192,53059,1,0,0:0:0:0:
192,192,53331,1,0,0:0:0:0:
320,192,53604,128,0,53877:0:0:0:0:
64,192,53604,128,0,54013:0:0:0:0:
192,192,53877,128,0,54013:0:0:0:0:
320,192,54013,128,0,54150:0:0:0:0:
448,192,54013,128,0,54286:0:0:0:0:
192,192,54150,128,0,54286:0:0:0:0:
64,192,54150,128,0,54559:0:0:0:0:
320,192,54286,128,0,54422:0:0:0:0:
192,192,54422,128,0,54559:0:0:0:0:
448,192,54422,1,0,0:0:0:0:
320,192,54559,1,0,0:0:0:0:
64,192,54695,128,0,55786:0:0:0:0:
192,192,54695,128,0,54831:0:0:0:0:
320,192,54968,128,0,55104:0:0:0:0:
192,192,55104,1,0,0:0:0:0:
448,192,55104,1,0,0:0:0:0:
320,192,55240,1,0,0:0:0:0:
192,192,55513,1,0,0:0:0:0:
448,192,55513,1,0,0:0:0:0:
192,192,55786,128,0,56059:0:0:0:0:
448,192,55786,128,0,55922:0:0:0:0:
320,192,55922,128,0,56059:0:0:0:0:
64,192,55922,128,0,56195:0:0:0:0:
448,192,56059,1,0,0:0:0:0:
320,192,56195,1,0,0:0:0:0:
192,192,56195,1,0,0:0:0:0:
64,192,56331,128,0,56604:0:0:0:0:
192,192,56468,128,0,56740:0:0:0:0:
320,192,56604,128,0,56740:0:0:0:0:
448,192,56877,128,0,57968:0:0:0:0:
64,192,56877,128,0,57150:0:0:0:0:
192,192,56877,128,0,57013:0:0:0:0:
192,192,57150,128,0,57286:0:0:0:0:
64,192,57286,1,0,0:0:0:0:
320,192,57286,1,0,0:0:0:0:
192,192,57422,1,0,0:0:0:0:
320,192,57695,128,0,57968:0:0:0:0:
192,192,57968,128,0,58240:0:0:0:0:
64,192,57968,128,0,58377:0:0:0:0:
320,192,58240,128,0,58513:0:0:0:0:
448,192,58377,128,0,58650:0:0:0:0:
192,192,58377,1,0,0:0:0:0:
64,192,58513,128,0,58786:0:0:0:0:
192,192,58650,128,0,58922:0:0:0:0:
320,192,58786,128,0,58922:0:0:0:0:
64,192,59059,128,0,60150:0:0:0:0:
448,192,59059,128,0,59331:0:0:0:0:
192,192,59059,128,0,59195:0:0:0:0:
320,192,59331,128,0,59468:0:0:0:0:
192,192,59468,1,0,0:0:0:0:
448,192,59468,1,0,0:0:0:0:
320,192,59604,1,0,0:0:0:0:
192,192,59877,128,0,60150:0:0:0:0:
320,192,60150,128,0,60422:0:0:0:0:
448,192,60150,128,0,60286:0:0:0:0:
192,192,60286,128,0,60559:0:0:0:0:
64,192,60422,128,0,60695:0:0:0:0:
448,192,60422,1,0,0:0:0:0:
320,192,60559,1,0,0:0:0:0:
192,192,60695,1,0,0:0:0:0:
64,192,60831,1,0,0:0:0:0:
320,192,60968,128,0,61240:0:0:0:0:
448,192,61240,128,0,61513:0:0:0:0:
192,192,61240,128,0,61513:0:0:0:0:
64,192,61513,128,0,61650:0:0:0:0:
192,192,61650,1,0,0:0:0:0:
448,192,61650,1,0,0:0:0:0:
64,192,61786,1,0,0:0:0:0:
320,192,62059,128,0,62331:0:0:0:0:
192,192,62331,128,0,62468:0:0:0:0:
64,192,62331,128,0,62740:0:0:0:0:
192,192,62604,128,0,62740:0:0:0:0:
320,192,62740,128,0,62877:0:0:0:0:
448,192,62740,128,0,63013:0:0:0:0:
192,192,62877,128,0,63013:0:0:0:0:
64,192,62877,128,0,63286:0:0:0:0:
320,192,63013,128,0,63150:0:0:0:0:
192,192,63150,128,0,63286:0:0:0:0:
448,192,63150,128,0,63286:0:0:0:0:
320,192,63286,1,0,0:0:0:0:
64,192,63422,128,0,64513:0:0:0:0:
192,192,63422,128,0,63695:0:0:0:0:
448,192,63422,128,0,63559:0:0:0:0:
320,192,63695,128,0,63831:0:0:0:0:
192,192,63831,1,0,0:0:0:0:
448,192,63831,1,0,0:0:0:0:
320,192,63968,1,0,0:0:0:0:
192,192,64240,128,0,64513:0:0:0:0:
448,192,64513,128,0,64786:0:0:0:0:
320,192,64650,128,0,64922:0:0:0:0:
192,192,64786,128,0,65059:0:0:0:0:
448,192,64922,1,0,0:0:0:0:
64,192,64922,128,0,65195:0:0:0:0:
320,192,65059,1,0,0:0:0:0:
192,192,65195,1,0,0:0:0:0:
64,192,65331,1,0,0:0:0:0:
448,192,65604,128,0,66695:0:0:0:0:
320,192,65604,128,0,65877:0:0:0:0:
64,192,65604,128,0,65740:0:0:0:0:
192,192,65877,128,0,66013:0:0:0:0:
320,192,66013,1,0,0:0:0:0:
64,192,66013,1,0,0:0:0:0:
192,192,66150,1,0,0:0:0:0:
320,192,66422,128,0,66695:0:0:0:0:
192,192,66695,128,0,66831:0:0:0:0:
64,192,66695,128,0,66968:0:0:0:0:
320,192,66968,128,0,67240:0:0:0:0:
448,192,66968,128,0,67104:0:0:0:0:
192,192,67104,128,0,67377:0:0:0:0:
64,192,67240,128,0,67513:0:0:0:0:
448,192,67240,1,0,0:0:0:0:
320,192,67377,1,0,0:0:0:0:
192,192,67513,1,0,0:0:0:0:
64,192,67786,128,0,68877:0:0:0:0:
448,192,67786,128,0,68059:0:0:0:0:
320,192,68059,128,0,68195:0:0:0:0:
192,192,68195,1,0,0:0:0:0:
448,192,68195,1,0,0:0:0:0:
320,192,68331,1,0,0:0:0:0:
192,192,68604,128,0,68877:0:0:0:0:
448,192,68877,128,0,69150:0:0:0:0:
64,192,69013,128,0,69286:0:0:0:0:
320,192,69150,128,0,69422:0:0:0:0:
448,192,69286,1,0,0:0:0:0:
192,192,69286,128,0,69559:0:0:0:0:
64,192,69422,1,0,0:0:0:0:
320,192,69559,1,0,0:0:0:0:
192,192,69695,128,0,69968:0:0:0:0:
448,192,69968,128,0,70377:0:0:0:0:
64,192,69968,128,0,70240:0:0:0:0:
192,192,70240,128,0,70650:0:0:0:0:
320,192,70377,128,0,70513:0:0:0:0:
64,192,70377,128,0,70922:0:0:0:0:
448,192,70513,1,0,0:0:0:0:
320,192,70650,1,0,0:0:0:0:
192,192,70786,128,0,70922:0:0:0:0:
192,192,71059,128,0,71195:0:0:0:0:
64,192,71059,128,0,71468:0:0:0:0:
192,192,71331,128,0,71468:0:0:0:0:
320,192,71468,128,0,71604:0:0:0:0:
448,192,71468,128,0,71740:0:0:0:0:
192,192,71604,128,0,71740:0:0:0:0:
64,192,71604,128,0,72013:0:0:0:0:
320,192,71740,128,0,72013:0:0:0:0:
192,192,71877,128,0,72013:0:0:0:0:
448,192,71877,128,0,72013:0:0:0:0:
64,192,72150,128,0,76240:0:0:0:0:
448,192,72150,128,0,73240:0:0:0:0:
320,192,72150,128,0,74331:0:0:0:0:
192,192,72150,128,0,75422:0:0:0:0:
192,192,76513,128,0,76786:0:0:0:0:
192,192,76922,128,0,77195:0:0:0:0:
192,192,77331,128,0,77604:0:0:0:0:
192,192,77740,128,0,78013:0:0:0:0:
192,192,78150,128,0,78559:0:0:0:0:
192,192,78695,128,0,78968:0:0:0:0:
192,192,79104,128,0,79377:0:0:0:0:
192,192,79513,128,0,79786:0:0:0:0:
192,192,79922,128,0,80195:0:0:0:0:
192,192,80331,128,0,80740:0:0:0:0:
320,192,80877,128,0,81150:0:0:0:0:
320,192,81286,128,0,81559:0:0:0:0:
320,192,81695,128,0,81968:0:0:0:0:
320,192,82104,128,0,82377:0:0:0:0:
320,192,82513,128,0,84968:0:0:0:0:
192,192,85240,128,0,85513:0:0:0:0:
192,192,85650,128,0,85922:0:0:0:0:
192,192,86059,128,0,86331:0:0:0:0:
192,192,86468,128,0,86740:0:0:0:0:
192,192,86877,128,0,87286:0:0:0:0:
448,192,87422,128,0,87695:0:0:0:0:
448,192,87831,128,0,88104:0:0:0:0:
448,192,88240,128,0,88513:0:0:0:0:
448,192,88650,128,0,88922:0:0:0:0:
448,192,89059,128,0,89468:0:0:0:0:
192,192,89604,128,0,89877:0:0:0:0:
192,192,90013,128,0,90286:0:0:0:0:
192,192,90422,128,0,90695:0:0:0:0:
192,192,90831,128,0,91104:0:0:0:0:
192,192,91240,128,0,93831:0:0:0:0:
320,192,91786,128,0,98195:0:0:0:0:
64,192,93968,128,0,94240:0:0:0:0:
64,192,94377,128,0,94650:0:0:0:0:
64,192,94786,128,0,95059:0:0:0:0:
64,192,95195,128,0,95468:0:0:0:0:
64,192,95604,128,0,96013:0:0:0:0:
64,192,96150,128,0,96422:0:0:0:0:
64,192,96559,128,0,96831:0:0:0:0:
64,192,96968,128,0,97240:0:0:0:0:
64,192,97377,128,0,97650:0:0:0:0:
64,192,97786,128,0,98195:0:0:0:0:
192,192,98331,128,0,102559:0:0:0:0:
448,192,98331,128,0,102559:0:0:0:0:
320,192,102695,128,0,104740:0:0:0:0:
64,192,102695,128,0,102968:0:0:0:0:
64,192,103104,128,0,103377:0:0:0:0:
64,192,103513,128,0,103786:0:0:0:0:
64,192,103922,128,0,104195:0:0:0:0:
64,192,104331,128,0,104740:0:0:0:0:
192,192,104877,128,0,106922:0:0:0:0:
448,192,104877,128,0,105150:0:0:0:0:
448,192,105286,128,0,105559:0:0:0:0:
448,192,105695,128,0,105968:0:0:0:0:
448,192,106104,128,0,106377:0:0:0:0:
448,192,106513,128,0,106922:0:0:0:0:
64,192,107059,128,0,111286:0:0:0:0:
320,192,109240,128,0,111286:0:0:0:0:
448,192,111422,128,0,111559:0:0:0:0:
64,192,111422,128,0,112513:0:0:0:0:
192,192,111422,128,0,111695:0:0:0:0:
320,192,111695,128,0,111831:0:0:0:0:
448,192,111831,128,0,112104:0:0:0:0:
192,192,111831,128,0,112377:0:0:0:0:
320,192,111968,128,0,112240:0:0:0:0:
448,192,112240,128,0,112513:0:0:0:0:
192,192,112513,128,0,112786:0:0:0:0:
320,192,112513,128,0,112650:0:0:0:0:
64,192,112650,128,0,112922:0:0:0:0:
448,192,112650,128,0,112786:0:0:0:0:
320,192,112786,128,0,113059:0:0:0:0:
448,192,112922,128,0,113195:0:0:0:0:
192,192,112922,128,0,113059:0:0:0:0:
64,192,113059,128,0,113195:0:0:0:0:
192,192,113195,128,0,113468:0:0:0:0:
320,192,113195,128,0,113468:0:0:0:0:
64,192,113331,128,0,113468:0:0:0:0:
192,192,113604,128,0,114695:0:0:0:0:
448,192,113604,128,0,113877:0:0:0:0:
64,192,113877,128,0,114150:0:0:0:0:
320,192,114013,128,0,114286:0:0:0:0:
448,192,114150,128,0,114422:0:0:0:0:
64,192,114286,128,0,114559:0:0:0:0:
320,192,114422,128,0,114695:0:0:0:0:
448,192,114695,128,0,114968:0:0:0:0:
64,192,114695,128,0,114831:0:0:0:0:
320,192,114968,128,0,115377:0:0:0:0:
192,192,115104,128,0,115240:0:0:0:0:
448,192,115104,128,0,115240:0:0:0:0:
64,192,115240,128,0,115377:0:0:0:0:
192,192,115377,128,0,115650:0:0:0:0:
320,192,115513,128,0,115650:0:0:0:0:
448,192,115786,128,0,116877:0:0:0:0:
192,192,115786,128,0,115922:0:0:0:0:
64,192,116059,128,0,116331:0:0:0:0:
192,192,116195,128,0,116468:0:0:0:0:
320,192,116331,128,0,116604:0:0:0:0:
64,192,116468,1,0,0:0:0:0:
192,192,116604,1,0,0:0:0:0:
64,192,116877,128,0,117150:0:0:0:0:
320,192,116877,128,0,117150:0:0:0:0:
192,192,117013,128,0,117286:0:0:0:0:
448,192,117150,128,0,117422:0:0:0:0:
320,192,117286,128,0,117559:0:0:0:0:
64,192,117286,128,0,117422:0:0:0:0:
192,192,117422,128,0,117559:0:0:0:0:
64,192,117559,128,0,117831:0:0:0:0:
448,192,117559,128,0,117831:0:0:0:0:
192,192,117695,128,0,117968:0:0:0:0:
448,192,117968,128,0,118240:0:0:0:0:
320,192,117968,128,0,118240:0:0:0:0:
192,192,118240,128,0,118513:0:0:0:0:
448,192,118377,128,0,118650:0:0:0:0:
64,192,118377,128,0,118650:0:0:0:0:
320,192,118513,128,0,118922:0:0:0:0:
64,192,118786,128,0,119331:0:0:0:0:
192,192,118786,128,0,119059:0:0:0:0:
448,192,119059,128,0,119468:0:0:0:0:
320,192,119059,128,0,119195:0:0:0:0:
320,192,119331,128,0,119604:0:0:0:0:
64,192,119468,128,0,119740:0:0:0:0:
192,192,119604,128,0,119740:0:0:0:0:
448,192,119604,128,0,120013:0:0:0:0:
192,192,119877,128,0,120013:0:0:0:0:
64,192,119877,128,0,120013:0:0:0:0:
320,192,120150,128,0,121240:0:0:0:0:
448,192,120150,128,0,120422:0:0:0:0:
192,192,120422,128,0,120559:0:0:0:0:
448,192,120559,128,0,120831:0:0:0:0:
64,192,120559,128,0,120831:0:0:0:0:
192,192,120695,128,0,120968:0:0:0:0:
64,192,120968,128,0,121240:0:0:0:0:
448,192,121240,128,0,121513:0:0:0:0:
192,192,121377,128,0,121650:0:0:0:0:
64,192,121377,128,0,121513:0:0:0:0:
320,192,121513,128,0,121786:0:0:0:0:
448,192,121650,128,0,121922:0:0:0:0:
64,192,121650,128,0,121786:0:0:0:0:
192,192,121786,128,0,121922:0:0:0:0:
64,192,121922,128,0,122195:0:0:0:0:
320,192,121922,128,0,122195:0:0:0:0:
192,192,122059,128,0,122195:0:0:0:0:
64,192,122331,128,0,123422:0:0:0:0:
448,192,122331,128,0,122468:0:0:0:0:
320,192,122331,128,0,122604:0:0:0:0:
448,192,122604,128,0,123013:0:0:0:0:
192,192,122604,128,0,122740:0:0:0:0:
320,192,122740,128,0,122877:0:0:0:0:
192,192,122877,128,0,123150:0:0:0:0:
320,192,123013,128,0,123286:0:0:0:0:
448,192,123150,128,0,123422:0:0:0:0:
320,192,123422,128,0,123559:0:0:0:0:
192,192,123422,128,0,123695:0:0:0:0:
64,192,123695,128,0,123968:0:0:0:0:
448,192,123831,128,0,124104:0:0:0:0:
320,192,123831,128,0,123968:0:0:0:0:
192,192,123968,128,0,124240:0:0:0:0:
320,192,124104,128,0,124377:0:0:0:0:
64,192,124240,128,0,124377:0:0:0:0:
448,192,124513,128,0,125604:0:0:0:0:
192,192,124513,128,0,124786:0:0:0:0:
64,192,124786,128,0,125059:0:0:0:0:
192,192,124922,128,0,125195:0:0:0:0:
320,192,125059,128,0,125331:0:0:0:0:
64,192,125331,128,0,125604:0:0:0:0:
192,192,125604,128,0,125877:0:0:0:0:
320,192,125740,128,0,126013:0:0:0:0:
448,192,125877,128,0,126150:0:0:0:0:
64,192,125877,128,0,126150:0:0:0:0:
192,192,126013,128,0,126150:0:0:0:0:
320,192,126150,128,0,126286:0:0:0:0:
192,192,126286,128,0,126422:0:0:0:0:
448,192,126286,128,0,126559:0:0:0:0:
64,192,126286,128,0,126559:0:0:0:0:
320,192,126422,128,0,126695:0:0:0:0:
448,192,126695,128,0,126968:0:0:0:0:
64,192,126695,128,0,126968:0:0:0:0:
192,192,126968,128,0,127240:0:0:0:0:
320,192,127104,128,0,127377:0:0:0:0:
64,192,127104,128,0,127377:0:0:0:0:
448,192,127240,128,0,127513:0:0:0:0:
192,192,127513,128,0,127786:0:0:0:0:
64,192,127786,128,0,128059:0:0:0:0:
320,192,127786,128,0,127922:0:0:0:0:
448,192,127786,128,0,128195:0:0:0:0:
320,192,128059,128,0,128331:0:0:0:0:
64,192,128195,128,0,128468:0:0:0:0:
192,192,128195,128,0,128468:0:0:0:0:
448,192,128331,128,0,128740:0:0:0:0:
320,192,128468,128,0,128740:0:0:0:0:
192,192,128604,128,0,128740:0:0:0:0:
64,192,128604,128,0,128740:0:0:0:0:
64,192,128877,128,0,129968:0:0:0:0:
448,192,128877,128,0,129150:0:0:0:0:
192,192,128877,128,0,129150:0:0:0:0:
320,192,129150,128,0,129286:0:0:0:0:
192,192,129286,128,0,129831:0:0:0:0:
448,192,129286,128,0,129831:0:0:0:0:
320,192,129422,128,0,129559:0:0:0:0:
320,192,129695,128,0,129968:0:0:0:0:
448,192,129968,128,0,130104:0:0:0:0:
192,192,129968,128,0,130240:0:0:0:0:
64,192,130104,128,0,130377:0:0:0:0:
320,192,130104,128,0,130240:0:0:0:0:
448,192,130240,128,0,130786:0:0:0:0:
320,192,130377,128,0,130650:0:0:0:0:
192,192,130377,128,0,130513:0:0:0:0:
64,192,130513,128,0,130922:0:0:0:0:
192,192,130650,128,0,130922:0:0:0:0:
320,192,130786,128,0,130922:0:0:0:0:
448,192,131059,128,0,132150:0:0:0:0:
64,192,131059,128,0,131195:0:0:0:0:
192,192,131059,128,0,131331:0:0:0:0:
320,192,131331,128,0,131468:0:0:0:0:
64,192,131468,128,0,132013:0:0:0:0:
192,192,131468,128,0,132013:0:0:0:0:
320,192,131604,128,0,131740:0:0:0:0:
320,192,131877,128,0,132422:0:0:0:0:
64,192,132150,128,0,132422:0:0:0:0:
192,192,132150,128,0,132286:0:0:0:0:
192,192,132422,128,0,132831:0:0:0:0:
448,192,132422,128,0,132695:0:0:0:0:
64,192,132559,128,0,132968:0:0:0:0:
320,192,132559,128,0,132695:0:0:0:0:
320,192,132831,128,0,133104:0:0:0:0:
448,192,132831,128,0,133104:0:0:0:0:
192,192,132968,128,0,133104:0:0:0:0:
64,192,133240,128,0,134331:0:0:0:0:
448,192,133240,128,0,133513:0:0:0:0:
192,192,133240,128,0,133513:0:0:0:0:
320,192,133513,128,0,133650:0:0:0:0:
192,192,133650,128,0,134195:0:0:0:0:
448,192,133650,128,0,134195:0:0:0:0:
320,192,133786,128,0,133922:0:0:0:0:
320,192,134059,128,0,134331:0:0:0:0:
192,192,134331,128,0,134468:0:0:0:0:
448,192,134331,128,0,134740:0:0:0:0:
64,192,134468,128,0,134604:0:0:0:0:
320,192,134468,128,0,134604:0:0:0:0:
192,192,134604,128,0,134877:0:0:0:0:
320,192,134740,128,0,135013:0:0:0:0:
64,192,134740,128,0,135013:0:0:0:0:
448,192,134877,128,0,135150:0:0:0:0:
192,192,135013,128,0,135422:0:0:0:0:
320,192,135150,128,0,135422:0:0:0:0:
448,192,135422,128,0,135695:0:0:0:0:
64,192,135422,128,0,135695:0:0:0:0:
320,192,135695,128,0,135831:0:0:0:0:
64,192,135831,128,0,136240:0:0:0:0:
448,192,135831,128,0,136240:0:0:0:0:
320,192,135968,128,0,136240:0:0:0:0:
192,192,136240,128,0,136513:0:0:0:0:
64,192,136513,128,0,136650:0:0:0:0:
320,192,136513,128,0,136922:0:0:0:0:
448,192,136513,128,0,136786:0:0:0:0:
64,192,136786,128,0,136922:0:0:0:0:
192,192,136922,128,0,137059:0:0:0:0:
448,192,136922,128,0,137195:0:0:0:0:
320,192,137059,128,0,137195:0:0:0:0:
64,192,137059,128,0,137468:0:0:0:0:
192,192,137195,128,0,137468:0:0:0:0:
320,192,137331,128,0,137468:0:0:0:0:
448,192,137331,128,0,137468:0:0:0:0:
448,192,137604,128,0,138695:0:0:0:0:
192,192,137604,128,0,137740:0:0:0:0:
64,192,137604,128,0,137877:0:0:0:0:
320,192,137877,128,0,138013:0:0:0:0:
192,192,138013,128,0,138559:0:0:0:0:
64,192,138013,128,0,138559:0:0:0:0:
320,192,138150,128,0,138286:0:0:0:0:
320,192,138422,128,0,138831:0:0:0:0:
64,192,138695,128,0,139104:0:0:0:0:
192,192,138695,128,0,138968:0:0:0:0:
448,192,138831,128,0,138968:0:0:0:0:
320,192,138968,128,0,139377:0:0:0:0:
192,192,139104,128,0,139240:0:0:0:0:
448,192,139104,128,0,139650:0:0:0:0:
64,192,139240,128,0,139650:0:0:0:0:
192,192,139377,128,0,139650:0:0:0:0:
320,192,139513,128,0,139650:0:0:0:0:
64,192,139786,128,0,140877:0:0:0:0:
448,192,139786,128,0,140059:0:0:0:0:
320,192,139786,128,0,139922:0:0:0:0:
320,192,140059,128,0,140195:0:0:0:0:
192,192,140195,128,0,140740:0:0:0:0:
448,192,140195,128,0,140740:0:0:0:0:
320,192,140331,128,0,140468:0:0:0:0:
320,192,140604,128,0,140877:0:0:0:0:
192,192,140877,128,0,141150:0:0:0:0:
448,192,140877,128,0,141150:0:0:0:0:
320,192,141150,128,0,141286:0:0:0:0:
192,192,141286,128,0,141422:0:0:0:0:
448,192,141286,128,0,141559:0:0:0:0:
320,192,141422,128,0,141695:0:0:0:0:
192,192,141559,128,0,141831:0:0:0:0:
64,192,141695,128,0,141831:0:0:0:0:
448,192,141968,128,0,143059:0:0:0:0:
320,192,141968,128,0,142240:0:0:0:0:
192,192,141968,128,0,142104:0:0:0:0:
192,192,142240,128,0,142377:0:0:0:0:
320,192,142377,128,0,142650:0:0:0:0:
64,192,142377,128,0,142650:0:0:0:0:
192,192,142513,128,0,142786:0:0:0:0:
320,192,142786,128,0,143059:0:0:0:0:
64,192,143059,128,0,143331:0:0:0:0:
192,192,143059,128,0,143195:0:0:0:0:
320,192,143331,128,0,143604:0:0:0:0:
448,192,143468,128,0,143740:0:0:0:0:
64,192,143468,128,0,143604:0:0:0:0:
192,192,143604,128,0,144013:0:0:0:0:
320,192,143740,128,0,144150:0:0:0:0:
64,192,143740,128,0,144013:0:0:0:0:
448,192,143877,128,0,144013:0:0:0:0:
448,192,144150,128,0,144422:0:0:0:0:
64,192,144150,128,0,144422:0:0:0:0:
192,192,144422,128,0,144559:0:0:0:0:
448,192,144559,128,0,145104:0:0:0:0:
64,192,144559,128,0,144968:0:0:0:0:
192,192,144695,128,0,145104:0:0:0:0:
320,192,144968,128,0,145377:0:0:0:0:
192,192,145240,128,0,145513:0:0:0:0:
448,192,145240,128,0,145650:0:0:0:0:
320,192,145513,128,0,145650:0:0:0:0:
192,192,145650,128,0,145786:0:0:0:0:
64,192,145650,128,0,145922:0:0:0:0:
320,192,145786,128,0,145922:0:0:0:0:
448,192,145786,128,0,146195:0:0:0:0:
192,192,145922,128,0,146195:0:0:0:0:
320,192,146059,128,0,146195:0:0:0:0:
64,192,146059,128,0,146195:0:0:0:0:
64,192,146331,128,0,150695:0:0:0:0:
192,192,146331,128,0,150150:0:0:0:0:
320,192,146331,128,0,149604:0:0:0:0:
448,192,146331,128,0,149059:0:0:0:0:
