osu file format v14

[General]
AudioFilename: audio.mp3
AudioLeadIn: 0
PreviewTime: 473564
Countdown: 0
SampleSet: Soft
StackLeniency: 0.3
Mode: 0
LetterboxInBreaks: 0
WidescreenStoryboard: 0

[Editor]
Bookmarks: 8628,99772,198161,393798,473628,492441,562103
DistanceSpacing: 1.2
BeatDivisor: 4
GridSize: 32
TimelineZoom: 2.9

[Metadata]
Title:Hades Bossfight Mix
TitleUnicode:Hades Bossfight Mix
Artist:Darren Korb
ArtistUnicode:Darren Korb
Creator:hehe
Version:Beyond Styx
Source:Hades
Tags:tatemae allihoppa sherrycherry loreley anishina kodoku funny luscent zagreus thanatos megaera the unseen ones god of dead masahiro aoki daisuke kurosawa 青木 征洋 黒沢大佑 instrumental rock metal
BeatmapID:3539681
BeatmapSetID:1731711

[Difficulty]
HPDrainRate:4
CircleSize:4
OverallDifficulty:9.6
ApproachRate:9.8
SliderMultiplier:1.4
SliderTickRate:1

[Events]
//Background and Video events
0,0,"hades.jpg",0,0
//Break Periods
2,99972,103360
2,104039,106411
2,158445,163868
2,318106,321495
2,322174,325436
2,409252,415691
//Storyboard Layer 0 (Background)
//Storyboard Layer 1 (Fail)
//Storyboard Layer 2 (Pass)
//Storyboard Layer 3 (Foreground)
//Storyboard Layer 4 (Overlay)
//Storyboard Sound Samples

[TimingPoints]
4688,254.237288135593,4,2,1,50,1,0
8882,-200,4,2,1,50,0,0
16764,-50,4,2,1,80,0,0
17145,-71.4285714285714,4,2,1,80,0,0
24645,-50,4,2,1,80,0,0
24899,-50,4,2,1,80,0,0
25916,-43.4782608695652,4,2,1,80,0,0
26298,-50,4,2,1,80,0,0
26933,-50,4,2,1,60,0,0
27315,-71.4285714285714,4,2,1,60,0,0
30493,-50,4,2,1,60,0,0
31382,-71.4285714285714,4,2,1,60,0,0
34687,-50,4,2,1,60,0,0
35069,-50,4,2,1,80,0,0
36086,-43.4782608695652,4,2,1,80,0,0
36467,-50,4,2,1,80,0,0
37484,-71.4285714285714,4,2,1,80,0,0
38882,-100,4,2,1,80,0,0
39137,-50,4,2,1,80,0,0
40154,-43.4782608695652,4,2,1,80,0,0
40535,-50,4,2,1,80,0,0
41552,-71.4285714285714,4,2,1,80,0,0
42950,-100,4,2,1,80,0,0
43204,-50,4,2,1,80,0,0
44221,-43.4782608695652,4,2,1,80,0,0
44603,-50,4,2,1,80,0,0
45620,-71.4285714285714,4,2,1,80,0,0
47018,-100,4,2,1,80,0,0
47272,-50,4,2,1,80,0,0
49687,-71.4285714285714,4,2,1,80,0,0
50450,-434.782608695652,4,2,1,80,0,0
51340,-50,4,2,1,60,0,0
51721,-71.4285714285714,4,2,1,60,0,0
58586,-50,4,2,1,60,0,0
59857,-71.4285714285714,4,2,1,60,0,0
67230,-50,4,2,1,60,0,0
67611,-50,4,2,1,80,0,0
68628,-43.4782608695652,4,2,1,80,0,0
69010,-50,4,2,1,80,0,0
70026,-71.4285714285714,4,2,1,80,0,0
71425,-100,4,2,1,80,0,0
71679,-50,4,2,1,80,0,0
72696,-43.4782608695652,4,2,1,80,0,0
73077,-50,4,2,1,80,0,0
74094,-71.4285714285714,4,2,1,80,0,0
75493,-100,4,2,1,80,0,0
75747,-50,4,2,1,80,0,0
76764,-43.4782608695652,4,2,1,80,0,0
77145,-50,4,2,1,80,0,0
77781,-43.4782608695652,4,2,1,80,0,0
78162,-71.4285714285714,4,2,1,80,0,0
79560,-100,4,2,1,80,0,0
79815,-50,4,2,1,80,0,0
82230,-71.4285714285714,4,2,1,80,0,0
82993,-71.4285714285714,4,2,1,60,0,0
84518,254.237288135593,3,2,1,60,1,0
84518,-100,3,2,1,60,0,0
99772,254.237288135593,4,2,1,60,1,0
107780,-71.4285714285714,4,2,1,60,0,0
111848,-58.8235294117647,4,2,1,60,0,0
112229,-71.4285714285714,4,2,1,60,0,0
115916,-43.4782608695652,4,2,1,80,0,0
118331,-43.4782608695652,4,2,1,60,0,0
119856,-71.4285714285714,4,2,1,60,0,0
121509,-58.8235294117647,4,2,1,60,0,0
124178,-71.4285714285714,4,2,1,60,0,0
126085,-43.4782608695652,4,2,1,80,0,0
141466,254.237288135593,3,2,1,60,1,0
141466,-43.4782608695652,3,2,1,60,0,0
142992,-95.2380952380952,3,2,1,60,0,0
164347,-76.9230769230769,3,2,1,80,0,0
169686,-250,3,2,1,80,0,0
170449,-100,3,2,1,90,0,1
175788,-333.333333333333,3,2,1,90,0,1
181127,-100,3,2,1,90,0,1
182652,254.237288135593,4,2,1,60,1,0
182652,-100,4,2,1,60,0,0
182906,-166.666666666667,4,2,1,60,0,0
186719,-125,4,2,1,60,0,0
198796,-71.4285714285714,4,2,1,70,0,0
206931,-166.666666666667,4,2,1,60,0,0
208838,-83.3333333333334,4,2,1,60,0,0
209092,-166.666666666667,4,2,1,60,0,0
210618,-83.3333333333334,4,2,1,60,0,0
210999,-166.666666666667,4,2,1,60,0,0
212906,-83.3333333333334,4,2,1,60,0,0
213160,-166.666666666667,4,2,1,60,0,0
214685,-83.3333333333334,4,2,1,60,0,0
215067,-62.5,4,2,1,80,0,0
216975,-100,4,2,1,60,0,0
225236,-62.5,4,2,1,80,0,0
228414,-83.3333333333333,4,2,1,80,0,0
229304,-62.5,4,2,1,80,0,0
239601,-125,4,2,1,80,0,0
246974,-250,4,2,1,80,0,0
247102,-250,4,2,0,60,0,0
248500,-250,4,2,1,60,0,0
249389,-500,4,2,1,60,0,0
252821,-100,4,2,1,60,0,0
253838,-250,4,2,1,60,0,0
267059,-166.666666666667,4,2,1,60,0,0
317906,-100,4,2,1,60,0,0
326042,-66.6666666666667,4,2,1,80,0,0
326171,254.237288135593,4,2,1,80,1,0
326171,-50,4,2,1,80,0,0
344348,-83.3333333333333,4,2,1,80,0,0
344984,-62.5,4,2,1,80,0,0
345365,-50,4,2,1,80,0,0
347526,-66.6666666666667,4,2,1,80,0,0
348416,-50,4,2,1,80,0,0
352103,-66.6666666666667,4,2,1,80,0,0
352484,-83.3333333333333,4,2,1,80,0,0
353120,-62.5,4,2,1,80,0,0
353628,-50,4,2,1,80,0,0
355662,-66.6666666666667,4,2,1,80,0,0
356552,-50,4,2,1,80,0,0
359730,-500,4,2,1,80,0,0
360620,-83.3333333333333,4,2,1,80,0,0
368247,-50,4,2,1,80,0,0
376891,-50,4,2,1,90,0,1
377336,-50,4,2,1,10,0,1
377399,-50,4,2,1,90,0,1
377463,-50,4,2,1,10,0,1
377526,-50,4,2,1,90,0,1
377590,-50,4,2,1,10,0,1
377653,-50,4,2,1,90,0,1
378353,-50,4,2,1,10,0,1
378416,-50,4,2,1,90,0,1
378480,-50,4,2,1,10,0,1
378543,-50,4,2,1,90,0,1
378607,-50,4,2,1,10,0,1
378670,-50,4,2,1,90,0,1
379370,-50,4,2,1,10,0,1
379433,-50,4,2,1,90,0,1
379497,-50,4,2,1,10,0,1
379560,-50,4,2,1,90,0,1
379624,-50,4,2,1,10,0,1
379687,-50,4,2,1,90,0,1
379751,-50,4,2,1,10,0,1
379814,-50,4,2,1,90,0,1
379878,-50,4,2,1,10,0,1
379941,-50,4,2,1,90,0,1
380005,-50,4,2,1,10,0,1
380069,-66.6666666666667,4,2,1,80,0,0
380959,-50,4,2,1,90,0,1
381404,-50,4,2,1,10,0,1
381467,-50,4,2,1,90,0,1
381531,-50,4,2,1,10,0,1
381594,-50,4,2,1,90,0,1
381658,-50,4,2,1,10,0,1
381721,-50,4,2,1,90,0,1
381785,-50,4,2,1,10,0,1
381848,-50,4,2,1,90,0,1
382420,-50,4,2,1,10,0,1
382483,-50,4,2,1,90,0,1
382548,-50,4,2,1,10,0,1
382611,-50,4,2,1,90,0,1
382675,-50,4,2,1,10,0,1
382738,-50,4,2,1,90,0,1
382802,-50,4,2,1,10,0,1
382865,-50,4,2,1,90,0,1
384645,-66.6666666666667,4,2,1,80,0,0
385026,-50,4,2,1,90,0,1
385471,-50,4,2,1,10,0,1
385534,-50,4,2,1,90,0,1
385598,-50,4,2,1,10,0,1
385661,-50,4,2,1,90,0,1
385726,-50,4,2,1,10,0,1
385789,-50,4,2,1,90,0,1
385853,-50,4,2,1,10,0,1
385916,-50,4,2,1,90,0,1
386488,-50,4,2,1,10,0,1
386551,-50,4,2,1,90,0,1
386615,-50,4,2,1,10,0,1
386678,-50,4,2,1,90,0,1
386743,-50,4,2,1,10,0,1
386806,-50,4,2,1,90,0,1
386870,-50,4,2,1,10,0,1
386933,-50,4,2,1,90,0,1
387505,-50,4,2,1,10,0,1
387568,-50,4,2,1,90,0,1
387632,-50,4,2,1,10,0,1
387695,-50,4,2,1,90,0,1
387759,-50,4,2,1,10,0,1
387822,-50,4,2,1,90,0,1
387887,-50,4,2,1,10,0,1
387950,-50,4,2,1,90,0,1
388014,-50,4,2,1,10,0,1
388077,-50,4,2,1,90,0,1
388141,-50,4,2,1,10,0,1
388204,-66.6666666666667,4,2,1,80,0,0
389094,-50,4,2,1,80,0,0
392272,254.237288135593,3,2,1,60,1,0
392272,-100,3,2,1,60,0,0
393798,-50,3,2,1,60,0,0
403713,-83.3333333333333,3,2,1,60,0,0
404221,-50,3,2,1,60,0,0
404475,-50,3,2,1,60,0,0
406001,-55.5555555555556,3,2,1,60,0,0
406255,-62.5,3,2,1,60,0,0
406509,-71.4285714285714,3,2,1,60,0,0
406764,-83.3333333333333,3,2,1,60,0,0
409052,254.237288135593,4,2,1,60,1,0
409052,-100,4,2,1,60,0,0
416170,-100,4,2,1,70,0,0
417060,-50,4,2,1,70,0,0
449602,-66.6666666666667,4,2,1,70,0,0
450746,254.237288135593,3,2,1,70,1,0
452145,-66.6666666666667,3,2,1,70,0,0
455322,-50,3,2,1,70,0,0
456847,-66.6666666666667,3,2,1,70,0,0
467526,-100,4,2,1,70,0,0
472864,-200,4,2,1,70,0,0
474263,-50,3,2,1,80,0,0
474390,-40,3,2,1,80,0,0
476678,-66.6666666666667,3,2,1,80,0,0
476741,-66.6666666666667,3,2,1,10,0,0
476805,-66.6666666666667,3,2,1,80,0,0
476868,-66.6666666666667,3,2,1,10,0,0
476932,-66.6666666666667,3,2,1,80,0,0
476996,-66.6666666666667,3,2,1,10,0,0
477060,-66.6666666666667,3,2,1,80,0,0
477123,-66.6666666666667,3,2,1,10,0,0
477187,-66.6666666666667,3,2,1,80,0,0
477250,-66.6666666666667,3,2,1,10,0,0
477314,-66.6666666666667,3,2,1,80,0,0
477377,-66.6666666666667,3,2,1,10,0,0
477441,-66.6666666666667,3,2,1,80,0,0
477504,-66.6666666666667,3,2,1,10,0,0
477568,-66.6666666666667,3,2,1,80,0,0
477631,-66.6666666666667,3,2,1,10,0,0
477695,-66.6666666666667,3,2,1,80,0,0
477758,-66.6666666666667,3,2,1,10,0,0
477822,-66.6666666666667,3,2,1,80,0,0
477885,-66.6666666666667,3,2,1,10,0,0
477949,-66.6666666666667,3,2,1,80,0,0
478012,-66.6666666666667,3,2,1,10,0,0
478076,-66.6666666666667,3,2,1,80,0,0
478140,-66.6666666666667,3,2,1,10,0,0
478204,-66.6666666666667,3,2,1,80,0,0
478267,-66.6666666666667,3,2,1,10,0,0
478331,-66.6666666666667,3,2,1,80,0,0
478394,-66.6666666666667,3,2,1,10,0,0
478458,-66.6666666666667,3,2,1,80,0,0
478521,-66.6666666666667,3,2,1,10,0,0
478585,-66.6666666666667,3,2,1,80,0,0
478648,-66.6666666666667,3,2,1,10,0,0
478712,-66.6666666666667,3,2,1,80,0,0
478775,-66.6666666666667,3,2,1,10,0,0
478839,-66.6666666666667,3,2,1,80,0,0
478902,-66.6666666666667,3,2,1,10,0,0
478966,-66.6666666666667,3,2,1,80,0,0
479729,-66.6666666666667,3,2,1,90,0,1
489899,-66.6666666666667,3,2,1,90,0,1
491933,254.237288135593,4,2,1,70,1,0
491933,-66.6666666666667,4,2,1,70,0,0
492441,-100,4,2,1,70,0,0
506424,-83.3333333333333,4,2,1,70,0,0
506678,-71.4285714285714,4,2,1,70,0,0
506933,-62.5,4,2,1,70,0,0
507187,-500,4,2,1,70,0,0
508077,-66.6666666666667,4,2,1,80,0,0
516212,-100,4,2,1,70,0,0
523966,-83.3333333333333,4,2,1,70,0,0
524221,-66.6666666666667,4,2,1,70,0,0
524475,-100,4,2,1,70,0,0
531594,-83.3333333333333,4,2,1,70,0,0
532356,-71.4285714285714,4,2,1,70,0,0
533373,-62.5,4,2,1,70,0,0
534517,-50,4,2,1,80,0,0
549136,-200,4,2,1,70,0,0
549390,-66.6666666666667,4,2,1,70,0,0
556509,-133.333333333333,4,2,1,60,0,0
558034,-133.333333333333,4,2,1,70,0,0
558797,-133.333333333333,4,2,1,60,0,0
560068,-100,4,2,1,60,0,0
560322,-133.333333333333,4,2,1,60,0,0
561594,-133.333333333333,4,2,1,70,0,0
562610,-133.333333333333,4,2,1,65,0,0
563119,-133.333333333333,4,2,1,60,0,0
563627,-133.333333333333,4,2,1,55,0,0
564136,-133.333333333333,4,2,1,50,0,0
564644,-133.333333333333,4,2,1,47,0,0
565153,-133.333333333333,4,2,1,43,0,0
565661,-133.333333333333,4,2,1,40,0,0
566170,-133.333333333333,4,2,1,37,0,0
566678,-133.333333333333,4,2,1,33,0,0
567187,-133.333333333333,4,2,1,30,0,0
567695,-133.333333333333,4,2,1,28,0,0
568204,-133.333333333333,4,2,1,26,0,0
568712,-133.333333333333,4,2,1,24,0,0
569221,-133.333333333333,4,2,1,22,0,0
569729,-133.333333333333,4,2,1,20,0,0
570238,-133.333333333333,4,2,1,18,0,0
570746,-133.333333333333,4,2,1,16,0,0
571255,-133.333333333333,4,2,1,14,0,0
571763,-133.333333333333,4,2,1,12,0,0
572271,-133.333333333333,4,2,1,10,0,0

[Colours]
Combo1 : 244,216,51
Combo2 : 255,128,64

[HitObjects]
323,61,8628,5,0,1:0:0:0:
323,61,8882,2,0,L|318:24,26,35
179,143,12696,5,0,1:0:0:0:
179,143,12950,2,0,L|184:106,26,35
179,143,16764,6,0,B|258:155|258:155|279:200|279:200|366:216,1,210,4|0,1:0|0:0,0:0:0:0:
377,205,17018,1,0,3:0:0:0:
481,113,17145,2,0,L|467:15,1,97.9999970092774,8|0,0:0|0:0,0:0:0:0:
330,55,17399,5,0,3:0:0:0:
392,115,17526,1,0,3:0:0:0:
255,236,17654,2,0,L|157:249,1,97.9999970092774,8|0,0:0|0:0,0:0:0:0:
452,238,17908,5,0,3:0:0:0:
390,298,18035,1,0,3:0:0:0:
473,322,18162,1,8,0:0:0:0:
284,161,18289,6,0,P|296:236|303:306,1,146.999995513916,0|0,3:0|0:0,0:0:0:0:
293,320,18543,1,0,3:0:0:0:
216,358,18671,5,8,0:0:0:0:
5,296,18798,1,0,3:0:0:0:
148,304,18925,5,0,3:0:0:0:
75,350,19052,1,0,3:0:0:0:
186,107,19179,2,0,L|172:204,1,97.9999970092774,8|0,0:0|0:0,0:0:0:0:
254,251,19433,5,0,3:0:0:0:
254,251,19560,1,0,3:0:0:0:
87,116,19687,2,0,L|73:18,1,97.9999970092774,8|0,0:0|0:0,0:0:0:0:
14,200,19942,5,0,3:0:0:0:
91,219,20069,1,0,3:0:0:0:
9,208,20196,1,8,0:0:0:0:
186,107,20323,6,0,B|275:128|221:159|335:186,1,146.999995513916,0|0,3:0|0:0,0:0:0:0:
333,173,20577,1,0,3:0:0:0:
512,104,20704,1,8,0:0:0:0:
369,276,20832,6,0,P|294:264|224:257,1,146.999995513916,4|0,3:2|0:0,0:0:0:0:
210,264,21086,1,0,3:0:0:0:
419,104,21213,2,0,L|433:201,1,97.9999970092774,8|0,0:0|0:0,0:0:0:0:
448,328,21467,5,0,3:0:0:0:
508,259,21594,1,0,3:0:0:0:
323,120,21721,2,0,L|337:23,1,97.9999970092774,8|0,0:0|0:0,0:0:0:0:
186,106,21976,5,0,3:0:0:0:
248,166,22103,1,0,3:0:0:0:
165,190,22230,1,8,0:0:0:0:
371,290,22357,6,0,B|282:311|336:342|222:369,1,146.999995513916,0|0,3:0|0:0,0:0:0:0:
223,354,22611,1,0,3:0:0:0:
10,229,22738,5,8,0:0:0:0:
91,255,22865,1,0,3:0:0:0:
84,169,22993,5,0,3:0:0:0:
18,314,23120,1,0,3:0:0:0:
209,273,23247,2,0,L|195:176,1,97.9999970092774,8|0,0:0|0:0,0:0:0:0:
328,137,23501,5,0,3:0:0:0:
328,137,23628,1,0,3:0:0:0:
149,98,23755,2,0,L|163:1,1,97.9999970092774,8|0,0:0|0:0,0:0:0:0:
254,65,24010,5,0,1:0:0:0:
480,20,24137,1,0,1:0:0:0:
242,61,24264,1,8,1:2:0:0:
431,97,24391,6,0,P|419:169|411:242,1,146.999995513916,0|0,3:0|0:0,0:0:0:0:
411,242,24645,6,0,P|445:230|487:222,1,70,8|0,3:2|0:0,0:0:0:0:
232,334,24772,2,0,P|198:322|156:314,1,70,8|0,3:2|0:0,0:0:0:0:
450,341,24899,6,0,P|388:269|231:290,1,210,4|0,1:0|0:0,0:0:0:0:
263,251,25154,1,0,3:0:0:0:
77,361,25281,2,0,P|69:291|58:222,1,140,8|0,0:0|0:0,0:0:0:0:
206,114,25535,5,0,3:0:0:0:
195,195,25662,1,0,3:0:0:0:
273,162,25789,1,8,0:0:0:0:
0,151,25916,6,0,B|140:114|53:61|219:18,1,241.500004606247,4|0,1:0|0:0,0:0:0:0:
205,12,26171,1,0,3:0:0:0:
442,172,26298,2,0,P|430:102|423:33,1,140,8|0,0:0|0:0,0:0:0:0:
195,195,26552,5,0,3:0:0:0:
364,221,26679,1,0,3:0:0:0:
301,74,26806,1,8,0:0:0:0:
210,358,26933,6,0,B|222:279|222:279|267:258|267:258|283:171,1,210,4|0,1:0|0:0,0:0:0:0:
273,162,27187,1,0,3:0:0:0:
414,309,27315,2,0,L|512:295,1,97.9999970092774,8|0,0:0|0:0,0:0:0:0:
388,138,27569,5,0,3:0:0:0:
450,198,27696,1,0,3:0:0:0:
301,369,27823,2,0,L|288:271,1,97.9999970092774,8|0,0:0|0:0,0:0:0:0:
109,199,28077,5,0,3:0:0:0:
194,224,28204,1,0,3:0:0:0:
105,189,28332,1,8,0:0:0:0:
3,379,28459,6,0,P|15:304|22:234,1,146.999995513916,0|0,3:0|0:0,0:0:0:0:
13,218,28713,1,0,3:0:0:0:
95,331,28840,5,8,0:0:0:0:
214,306,28967,1,0,3:0:0:0:
262,148,29094,5,0,3:0:0:0:
194,224,29221,1,0,3:0:0:0:
90,31,29349,2,0,L|188:44,1,97.9999970092774,8|0,0:0|0:0,0:0:0:0:
287,18,29603,5,0,3:0:0:0:
287,18,29730,1,0,3:0:0:0:
114,124,29857,2,0,L|16:137,1,97.9999970092774,8|0,0:0|0:0,0:0:0:0:
278,187,30111,5,0,3:0:0:0:
289,106,30238,1,0,3:0:0:0:
211,139,30365,1,8,0:0:0:0:
466,157,30493,6,0,P|473:87|484:18,1,140,4|0,3:2|0:0,0:0:0:0:
49,283,30747,2,0,P|41:213|30:144,1,140,4|0,3:2|0:0,0:0:0:0:
320,358,31001,6,0,B|441:344|390:285|505:260,1,210,4|0,3:2|0:0,0:0:0:0:
512,268,31255,1,0,3:0:0:0:
329,158,31382,2,0,L|342:256,1,97.9999970092774,8|0,0:0|0:0,0:0:0:0:
334,35,31637,5,0,3:0:0:0:
414,102,31764,1,0,3:0:0:0:
234,185,31891,2,0,L|247:87,1,97.9999970092774,8|0,0:0|0:0,0:0:0:0:
10,111,32145,5,0,3:0:0:0:
35,196,32272,1,0,3:0:0:0:
0,107,32399,1,8,0:0:0:0:
145,0,32526,6,0,P|133:75|126:145,1,146.999995513916,0|0,0:0|0:0,3:0:0:0:
136,158,32781,1,0,3:0:0:0:
183,319,32908,5,8,0:0:0:0:
106,347,33035,1,0,3:0:0:0:
253,369,33162,5,0,3:0:0:0:
38,286,33289,1,0,3:0:0:0:
229,135,33416,2,0,L|215:232,1,97.9999970092774,8|0,0:0|0:0,0:0:0:0:
127,246,33671,5,0,3:0:0:0:
127,246,33798,1,0,3:0:0:0:
324,302,33925,2,0,L|310:205,1,97.9999970092774,8|0,0:0|0:0,0:0:0:0:
442,18,34179,5,0,3:0:0:0:
448,104,34306,1,0,3:0:0:0:
375,66,34433,1,8,0:0:0:0:
375,66,34560,1,0,3:0:0:0:
446,12,34687,6,0,P|480:24|519:35,1,70,8|0,3:2|0:0,0:0:0:0:
302,114,34815,2,0,P|268:123|235:135,1,70,8|0,3:2|0:0,0:0:0:0:
446,246,34942,2,0,P|480:258|519:269,1,70,8|0,3:2|0:0,0:0:0:0:
352,376,35069,6,0,P|362:252|396:110,1,210,4|0,1:0|0:0,0:0:0:0:
371,155,35323,1,0,3:0:0:0:
173,334,35450,2,0,P|165:264|154:195,1,140,12|0,0:0|0:0,0:0:0:0:
260,50,35704,5,0,3:0:0:0:
235,135,35832,1,0,3:0:0:0:
270,46,35959,1,8,0:0:0:0:
8,158,36086,6,0,P|42:49|155:40,1,241.500004606247,4|0,1:0|0:0,0:0:0:0:
168,58,36340,1,0,3:0:0:0:
355,134,36467,2,0,P|424:122|493:115,1,140,12|0,0:0|0:0,0:0:0:0:
167,281,36721,5,0,3:0:0:0:
336,259,36849,1,0,3:0:0:0:
235,134,36976,1,8,0:0:0:0:
4,301,37103,6,0,B|83:313|83:313|104:358|104:358|191:374,1,210,4|0,1:0|0:0,0:0:0:0:
201,362,37357,1,0,3:0:0:0:
422,307,37484,2,0,P|428:259|437:211,1,97.9999970092774,12|0,0:0|0:0,0:0:0:0:
443,41,37738,5,0,3:0:0:0:
508,157,37865,1,0,3:0:0:0:
336,259,37993,2,0,P|329:210|321:162,1,97.9999970092774,12|0,0:0|0:0,0:0:0:0:
512,162,38247,5,0,1:0:0:0:
258,299,38501,5,0,1:0:0:0:
0,162,38755,5,8,1:2:0:0:
59,50,38882,2,0,L|68:119,1,70,8|0,1:2|0:0,0:0:0:0:
24,243,39137,6,0,B|151:276|72:325|224:364,1,210,4|0,1:0|0:0,0:0:0:0:
208,365,39391,1,0,3:0:0:0:
432,342,39518,2,0,P|439:272|450:203,1,140,8|0,0:0|0:0,0:0:0:0:
279,215,39772,5,0,3:0:0:0:
258,299,39899,1,0,3:0:0:0:
341,275,40026,1,8,0:0:0:0:
23,166,40154,6,0,P|142:146|262:132,1,241.500004606247,4|0,1:0|0:0,0:0:0:0:
274,117,40408,1,0,3:0:0:0:
137,369,40535,2,0,P|129:299|118:230,1,140,8|0,0:0|0:0,0:0:0:0:
293,34,40789,5,0,3:0:0:0:
188,168,40916,1,0,3:0:0:0:
344,186,41043,1,8,0:0:0:0:
197,79,41171,6,0,B|118:67|118:67|97:22|97:22|10:6,1,210,4|0,1:0|0:0,0:0:0:0:
0,0,41425,1,0,3:0:0:0:
86,255,41552,6,0,P|92:206|101:158,1,97.9999970092774,12|0,0:0|0:0,0:0:0:0:
389,24,41806,2,0,P|395:72|404:120,1,97.9999970092774,4|0,0:0|0:0,0:0:0:0:
270,369,42060,6,0,P|263:320|254:272,1,97.9999970092774,12|0,0:0|0:0,0:0:0:0:
256,176,42315,5,0,1:0:0:0:
253,186,42378,1,0,1:0:0:0:
263,183,42442,1,0,1:0:0:0:
176,230,42569,5,0,1:0:0:0:
338,262,42696,1,0,1:0:0:0:
114,298,42823,5,8,1:2:0:0:
390,194,42950,2,0,L|459:203,1,70,8|0,1:2|0:0,0:0:0:0:
506,25,43204,6,0,P|396:31|343:110,1,210,4|0,1:0|0:0,0:0:0:0:
350,125,43459,1,0,3:0:0:0:
142,147,43586,2,0,P|72:135|3:128,1,140,12|0,0:0|0:0,0:0:0:0:
302,210,43840,5,0,3:0:0:0:
277,295,43967,1,0,3:0:0:0:
312,206,44094,1,8,0:0:0:0:
0,341,44221,6,0,B|140:304|53:251|219:208,1,241.500004606247,4|0,1:0|0:0,0:0:0:0:
214,225,44476,1,0,3:0:0:0:
412,306,44603,2,0,P|419:236|430:167,1,140,12|0,0:0|0:0,0:0:0:0:
95,151,44857,5,0,3:0:0:0:
264,129,44984,1,0,3:0:0:0:
163,4,45111,1,8,0:0:0:0:
14,245,45238,6,0,B|93:257|93:257|114:302|114:302|201:318,1,210,4|0,1:0|0:0,0:0:0:0:
208,312,45493,1,0,3:0:0:0:
342,384,45620,2,0,P|332:335|327:287,1,97.9999970092774,12|0,0:0|0:0,0:0:0:0:
430,167,45874,5,4,0:0:0:0:
413,307,46001,1,0,3:0:0:0:
247,239,46128,2,0,P|256:190|261:142,1,97.9999970092774,12|0,0:0|0:0,0:0:0:0:
241,23,46382,5,0,1:0:0:0:
261,373,46637,5,0,1:0:0:0:
244,28,46891,5,8,1:2:0:0:
314,75,47018,2,0,L|383:84,1,70,8|0,1:2|0:0,0:0:0:0:
187,96,47272,6,0,B|66:82|117:23|2:-2,1,210,4|0,1:0|0:0,0:0:0:0:
0,17,47526,1,0,3:0:0:0:
102,208,47654,2,0,P|171:196|240:189,1,140,12|0,0:0|0:0,0:0:0:0:
466,63,47908,5,4,3:2:0:0:
383,84,48035,1,0,3:0:0:0:
406,2,48162,1,8,0:0:0:0:
325,269,48289,6,0,B|446:255|395:196|510:171,1,210,4|0,1:0|0:0,0:0:0:0:
512,190,48543,1,0,3:0:0:0:
398,384,48671,2,0,P|329:372|260:365,1,140,12|0,0:0|0:0,0:0:0:0:
26,336,48925,5,4,3:2:0:0:
120,304,49052,1,0,3:0:0:0:
13,331,49179,1,8,0:0:0:0:
259,364,49306,6,0,B|247:285|247:285|202:264|202:264|186:177,1,210,4|0,1:0|0:0,0:0:0:0:
197,172,49560,1,0,3:0:0:0:
376,28,49687,6,0,L|362:126,1,97.9999970092774,12|0,0:0|0:0,0:0:0:0:
97,217,49942,2,0,L|-1:203,1,97.9999970092774,4|0,0:0|0:0,0:0:0:0:
133,0,50196,6,0,L|147:98,1,97.9999970092774,12|0,0:0|0:0,0:0:0:0:
385,285,50450,2,2,L|483:271,1,96.5999967572023,0|0,1:0|0:0,0:1:0:0:
512,192,51340,6,0,B|433:180|433:180|412:135|412:135|325:119,1,210,4|0,1:0|0:0,0:0:0:0:
320,106,51594,1,0,3:0:0:0:
484,6,51721,2,0,L|498:104,1,97.9999970092774,8|0,0:0|0:0,0:0:0:0:
300,197,51976,5,0,3:0:0:0:
379,251,52103,1,0,3:0:0:0:
204,345,52230,2,0,L|218:247,1,97.9999970092774,8|0,0:0|0:0,0:0:0:0:
135,94,52484,5,0,3:0:0:0:
197,34,52611,1,0,3:0:0:0:
218,118,52738,1,8,0:0:0:0:
25,62,52865,6,0,P|36:134|44:207,1,146.999995513916,0|0,3:0|0:0,0:0:0:0:
29,222,53120,1,0,3:0:0:0:
64,337,53247,5,8,0:0:0:0:
215,247,53374,1,0,3:0:0:0:
138,188,53501,5,0,3:0:0:0:
123,267,53628,1,0,3:0:0:0:
260,328,53755,2,0,L|358:342,1,97.9999970092774,8|0,0:0|0:0,0:0:0:0:
500,106,54010,5,0,3:0:0:0:
500,106,54137,1,0,3:0:0:0:
421,221,54264,2,0,L|323:235,1,97.9999970092774,8|0,0:0|0:0,0:0:0:0:
363,26,54518,5,0,3:0:0:0:
416,130,54645,1,0,3:0:0:0:
375,15,54772,1,8,0:0:0:0:
270,151,54899,6,0,B|181:130|235:99|121:72,1,146.999995513916,0|0,3:0|0:0,0:0:0:0:
134,94,55154,1,0,3:0:0:0:
274,52,55281,1,8,0:0:0:0:
323,234,55408,6,0,P|311:309|304:379,1,146.999995513916,4|0,3:2|0:0,0:0:0:0:
317,384,55662,1,0,3:0:0:0:
409,297,55789,2,0,L|507:283,1,97.9999970092774,8|0,0:0|0:0,0:0:0:0:
217,228,56043,5,0,3:0:0:0:
269,301,56171,1,0,3:0:0:0:
158,371,56298,2,0,L|60:357,1,97.9999970092774,8|0,0:0|0:0,0:0:0:0:
2,275,56552,5,0,3:0:0:0:
114,223,56679,1,0,3:0:0:0:
0,262,56806,1,8,0:0:0:0:
92,72,56933,6,0,B|181:93|127:124|241:151,1,146.999995513916,0|0,3:0|0:0,0:0:0:0:
232,136,57187,1,0,3:0:0:0:
290,67,57315,5,8,0:0:0:0:
492,135,57442,1,0,3:0:0:0:
365,118,57569,5,0,3:0:0:0:
427,62,57696,1,0,3:0:0:0:
377,222,57823,2,0,L|279:208,1,97.9999970092774,8|0,0:0|0:0,0:0:0:0:
197,42,58077,5,0,3:0:0:0:
197,42,58204,1,0,3:0:0:0:
3,149,58332,2,0,L|101:135,1,97.9999970092774,8|0,0:0|0:0,0:0:0:0:
495,229,58586,6,0,P|417:243|361:387,1,210,4|0,1:2|0:0,0:0:0:0:
367,368,58840,1,8,0:0:0:0:
259,164,58967,6,0,B|251:99|206:121|197:42,1,140,4|0,0:0|0:0,0:0:0:0:
53,232,59221,2,0,P|122:238|191:249,1,140,4|0,0:0|0:0,0:0:0:0:
512,6,59476,6,0,B|433:18|433:18|412:63|412:63|325:79,1,210,4|0,1:0|0:0,0:0:0:0:
317,63,59730,1,0,3:0:0:0:
355,257,59857,2,0,L|369:159,1,97.9999970092774,8|0,0:0|0:0,0:0:0:0:
504,114,60111,5,0,3:0:0:0:
454,176,60238,1,0,3:0:0:0:
512,360,60365,2,0,L|498:262,1,97.9999970092774,8|0,0:0|0:0,0:0:0:0:
188,294,60620,5,0,3:0:0:0:
250,234,60747,1,0,3:0:0:0:
271,318,60874,1,8,0:0:0:0:
72,320,61001,6,0,B|51:231|20:285|-7:171,1,146.999995513916,0|0,3:0|0:0,0:0:0:0:
10,179,61255,1,0,3:0:0:0:
161,104,61382,5,8,0:0:0:0:
234,138,61510,1,0,3:0:0:0:
126,181,61637,5,0,3:0:0:0:
273,68,61764,1,0,3:0:0:0:
62,0,61891,2,0,L|76:98,1,97.9999970092774,8|0,0:0|0:0,0:0:0:0:
357,118,62145,5,0,3:0:0:0:
357,118,62272,1,0,3:0:0:0:
188,312,62399,2,0,L|202:214,1,97.9999970092774,8|0,0:0|0:0,0:0:0:0:
418,192,62654,5,0,3:0:0:0:
305,207,62781,1,0,3:0:0:0:
430,181,62908,1,8,0:0:0:0:
435,379,63035,6,0,P|358:366|289:360,1,146.999995513916,0|0,3:0|0:0,0:0:0:0:
270,346,63289,1,0,3:0:0:0:
376,266,63416,1,8,0:0:0:0:
248,124,63543,6,0,B|227:35|196:89|169:-25,1,146.999995513916,4|0,1:2|0:0,0:0:0:0:
163,0,63798,1,0,3:0:0:0:
341,64,63925,2,0,L|439:50,1,97.9999970092774,8|0,0:0|0:0,0:0:0:0:
311,215,64179,5,0,3:0:0:0:
376,266,64306,1,0,3:0:0:0:
512,171,64433,2,0,L|414:157,1,97.9999970092774,8|0,0:0|0:0,0:0:0:0:
439,346,64687,5,0,3:0:0:0:
487,251,64815,1,0,3:0:0:0:
448,355,64942,1,8,0:0:0:0:
265,294,65069,6,0,P|258:217|247:148,1,146.999995513916,0|0,3:0|0:0,0:0:0:0:
255,129,65323,1,0,3:0:0:0:
204,65,65450,5,8,0:0:0:0:
3,19,65577,1,0,3:0:0:0:
133,17,65704,5,0,3:0:0:0:
67,71,65832,1,0,3:0:0:0:
153,239,65959,2,0,L|167:141,1,97.9999970092774,8|0,0:0|0:0,0:0:0:0:
255,129,66213,5,0,3:0:0:0:
255,129,66340,1,0,3:0:0:0:
52,198,66467,2,0,L|66:296,1,97.9999970092774,8|0,0:0|0:0,0:0:0:0:
231,381,66721,5,0,3:0:0:0:
145,358,66849,1,0,3:0:0:0:
213,296,66976,1,8,0:0:0:0:
213,296,67103,1,0,3:0:0:0:
69,300,67230,6,0,P|35:312|-4:323,1,70,8|0,3:2|0:0,0:0:0:0:
275,234,67357,2,0,P|284:200|296:167,1,70,8|0,3:2|0:0,0:0:0:0:
421,352,67484,2,0,P|454:361|487:373,1,70,8|0,3:2|0:0,0:0:0:0:
254,325,67611,6,0,P|240:205|220:86,1,210,4|0,1:0|0:0,0:0:0:0:
208,93,67865,1,0,3:0:0:0:
464,13,67993,2,0,P|452:81|444:151,1,140,8|0,0:0|0:0,0:0:0:0:
348,292,68247,5,0,3:0:0:0:
366,207,68374,1,0,3:0:0:0:
434,269,68501,1,8,0:0:0:0:
229,245,68628,6,0,B|92:229|150:162|20:134,1,241.500004606247,4|0,1:0|0:0,0:0:0:0:
7,142,68882,1,0,3:0:0:0:
0,347,69010,2,0,P|68:335|138:327,1,140,12|0,0:0|0:0,0:0:0:0:
416,66,69264,5,0,3:0:0:0:
283,177,69391,1,0,3:0:0:0:
252,3,69518,1,8,0:0:0:0:
111,238,69645,6,0,B|123:159|123:159|168:138|168:138|184:51,1,210,4|0,1:0|0:0,0:0:0:0:
171,44,69899,1,0,3:0:0:0:
18,179,70026,2,0,P|12:131|3:83,1,97.9999970092774,12|0,0:0|0:0,0:0:0:0:
284,178,70281,5,4,3:2:0:0:
197,226,70408,1,0,3:0:0:0:
266,370,70535,2,0,P|272:322|281:274,1,97.9999970092774,12|0,0:0|0:0,0:0:0:0:
254,95,70789,5,0,1:0:0:0:
9,297,71043,5,0,1:0:0:0:
503,297,71298,5,8,1:2:0:0:
413,267,71425,2,0,L|422:336,1,70,8|0,1:2|0:0,0:0:0:0:
511,101,71679,6,0,B|388:110|450:198|302:201,1,210,4|0,1:0|0:0,0:0:0:0:
307,185,71933,1,0,3:0:0:0:
141,62,72060,2,0,P|72:50|2:42,1,140,8|0,0:0|0:0,0:0:0:0:
267,59,72315,5,0,3:0:0:0:
185,184,72442,1,0,3:0:0:0:
282,52,72569,1,8,0:0:0:0:
46,151,72696,6,0,P|152:198|198:335,1,241.500004606247,4|0,1:0|0:0,0:0:0:0:
186,329,72950,1,0,3:0:0:0:
374,283,73077,2,0,P|433:272|521:265,1,140,8|0,0:0|0:0,0:0:0:0:
284,334,73332,5,0,3:0:0:0:
417,183,73459,1,0,3:0:0:0:
482,363,73586,1,8,0:0:0:0:
229,199,73713,6,0,B|150:211|150:211|129:256|129:256|42:272,1,210,4|0,1:0|0:0,0:0:0:0:
25,251,73967,1,0,3:0:0:0:
244,379,74094,6,0,P|249:330|258:282,1,97.9999970092774,12|0,0:0|0:0,0:0:0:0:
66,48,74349,2,0,P|60:96|51:144,1,97.9999970092774,4|0,3:2|0:0,0:0:0:0:
377,246,74603,6,0,P|425:236|473:231,1,97.9999970092774,12|0,0:0|0:0,0:0:0:0:
507,138,74857,5,0,1:0:0:0:
497,135,74921,1,0,1:0:0:0:
500,145,74984,1,0,1:0:0:0:
409,159,75111,5,0,1:0:0:0:
326,346,75238,1,0,1:0:0:0:
419,314,75365,5,8,1:2:0:0:
254,69,75493,2,0,L|263:0,1,70,8|0,1:2|0:0,0:0:0:0:
339,100,75747,6,0,P|234:112|131:129,1,210,4|0,1:0|0:0,0:0:0:0:
108,114,76001,1,0,3:0:0:0:
11,334,76128,2,0,P|80:339|149:351,1,140,8|0,0:0|0:0,0:0:0:0:
264,254,76382,5,0,3:0:0:0:
205,195,76510,1,0,3:0:0:0:
177,272,76637,1,8,0:0:0:0:
433,340,76764,6,0,P|343:303|315:146,1,241.500004606247,4|0,1:0|0:0,0:0:0:0:
288,158,77018,1,0,3:0:0:0:
512,51,77145,2,0,P|443:38|373:33,1,140,8|0,0:0|0:0,0:0:0:0:
194,187,77399,5,0,3:0:0:0:
388,146,77526,1,0,3:0:0:0:
326,333,77654,1,8,0:0:0:0:
13,192,77781,6,0,B|101:205|101:205|124:255|124:255|221:273,1,241.500004606247,4|0,1:0|0:0,0:0:0:0:
238,288,78035,1,0,3:0:0:0:
22,384,78162,2,0,P|27:335|36:287,1,97.9999970092774,12|0,0:0|0:0,0:0:0:0:
171,16,78416,5,4,3:2:0:0:
261,120,78543,1,0,3:0:0:0:
103,181,78671,2,0,P|98:132|89:84,1,97.9999970092774,12|0,0:0|0:0,0:0:0:0:
22,28,78925,5,0,1:0:0:0:
244,203,79179,5,0,1:0:0:0:
490,28,79433,5,8,1:2:0:0:
409,6,79560,2,0,L|418:75,1,70,8|0,1:2|0:0,0:0:0:0:
506,242,79815,6,0,P|417:241|363:140,1,210,4|0,1:0|0:0,0:0:0:0:
345,118,80069,1,0,3:0:0:0:
362,333,80196,2,0,P|292:338|223:350,1,140,12|0,0:0|0:0,0:0:0:0:
204,221,80450,5,4,3:2:0:0:
263,160,80577,1,0,3:0:0:0:
289,240,80704,1,8,0:0:0:0:
0,151,80832,6,0,P|89:150|143:49,1,210,4|0,1:0|0:0,0:0:0:0:
161,27,81086,1,0,3:0:0:0:
146,229,81213,2,0,P|215:234|284:246,1,140,12|0,0:0|0:0,0:0:0:0:
395,99,81467,5,4,3:2:0:0:
269,0,81594,1,0,3:0:0:0:
233,149,81721,1,8,0:0:0:0:
498,188,81849,6,0,B|419:176|419:176|398:131|398:131|311:115,1,210,4|0,1:0|0:0,0:0:0:0:
301,90,82103,1,0,3:0:0:0:
369,298,82230,2,0,L|467:284,1,97.9999970092774,12|0,0:0|0:0,0:0:0:0:
147,155,82484,5,4,3:2:0:0:
244,233,82611,1,0,3:0:0:0:
129,356,82738,2,0,L|31:342,1,97.9999970092774,12|0,0:0|0:0,0:0:0:0:
268,361,82993,6,0,L|256:300,1,48.9999985046387,0|0,1:0|0:0,0:0:0:0:
244,233,83120,1,0,1:0:0:0:
252,219,83374,1,0,3:0:0:0:
234,223,83628,1,0,3:0:0:0:
237,144,83755,6,0,L|249:83,1,48.9999985046387,8|0,1:2|0:0,0:0:0:0:
261,17,83882,1,0,1:0:0:0:
253,3,84137,1,0,3:0:0:0:
271,7,84391,1,0,3:0:0:0:
164,73,84518,6,0,L|389:27,1,210,4|0,3:2|0:0,0:0:0:0:
370,31,85153,1,0,3:0:0:0:
511,178,85280,1,12,3:2:0:0:
426,285,85407,6,0,L|439:216,1,70,0|0,3:0|0:0,0:0:0:0:
270,266,85662,2,0,L|289:362,1,70,0|0,3:0|0:0,0:0:0:0:
365,347,85916,5,0,3:0:0:0:
179,283,86043,1,4,3:2:0:0:
120,343,86170,6,0,L|24:362,1,70,0|0,3:0|0:0,0:0:0:0:
241,187,86424,2,0,L|145:167,1,70,0|0,3:0|0:0,0:0:0:0:
113,109,86679,1,0,3:0:0:0:
241,0,86806,5,8,0:0:0:0:
206,90,86933,1,0,3:0:0:0:
113,109,87060,1,0,3:0:0:0:
39,142,87187,1,0,3:0:0:0:
21,219,87314,1,0,3:0:0:0:
75,272,87441,1,0,3:0:0:0:
83,267,87568,5,8,3:2:0:0:
40,55,87695,1,0,3:0:0:0:
135,190,87823,5,8,3:2:0:0:
144,20,87950,1,0,3:0:0:0:
231,242,88077,5,8,3:2:0:0:
207,110,88204,1,0,3:0:0:0:
335,197,88331,5,8,3:2:0:0:
300,308,88458,1,0,3:0:0:0:
403,349,88585,5,8,3:2:0:0:
393,262,88712,1,0,3:0:0:0:
504,315,88840,5,8,3:2:0:0:
497,339,88967,1,0,3:0:0:0:
300,308,89094,6,0,L|220:323,5,70,4|0|0|0|0|0,3:2|3:0|3:0|3:0|3:0|3:0,3:0:0:0:
24,253,89856,6,0,L|103:268,5,70,12|0|0|0|0|0,3:2|3:0|3:0|3:0|3:0|3:0,3:0:0:0:
159,383,90619,6,0,L|113:158,1,210,4|0,3:2|3:0,0:0:0:0:
53,122,91128,2,0,L|67:50,1,70,0|0,3:0|3:0,0:0:0:0:
233,20,91382,6,0,L|247:88,5,70,12|0|0|0|0|0,3:2|3:0|3:0|3:0|3:0|3:0,3:0:0:0:
155,71,92145,5,0,3:1:0:0:
318,149,92272,2,0,L|387:136,1,70,0|0,3:0|0:0,0:0:0:0:
473,18,92526,2,0,L|404:5,1,70,0|0,3:0|0:0,0:0:0:0:
342,59,92780,5,0,3:0:0:0:
421,209,92907,1,12,0:0:0:0:
346,251,93034,6,0,L|359:320,1,70,0|0,3:0|0:0,0:0:0:0:
500,245,93289,2,0,L|513:176,1,70,0|0,3:0|0:0,0:0:0:0:
433,364,93543,1,0,3:0:0:0:
275,345,93670,5,4,3:2:0:0:
185,310,93797,1,0,3:0:0:0:
166,217,93924,1,0,3:0:0:0:
133,143,94051,1,0,3:0:0:0:
56,125,94179,1,0,3:0:0:0:
3,179,94306,1,0,3:0:0:0:
166,217,94433,5,8,3:2:0:0:
261,206,94560,1,0,3:0:0:0:
304,121,94687,1,0,3:0:0:0:
355,58,94814,1,0,3:0:0:0:
434,61,94941,1,0,3:0:0:0:
471,127,95068,1,0,3:0:0:0:
465,137,95195,5,12,3:2:0:0:
347,225,95323,1,0,3:0:0:0:
483,289,95450,1,0,3:0:0:0:
370,146,95577,2,0,L|386:67,2,70,8|0|0,3:2|3:0|3:0,3:0:0:0:
149,196,95958,5,8,3:2:0:0:
267,284,96085,1,0,3:0:0:0:
131,348,96212,1,0,3:0:0:0:
244,205,96340,2,0,L|228:126,2,70,8|0|0,3:2|3:0|3:0,3:0:0:0:
22,252,96721,6,0,L|101:267,5,70,4|0|0|0|0|0,3:2|3:0|3:0|3:0|3:0|3:0,3:0:0:0:
147,137,97484,6,0,L|153:102,1,35,8|0,3:2|0:0,0:0:0:0:
278,30,97611,1,0,3:0:0:0:
278,30,97738,1,0,3:0:0:0:
69,79,97865,5,8,3:2:0:0:
230,192,97992,1,0,3:0:0:0:
61,89,98119,1,0,3:0:0:0:
292,121,98246,5,8,3:2:0:0:
192,338,98373,2,0,L|176:259,1,70,8|0,3:2|0:0,0:0:0:0:
473,269,98628,2,0,L|486:200,1,70,8|0,3:2|0:0,0:0:0:0:
279,355,98882,1,8,3:2:0:0:
315,206,99009,5,0,3:0:0:0:
397,217,99136,1,0,3:0:0:0:
347,282,99263,1,0,3:0:0:0:
435,99,99390,5,0,3:0:0:0:
394,104,99517,1,0,3:0:0:0:
419,137,99645,1,0,3:0:0:0:
496,28,99772,5,0,3:0:0:0:
256,192,103839,5,0,1:0:0:0:
427,70,106890,5,8,3:2:0:0:
427,70,106954,1,8,3:2:0:0:
427,70,107017,1,8,3:2:0:0:
362,105,107144,1,8,3:2:0:0:
287,105,107272,1,8,3:2:0:0:
219,75,107399,1,8,3:2:0:0:
152,43,107526,1,8,3:2:0:0:
81,62,107653,1,8,3:2:0:0:
0,239,107780,6,0,B|54:232|54:232|130:262|130:262|192:254,1,195.999994018555,4|0,1:0|3:0,0:0:0:0:
255,319,108161,1,8,0:0:0:0:
454,230,108288,1,0,3:0:0:0:
289,128,108416,1,0,3:0:0:0:
311,215,108543,1,0,3:0:0:0:
455,88,108670,2,0,P|409:67|361:60,1,97.9999970092774,8|0,0:0|0:0,0:0:0:0:
5,24,108924,5,0,3:0:0:0:
75,157,109051,1,0,3:0:0:0:
214,122,109178,1,8,0:0:0:0:
225,95,109305,1,0,3:0:0:0:
48,257,109433,5,0,3:0:0:0:
272,168,109560,1,0,3:0:0:0:
81,33,109687,2,0,P|88:94|107:144,1,97.9999970092774,8|0,0:0|0:0,0:0:0:0:
180,326,109941,6,0,P|198:281|202:232,1,97.9999970092774,0|0,3:0|0:0,0:0:0:0:
442,261,110195,2,0,P|322:301|319:384,1,195.999994018555,8|0,0:0|3:0,0:0:0:0:
198,133,110577,1,0,3:0:0:0:
313,55,110704,2,0,B|327:105|327:105|319:169,1,97.9999970092774,8|0,0:0|0:0,0:0:0:0:
243,273,110958,5,0,3:0:0:0:
3,345,111085,1,0,3:0:0:0:
184,214,111212,1,8,0:0:0:0:
109,354,111339,6,0,P|20:304|35:203,1,195.999994018555,0|0,3:0|3:0,0:0:0:0:
87,157,111721,1,8,0:0:0:0:
390,46,111848,6,0,P|332:169|210:138,1,238.00000453949,4|0,1:0|3:0,0:0:0:0:
100,267,112229,2,0,P|147:254|195:249,1,97.9999970092774,8|0,0:0|0:0,0:0:0:0:
403,326,112483,1,0,3:0:0:0:
368,245,112610,1,0,3:0:0:0:
283,272,112738,1,8,0:0:0:0:
321,351,112865,1,0,3:0:0:0:
474,276,112992,5,0,3:0:0:0:
500,202,113119,1,0,3:0:0:0:
497,123,113246,1,8,0:0:0:0:
466,51,113373,1,0,3:0:0:0:
310,112,113500,5,0,3:0:0:0:
415,112,113627,1,0,3:0:0:0:
306,128,113755,1,8,0:0:0:0:
409,101,113882,1,0,3:0:0:0:
262,41,114009,6,0,P|216:36|149:32,1,97.9999970092774,0|0,3:0|3:0,0:0:0:0:
8,114,114263,2,0,P|75:207|164:179,1,195.999994018555,8|0,0:0|3:0,0:0:0:0:
217,244,114644,1,0,3:0:0:0:
294,202,114771,1,8,0:0:0:0:
293,113,114899,1,0,3:0:0:0:
309,205,115026,1,0,3:0:0:0:
392,243,115153,1,0,3:0:0:0:
482,142,115280,2,0,L|359:160,1,97.9999970092774,8|0,0:0|0:0,0:0:0:0:
287,345,115534,5,8,3:2:0:0:
378,269,115661,1,8,3:2:0:0:
503,246,115788,1,8,3:2:0:0:
163,31,115916,6,0,B|82:119|154:200|228:204|261:141|248:109|227:95,1,241.500004606247,4|0,1:0|0:0,0:0:0:0:
233,104,116170,1,0,3:0:0:0:
45,332,116297,2,0,P|116:295|195:280,1,161.000003070831,12|0,0:0|0:0,0:0:0:0:
406,339,116551,1,0,3:0:0:0:
350,189,116678,1,0,3:0:0:0:
381,363,116805,1,8,0:0:0:0:
503,246,116933,6,0,B|421:253|421:253|362:209|362:209|264:218,1,241.500004606247,4|0,1:0|0:0,0:0:0:0:
243,198,117187,1,0,3:0:0:0:
21,31,117314,2,0,P|10:110|58:203,1,161.000003070831,12|0,0:0|0:0,0:0:0:0:
156,142,117568,1,0,3:0:0:0:
105,304,117695,1,0,3:0:0:0:
156,142,117822,1,8,0:0:0:0:
10,338,117949,6,0,B|136:308|114:394|244:378,1,241.500004606247,4|0,1:0|0:0,0:0:0:0:
275,361,118204,1,0,3:0:0:0:
205,214,118331,5,8,0:0:0:0:
186,296,118458,1,0,3:0:0:0:
337,279,118585,1,0,3:0:0:0:
291,200,118712,1,0,3:0:0:0:
92,180,118839,5,8,0:0:0:0:
260,280,118966,1,0,3:0:0:0:
421,131,119094,5,0,3:0:0:0:
398,223,119221,1,0,3:0:0:0:
481,192,119348,1,8,0:0:0:0:
140,92,119475,5,0,3:0:0:0:
241,141,119602,1,0,3:0:0:0:
229,38,119729,1,0,3:0:0:0:
17,97,119856,6,0,P|5:175|19:256,1,146.999995513916,8|0,0:0|0:0,0:0:0:0:
0,275,120110,1,0,3:0:0:0:
107,229,120238,1,0,3:0:0:0:
123,351,120365,1,8,0:0:0:0:
123,351,120492,1,0,3:0:0:0:
285,257,120619,5,0,3:0:0:0:
188,283,120746,1,0,3:0:0:0:
281,292,120873,1,8,0:0:0:0:
377,318,121000,1,0,3:0:0:0:
358,207,121127,5,0,3:0:0:0:
488,242,121255,1,0,3:0:0:0:
354,221,121382,1,8,0:0:0:0:
493,327,121509,2,0,B|532:257|520:178|520:178|477:142,1,178.500003404617,4|0,1:2|0:0,0:0:0:0:
468,149,121763,1,0,3:0:0:0:
268,186,121890,1,8,0:0:0:0:
171,42,122017,6,0,P|212:129|350:117,1,238.00000453949,4|0,1:0|3:0,0:0:0:0:
64,225,122399,1,8,0:0:0:0:
149,222,122526,1,0,3:0:0:0:
226,257,122653,1,0,3:0:0:0:
282,322,122780,1,0,3:0:0:0:
384,206,122907,5,8,0:0:0:0:
351,222,123034,1,0,3:0:0:0:
436,290,123161,5,0,3:0:0:0:
414,118,123288,1,0,3:0:0:0:
267,194,123416,1,8,0:0:0:0:
494,105,123543,5,0,3:0:0:0:
344,74,123670,1,0,3:0:0:0:
374,213,123797,1,0,3:0:0:0:
442,39,123924,5,8,0:0:0:0:
420,35,124051,1,0,3:0:0:0:
269,109,124178,6,0,P|221:112|172:109,1,97.9999970092774,0|0,3:0|0:0,0:0:0:0:
26,44,124433,2,0,B|22:115|22:115|59:164|59:164|53:238,1,195.999994018555,8|0,0:0|3:0,0:0:0:0:
7,321,124814,1,0,3:0:0:0:
156,220,124941,1,8,0:0:0:0:
29,341,125068,1,0,3:0:0:0:
308,248,125195,5,0,1:0:0:0:
400,323,125322,1,0,1:0:0:0:
189,290,125449,1,8,1:2:0:0:
324,138,125577,1,0,1:0:0:0:
285,352,125704,5,8,3:2:0:0:
217,166,125831,1,8,3:2:0:0:
432,206,125958,1,8,3:2:0:0:
127,249,126085,6,0,B|91:200|94:137|94:137|142:93|132:23,1,241.500004606247,4|0,1:0|0:0,0:0:0:0:
112,0,126339,1,0,3:0:0:0:
0,192,126466,2,0,B|30:148|93:138|93:138|128:149|165:144,1,161.000003070831,12|0,0:2|0:0,0:0:0:0:
357,252,126721,1,0,3:0:0:0:
212,90,126848,1,0,3:0:0:0:
339,260,126975,1,8,0:0:0:0:
500,165,127102,6,0,B|387:151|398:237|269:214,1,241.500004606247,4|0,1:0|0:0,0:0:0:0:
239,237,127356,1,0,3:0:0:0:
283,11,127483,2,0,B|355:46|344:131|344:131|326:145,1,161.000003070831,12|0,0:0|0:0,0:0:0:0:
178,351,127738,1,0,3:0:0:0:
141,197,127865,1,0,3:0:0:0:
339,260,127992,1,8,0:0:0:0:
63,350,128119,6,0,B|-10:272|53:172|53:172|49:214|71:256,1,241.500004606247,4|0,1:0|0:0,0:0:0:0:
71,245,128373,1,0,3:0:0:0:
234,119,128500,5,12,0:0:0:0:
110,126,128627,1,0,3:0:0:0:
291,212,128755,1,4,3:2:0:0:
259,11,128882,1,0,3:0:0:0:
182,229,129009,5,12,0:0:0:0:
348,112,129136,1,0,3:0:0:0:
9,95,129263,5,0,1:0:0:0:
257,335,129517,1,0,1:0:0:0:
512,197,129771,1,8,1:2:0:0:
512,197,129899,1,8,1:2:0:0:
238,13,130153,6,0,B|319:101|247:182|173:186|140:123|153:91|174:77,1,241.500004606247,4|0,1:0|0:0,0:0:0:0:
163,88,130407,1,0,3:0:0:0:
14,320,130534,2,0,B|47:279|121:264|121:264|194:278,1,161.000003070831,12|0,0:0|0:0,0:0:0:0:
314,344,130788,1,0,3:0:0:0:
206,188,130916,1,0,3:0:0:0:
289,365,131043,1,8,0:0:0:0:
494,246,131170,6,0,B|426:237|382:272|382:272|324:266|280:209|325:179,1,241.500004606247,4|0,1:0|0:0,0:0:0:0:
336,169,131424,1,0,3:0:0:0:
223,3,131551,2,0,B|241:63|205:111|205:111|225:172,1,161.000003070831,12|0,0:0|0:0,0:0:0:0:
27,295,131805,1,0,3:0:0:0:
233,237,131933,1,0,3:0:0:0:
43,326,132060,1,8,0:0:0:0:
227,365,132187,6,0,P|219:254|95:233,1,241.500004606247,4|0,1:0|0:0,0:0:0:0:
79,242,132441,1,0,3:0:0:0:
22,185,132568,1,12,3:2:0:0:
42,107,132695,1,0,3:2:0:0:
117,78,132822,1,4,3:2:0:0:
181,125,132949,1,0,3:2:0:0:
107,175,133077,5,12,3:2:0:0:
108,159,133204,1,0,3:2:0:0:
245,21,133331,5,0,1:0:0:0:
284,131,133458,1,0,1:0:0:0:
265,9,133585,1,8,1:2:0:0:
260,369,133839,1,8,1:2:0:0:
260,369,133966,1,8,1:2:0:0:
502,121,134221,6,0,P|474:247|362:243,1,241.500004606247,4|0,1:0|0:0,0:0:0:0:
359,229,134475,1,0,3:0:0:0:
49,286,134602,2,0,B|136:274|119:311|209:300,1,161.000003070831,12|0,0:0|0:0,0:0:0:0:
281,85,134856,1,4,3:2:0:0:
275,237,134983,1,0,3:0:0:0:
253,61,135110,1,8,0:0:0:0:
17,73,135238,6,0,P|57:164|190:165,1,241.500004606247,4|0,1:0|0:0,0:0:0:0:
200,137,135492,1,0,3:0:0:0:
388,9,135619,2,0,B|346:62|355:131|355:131|389:151,1,161.000003070831,12|0,0:0|0:0,0:0:0:0:
334,376,135873,1,4,3:2:0:0:
457,194,136000,1,0,3:0:0:0:
309,350,136127,1,8,0:0:0:0:
62,263,136255,6,0,B|119:339|240:305|240:305|179:298|161:262,1,241.500004606247,4|0,1:0|0:0,0:0:0:0:
177,275,136509,1,0,3:0:0:0:
256,154,136636,5,12,0:0:0:0:
322,246,136763,1,0,3:0:0:0:
148,160,136890,1,4,3:2:0:0:
291,48,137017,1,0,3:0:0:0:
253,291,137144,5,12,0:0:0:0:
200,48,137271,1,0,3:0:0:0:
491,141,137399,5,0,1:0:0:0:
21,141,137653,1,0,1:0:0:0:
258,374,137907,1,8,1:2:0:0:
258,374,138034,1,8,1:2:0:0:
349,31,138288,6,0,B|430:119|358:200|284:204|251:141|264:109|285:95,1,241.500004606247,4|0,1:0|0:0,0:0:0:0:
275,104,138543,1,0,3:0:0:0:
467,332,138670,2,0,P|396:295|317:280,1,161.000003070831,12|0,0:0|0:0,0:0:0:0:
106,339,138924,1,4,3:2:0:0:
162,189,139051,1,0,3:2:0:0:
131,363,139178,1,8,0:0:0:0:
9,246,139305,6,0,B|91:253|91:253|150:209|150:209|248:218,1,241.500004606247,4|0,1:0|0:0,0:0:0:0:
269,198,139560,1,0,3:0:0:0:
491,31,139687,2,0,P|502:110|454:203,1,161.000003070831,12|0,0:0|0:0,0:0:0:0:
356,142,139941,1,4,3:2:0:0:
407,304,140068,1,0,3:0:0:0:
356,142,140195,1,8,0:0:0:0:
502,338,140322,6,0,B|376:308|398:394|268:378,1,241.500004606247,4|0,1:0|0:0,0:0:0:0:
237,361,140577,1,0,3:0:0:0:
192,293,140704,1,12,0:0:0:0:
237,226,140831,1,0,3:0:0:0:
317,228,140958,1,4,3:2:0:0:
348,302,141085,1,0,3:0:0:0:
273,295,141212,5,8,0:0:0:0:
434,152,141339,1,0,3:0:0:0:
134,59,141466,5,8,1:2:0:0:
137,74,141593,1,0,1:0:0:0:
148,146,141847,1,0,3:0:0:0:
161,222,142101,1,0,3:0:0:0:
397,168,142228,5,8,1:2:0:0:
394,183,142355,1,0,1:0:0:0:
383,255,142610,1,0,3:0:0:0:
370,331,142864,1,0,3:0:0:0:
57,312,142991,5,4,3:2:0:0:
107,362,143118,1,0,3:0:0:0:
179,361,143245,1,0,3:0:0:0:
228,310,143372,1,0,3:0:0:0:
227,238,143499,1,0,3:0:0:0:
174,190,143627,1,0,3:0:0:0:
28,198,143754,5,12,3:2:0:0:
0,131,143881,1,0,3:0:0:0:
26,64,144008,1,0,3:0:0:0:
90,33,144135,1,0,3:0:0:0:
159,54,144262,1,0,3:0:0:0:
193,118,144389,1,0,3:0:0:0:
0,265,144516,5,4,3:2:0:0:
67,235,144643,1,0,3:0:0:0:
140,239,144771,1,0,3:0:0:0:
206,271,144898,1,0,3:0:0:0:
277,287,145025,1,0,3:0:0:0:
346,262,145152,1,0,3:0:0:0:
283,147,145279,5,8,3:2:0:0:
275,167,145406,1,0,3:0:0:0:
273,188,145533,1,0,3:0:0:0:
278,209,145660,1,0,3:0:0:0:
411,187,145915,1,0,3:0:0:0:
473,273,146042,5,12,3:2:0:0:
349,101,146169,1,0,3:0:0:0:
349,101,146296,1,0,3:0:0:0:
394,291,146423,5,8,3:2:0:0:
427,82,146550,1,0,3:0:0:0:
427,82,146677,1,8,3:2:0:0:
221,10,146804,5,8,3:2:0:0:
185,74,146932,1,0,3:0:0:0:
182,147,147059,1,0,3:0:0:0:
217,211,147186,1,0,3:0:0:0:
267,264,147313,1,0,3:0:0:0:
291,333,147440,1,0,3:0:0:0:
185,384,147567,5,4,3:2:0:0:
163,382,147694,1,0,3:0:0:0:
141,380,147821,1,0,3:0:0:0:
119,378,147949,1,0,3:0:0:0:
96,376,148076,1,0,3:0:0:0:
74,374,148203,1,0,3:0:0:0:
144,229,148330,5,8,3:2:0:0:
158,304,148457,1,0,3:0:0:0:
0,302,148584,1,0,3:0:0:0:
207,176,148711,5,8,3:2:0:0:
221,251,148838,1,0,3:0:0:0:
63,249,148966,1,0,3:0:0:0:
0,139,149093,5,12,3:2:0:0:
59,180,149220,1,0,3:0:0:0:
131,180,149347,1,0,3:0:0:0:
189,137,149474,1,0,3:0:0:0:
212,68,149601,1,0,3:0:0:0:
191,0,149728,1,0,3:0:0:0:
275,155,149855,5,0,3:0:0:0:
273,0,149982,1,8,3:2:0:0:
113,80,150110,1,0,3:0:0:0:
197,230,150237,5,8,3:2:0:0:
200,200,150364,1,8,3:2:0:0:
203,170,150491,1,8,3:2:0:0:
2,236,150618,6,0,P|22:311|158:323,1,220.499993270874,4|0,3:2|0:0,0:0:0:0:
152,334,151254,1,0,3:0:0:0:
279,384,151381,2,0,P|277:343|281:293,1,73.4999977569581,12|0,3:2|0:0,0:0:0:0:
282,314,151762,1,0,3:0:0:0:
285,317,152016,1,0,3:0:0:0:
477,359,152143,5,4,3:2:0:0:
480,286,152271,1,0,3:0:0:0:
447,221,152398,1,0,3:0:0:0:
386,181,152525,1,0,3:0:0:0:
314,179,152652,1,0,3:0:0:0:
250,213,152779,1,0,3:0:0:0:
179,4,152906,5,8,3:2:0:0:
111,26,153033,1,0,3:0:0:0:
83,92,153160,1,0,3:0:0:0:
113,157,153288,1,0,3:0:0:0:
182,177,153415,1,0,3:0:0:0:
242,139,153542,1,0,3:0:0:0:
451,228,153669,5,12,3:2:0:0:
388,188,153796,1,0,3:0:0:0:
315,178,153923,1,0,3:0:0:0:
138,310,154050,5,8,3:2:0:0:
204,275,154177,1,0,3:0:0:0:
249,217,154304,1,0,3:0:0:0:
217,0,154432,5,8,3:2:0:0:
214,74,154559,1,0,3:0:0:0:
242,142,154686,1,0,3:0:0:0:
451,228,154813,5,8,3:2:0:0:
388,188,154940,1,0,3:0:0:0:
315,178,155067,1,0,3:0:0:0:
175,189,155194,5,4,3:2:0:0:
350,313,155449,6,0,L|433:321,3,73.4999977569581,0|0|0|0,3:0|3:0|3:0|3:0,3:0:0:0:
291,371,155957,1,8,3:2:0:0:
73,199,156211,6,0,L|-10:207,3,73.4999977569581,0|0|0|0,3:0|3:0|3:0|3:0,3:0:0:0:
132,257,156720,1,4,3:1:0:0:
256,192,156847,12,0,158245,0:0:0:0:
65,202,164347,6,0,P|101:228|144:244,1,90.9999958343508,12|0,1:2|0:0,0:0:0:0:
329,161,164601,1,0,3:0:0:0:
135,62,164728,6,0,P|135:132|149:177,1,90.9999958343508,8|0,1:2|0:0,0:0:0:0:
249,336,164982,1,0,3:0:0:0:
437,257,165110,6,0,P|385:235|326:229,1,90.9999958343508,8|0,1:2|0:0,0:0:0:0:
42,287,165364,1,0,3:0:0:0:
258,151,165491,6,0,P|264:196|266:241,1,90.9999958343508,8|0,1:2|0:0,0:0:0:0:
175,373,165745,1,0,3:0:0:0:
0,209,165872,6,0,P|2:163|13:119,1,90.9999958343508,8|0,1:2|0:0,0:0:0:0:
152,25,166127,1,0,3:0:0:0:
382,134,166254,6,0,L|251:143,1,90.9999958343508,8|0,1:2|0:0,0:0:0:0:
114,241,166508,1,0,3:0:0:0:
389,277,166635,6,0,L|495:292,1,90.9999958343508,8|0,1:2|0:0,0:0:0:0:
314,376,166889,1,0,3:0:0:0:
185,139,167016,6,0,P|186:185|198:228,1,90.9999958343508,8|0,1:2|0:0,0:0:0:0:
424,177,167271,1,0,3:0:0:0:
167,325,167398,6,0,P|215:305|287:299,1,90.9999958343508,8|0,1:2|0:0,0:0:0:0:
347,205,167652,1,0,3:0:0:0:
122,67,167779,6,0,P|102:107|92:152,1,90.9999958343508,8|0,1:2|0:0,0:0:0:0:
337,279,168033,1,0,3:0:0:0:
54,305,168160,6,0,P|34:264|27:219,1,90.9999958343508,8|0,1:2|0:0,0:0:0:0:
305,144,168415,1,0,3:0:0:0:
298,358,168542,6,0,P|252:361|208:373,1,90.9999958343508,8|0,1:2|0:0,0:0:0:0:
109,223,168796,1,0,3:0:0:0:
397,190,168923,6,0,P|388:261|362:311,1,90.9999958343508,8|0,1:2|0:0,0:0:0:0:
156,151,169177,1,0,3:0:0:0:
484,141,169304,6,0,P|475:87|450:22,1,90.9999958343508,8|0,1:2|0:0,0:0:0:0:
222,208,169559,1,0,3:0:0:0:
260,13,169686,6,0,L|255:99,1,84,12|0,1:2|0:0,0:0:0:0:
4,228,170449,5,14,1:2:0:0:
136,364,170576,1,0,1:2:0:0:
319,320,170703,1,0,1:2:0:0:
54,143,170830,5,10,1:2:0:0:
88,280,170957,1,0,1:2:0:0:
224,320,171084,1,0,1:2:0:0:
118,106,171211,5,14,1:2:0:0:
89,208,171338,1,0,1:2:0:0:
162,285,171465,1,0,1:2:0:0:
173,105,171593,5,10,1:2:0:0:
116,161,171720,1,0,1:2:0:0:
134,238,171847,1,0,1:2:0:0:
508,156,171974,5,14,1:2:0:0:
376,20,172101,1,0,1:2:0:0:
193,64,172228,1,0,1:2:0:0:
458,241,172355,5,10,1:2:0:0:
424,104,172482,1,0,1:2:0:0:
288,64,172610,1,0,1:2:0:0:
394,278,172737,5,14,1:2:0:0:
423,176,172864,1,0,1:2:0:0:
350,99,172991,1,0,1:2:0:0:
339,279,173118,5,10,1:2:0:0:
396,223,173245,1,0,1:2:0:0:
378,146,173372,1,0,1:2:0:0:
119,298,173499,5,14,1:2:0:0:
252,320,173627,1,0,1:2:0:0:
372,384,173754,1,0,1:2:0:0:
152,82,173881,5,10,1:2:0:0:
187,176,174008,1,0,1:2:0:0:
191,278,174135,1,0,1:2:0:0:
304,22,174262,5,14,1:2:0:0:
256,80,174389,1,0,1:2:0:0:
191,121,174516,1,0,1:2:0:0:
399,98,174643,5,10,1:2:0:0:
344,88,174771,1,0,1:2:0:0:
293,61,174898,1,0,1:2:0:0:
385,188,175025,5,14,1:2:0:0:
371,148,175152,1,0,1:2:0:0:
369,105,175279,1,0,1:2:0:0:
321,212,175406,5,10,1:2:0:0:
342,188,175533,1,0,1:2:0:0:
369,171,175660,1,0,1:2:0:0:
226,147,175788,6,0,P|229:189|231:225,1,62.9999980773926,14|0,1:2|0:0,0:0:0:0:
508,228,176550,5,14,1:2:0:0:
376,364,176677,1,0,1:2:0:0:
193,320,176804,1,0,1:2:0:0:
458,143,176932,5,10,1:2:0:0:
424,280,177059,1,0,1:2:0:0:
288,320,177186,1,0,1:2:0:0:
394,106,177313,5,14,1:2:0:0:
423,208,177440,1,0,1:2:0:0:
350,285,177567,1,0,1:2:0:0:
339,105,177694,5,10,1:2:0:0:
396,161,177821,1,0,1:2:0:0:
378,238,177949,1,0,1:2:0:0:
4,156,178076,5,14,1:2:0:0:
136,20,178203,1,0,1:2:0:0:
319,64,178330,1,0,1:2:0:0:
54,241,178457,5,10,1:2:0:0:
88,104,178584,1,0,1:2:0:0:
224,64,178711,1,0,1:2:0:0:
118,278,178838,5,14,1:2:0:0:
89,176,178965,1,0,1:2:0:0:
162,99,179093,1,0,1:2:0:0:
173,279,179220,5,10,1:2:0:0:
116,223,179347,1,0,1:2:0:0:
134,146,179474,1,0,1:2:0:0:
393,298,179601,5,14,1:2:0:0:
260,320,179728,1,0,1:2:0:0:
140,384,179855,1,0,1:2:0:0:
360,82,179982,5,10,1:2:0:0:
325,176,180110,1,0,1:2:0:0:
321,278,180237,1,0,1:2:0:0:
208,22,180364,5,14,1:2:0:0:
256,80,180491,1,0,1:2:0:0:
321,121,180618,1,0,1:2:0:0:
113,98,180745,5,10,1:2:0:0:
168,88,180872,1,0,1:2:0:0:
219,61,180999,1,0,1:2:0:0:
17,75,181127,5,14,3:2:0:0:
166,210,181254,2,0,L|170:257,2,35,0|0|0,3:0|3:0|3:0,3:0:0:0:
113,311,181508,1,10,3:2:0:0:
30,294,181635,1,0,3:0:0:0:
15,211,181762,1,0,3:0:0:0:
82,160,181889,5,2,3:2:0:0:
257,254,182016,2,0,L|251:301,2,35,0|0|0,3:0|3:0|3:0,3:0:0:0:
326,167,182271,1,2,3:2:0:0:
414,210,182398,1,0,3:0:0:0:
486,176,182525,1,0,3:0:0:0:
512,194,182652,5,6,1:2:0:0:
386,26,182906,2,0,L|337:32,1,41.9999987182618,8|0,3:2|3:2,3:2:0:0:
265,85,183160,1,0,3:2:0:0:
265,85,183287,1,0,3:2:0:0:
168,4,183414,2,0,P|170:40|177:70,1,41.9999987182618,8|0,3:2|3:2,3:2:0:0:
121,134,183668,1,0,3:2:0:0:
121,134,183796,1,0,3:2:0:0:
27,213,183923,6,0,P|67:206|94:204,1,41.9999987182618,8|0,3:2|3:2,3:2:0:0:
196,268,184177,2,0,P|175:272|154:275,1,41.9999987182618,0|0,3:2|3:2,3:2:0:0:
51,370,184431,2,0,P|71:365|92:362,1,41.9999987182618,8|0,3:2|3:2,3:2:0:0:
272,365,184685,5,0,3:2:0:0:
305,327,184813,1,0,3:2:0:0:
314,277,184940,1,8,3:2:0:0:
308,226,185067,1,0,3:2:0:0:
278,185,185194,1,0,3:2:0:0:
231,166,185321,1,0,3:2:0:0:
183,183,185448,1,8,3:2:0:0:
183,183,185575,1,0,3:2:0:0:
292,86,185702,6,0,P|292:65|293:44,1,41.9999987182618,0|0,3:2|3:2,3:2:0:0:
225,254,185957,1,8,3:2:0:0:
56,202,186084,2,0,P|93:193|117:189,1,41.9999987182618,0|0,3:2|3:2,3:2:0:0:
340,348,186338,1,0,3:2:0:0:
340,348,186465,1,8,3:2:0:0:
340,348,186719,6,0,P|388:341|431:339,1,56,2|4,3:2|3:0,3:2:0:0:
507,246,186974,1,8,3:2:0:0:
360,138,187101,2,0,P|346:208|349:273,1,112,2|0,3:2|3:2,3:2:0:0:
226,360,187482,2,0,P|230:332|230:304,1,56,10|0,3:2|3:2,3:2:0:0:
185,221,187736,1,0,3:2:0:0:
17,173,187863,6,0,P|57:229|140:231,1,112,2|0,3:2|3:2,3:2:0:0:
230,128,188245,2,0,P|198:131|160:136,1,56,2|0,3:2|3:2,3:2:0:0:
325,191,188499,2,0,P|357:188|395:183,1,56,8|2,3:2|3:2,3:2:0:0:
474,132,188753,1,0,3:2:0:0:
474,132,188880,1,4,3:0:0:0:
341,0,189007,6,0,P|347:56|355:125,1,112,10|0,3:2|3:2,3:2:0:0:
305,312,189389,1,2,3:2:0:0:
185,263,189516,2,0,P|189:222|207:182,1,56,8|0,3:2|3:2,3:2:0:0:
264,134,189770,1,0,3:2:0:0:
264,134,190024,6,0,L|330:141,1,56,8|0,3:2|3:2,3:2:0:0:
162,58,190279,1,0,3:2:0:0:
162,58,190406,1,0,3:2:0:0:
43,162,190533,2,0,L|109:169,1,56,8|0,3:2|3:2,3:2:0:0:
182,335,190787,6,0,P|188:307|190:279,1,56,0|0,3:2|3:2,3:2:0:0:
319,139,191041,2,0,P|312:166|310:194,1,56,8|0,3:2|3:2,3:2:0:0:
431,316,191296,2,0,P|437:288|439:260,1,56,0|0,3:2|3:2,3:2:0:0:
512,204,191550,1,8,3:2:0:0:
512,204,191677,1,0,3:2:0:0:
391,65,191804,5,0,3:2:0:0:
342,80,191931,1,0,3:2:0:0:
305,114,192058,1,8,3:2:0:0:
294,163,192185,1,0,3:2:0:0:
296,213,192313,1,0,3:2:0:0:
320,256,192440,1,0,3:2:0:0:
364,280,192567,1,8,3:2:0:0:
364,280,192694,1,0,3:2:0:0:
437,178,192821,6,0,L|367:182,1,56,0|0,3:2|3:2,3:2:0:0:
118,167,193075,1,8,3:2:0:0:
206,56,193202,2,0,P|207:107|213:134,1,56,0|0,3:2|3:2,3:2:0:0:
220,343,193457,1,0,3:2:0:0:
220,343,193584,1,8,3:2:0:0:
220,343,193838,6,0,P|178:349|138:360,1,56,2|4,3:2|3:0,3:2:0:0:
73,384,194092,1,8,3:2:0:0:
8,302,194219,2,0,P|-5:248|-2:193,1,112,2|0,3:2|3:2,3:2:0:0:
141,109,194601,2,0,P|147:154|147:197,1,56,10|0,3:2|3:2,3:2:0:0:
283,197,194855,5,0,3:2:0:0:
109,270,194982,2,0,P|149:262|185:261,1,56,2|8,3:2|3:2,3:2:0:0:
294,300,195236,1,0,3:2:0:0:
380,112,195363,2,0,P|391:176|385:247,1,112,2|8,3:2|3:2,3:2:0:0:
189,55,195745,6,0,P|183:12|186:-28,1,56,2|0,3:2|3:0,3:2:0:0:
277,110,195999,1,4,3:0:0:0:
88,161,196126,2,0,P|143:164|192:190,1,112,10|0,3:2|3:2,3:2:0:0:
264,308,196507,2,0,P|271:269|291:235,1,56,2|8,3:2|3:2,3:2:0:0:
372,151,196762,1,0,3:2:0:0:
495,196,196889,1,2,3:2:0:0:
495,196,197143,6,0,P|450:216|416:219,1,56,8|0,3:2|3:2,3:2:0:0:
269,137,197397,1,0,3:2:0:0:
269,137,197524,1,0,3:2:0:0:
403,22,197652,2,0,P|417:75|418:107,1,56,8|0,3:2|3:2,3:2:0:0:
340,313,197906,1,0,3:2:0:0:
340,313,198033,1,0,3:2:0:0:
408,254,198160,5,8,1:2:0:0:
199,298,198287,1,8,1:2:0:0:
276,365,198414,5,8,3:2:0:0:
213,222,198541,1,8,3:2:0:0:
68,308,198668,1,8,3:2:0:0:
210,315,198796,6,0,B|186:233|186:233|164:212|164:212|135:119,1,195.999994018555,4|0,1:0|0:0,0:0:0:0:
265,22,199177,5,10,3:2:0:0:
232,122,199304,1,0,3:2:0:0:
232,122,199431,1,0,3:2:0:0:
327,78,199558,5,2,3:2:0:0:
378,209,199685,1,8,3:2:0:0:
378,209,199813,1,0,3:2:0:0:
493,207,199940,5,2,3:2:0:0:
309,155,200067,1,0,3:2:0:0:
309,155,200194,1,8,3:2:0:0:
443,103,200321,5,2,3:2:0:0:
276,231,200448,1,0,3:2:0:0:
276,231,200575,1,0,3:2:0:0:
415,179,200702,5,10,3:2:0:0:
441,318,200829,2,0,B|358:308|358:308|335:322|335:322|243:311,1,195.999994018555,0|0,3:0|3:0,0:0:0:0:
193,253,201211,5,10,3:2:0:0:
112,301,201338,1,0,3:2:0:0:
112,301,201465,1,0,3:2:0:0:
39,264,201592,5,0,3:2:0:0:
12,135,201719,1,8,3:2:0:0:
12,135,201846,1,0,3:2:0:0:
70,75,201974,5,2,3:2:0:0:
234,118,202101,1,0,3:2:0:0:
234,118,202228,1,8,3:2:0:0:
105,162,202355,6,0,P|98:84|216:44,1,195.999994018555,2|0,3:2|3:0,0:0:0:0:
243,100,202736,1,8,3:2:0:0:
390,12,202863,6,0,B|412:96|412:96|434:115|434:115|459:219,1,195.999994018555,4|0,3:2|3:0,0:0:0:0:
342,329,203245,5,10,3:2:0:0:
373,217,203372,1,0,3:2:0:0:
373,217,203499,1,0,3:2:0:0:
421,287,203626,5,2,3:2:0:0:
239,325,203753,1,8,3:2:0:0:
239,325,203880,1,0,3:2:0:0:
281,252,204007,5,2,3:2:0:0:
114,219,204135,1,0,3:2:0:0:
114,219,204262,1,8,3:2:0:0:
138,297,204389,5,2,3:2:0:0:
292,129,204516,1,0,3:2:0:0:
292,129,204643,1,0,3:2:0:0:
165,79,204770,6,0,L|190:189,1,97.9999970092774,8|0,3:2|0:0,0:0:0:0:
374,264,205024,6,0,P|389:196|408:149,1,97.9999970092774,0|0,3:0|0:0,0:0:0:0:
130,314,205279,2,0,P|115:246|96:199,1,97.9999970092774,8|0,3:2|0:0,0:0:0:0:
299,305,205533,5,0,3:0:0:0:
199,362,205660,1,0,3:0:0:0:
278,384,205787,1,8,3:2:0:0:
221,281,205914,1,0,3:0:0:0:
380,360,206041,6,0,P|434:338|495:338,1,97.9999970092774,0|0,3:0|0:0,0:0:0:0:
509,260,206296,1,8,3:2:0:0:
279,224,206423,6,0,P|272:184|256:150,1,48.9999985046387,0|0,1:0|0:0,0:0:0:0:
293,95,206550,5,8,3:2:0:0:
155,227,206677,1,8,3:2:0:0:
350,284,206804,1,8,3:2:0:0:
355,34,206931,6,0,P|276:43|256:122,1,167.999994873047,4|0,1:0|0:0,0:0:0:0:
423,210,207567,1,4,0:2:0:0:
418,284,207694,1,0,0:0:0:0:
345,304,207821,1,0,0:0:0:0:
303,240,207948,1,0,3:0:0:0:
351,182,208075,1,12,0:2:0:0:
309,118,208202,1,0,0:0:0:0:
236,138,208329,1,0,0:0:0:0:
231,212,208457,1,0,0:0:0:0:
159,234,208584,1,4,0:2:0:0:
118,170,208711,1,0,0:0:0:0:
25,180,208838,6,0,P|40:200|48:219,1,41.9999987182618,0|0,3:0|0:0,0:0:0:0:
91,79,208965,2,0,P|116:84|134:94,1,41.9999987182618,0|0,3:0|0:0,0:0:0:0:
127,179,209092,6,0,P|187:161|250:155,1,125.999996154785,4|0,0:0|0:0,0:0:0:0:
350,35,209601,1,4,0:0:0:0:
424,40,209728,1,0,0:0:0:0:
444,113,209855,1,0,0:0:0:0:
380,155,209982,1,0,3:0:0:0:
322,107,210109,1,12,0:0:0:0:
258,149,210236,1,0,0:0:0:0:
278,222,210363,1,0,0:0:0:0:
352,227,210490,1,0,0:0:0:0:
463,353,210618,6,0,P|418:333|336:327,1,125.999996154785,4|0,0:0|0:0,0:0:0:0:
330,318,210872,2,0,P|314:330|295:340,1,41.9999987182618,0|0,3:0|0:0,0:0:0:0:
444,215,210999,6,0,P|432:162|317:144,1,167.999994873047,4|0,1:0|0:0,0:0:0:0:
110,131,211635,1,4,0:0:0:0:
115,205,211762,1,0,0:0:0:0:
188,225,211889,1,0,0:0:0:0:
230,161,212016,1,0,3:0:0:0:
182,103,212143,1,12,0:0:0:0:
224,39,212270,1,0,0:0:0:0:
297,59,212397,1,0,0:0:0:0:
302,133,212524,1,0,0:0:0:0:
374,155,212651,1,4,0:0:0:0:
415,91,212779,1,0,0:0:0:0:
508,101,212906,6,0,P|492:121|484:140,1,41.9999987182618,0|0,3:0|0:0,0:0:0:0:
442,0,213033,2,0,P|416:5|398:15,1,41.9999987182618,0|0,3:0|0:0,0:0:0:0:
290,32,213160,6,0,P|316:90|333:151,1,125.999996154785,4|0,1:0|0:0,0:0:0:0:
382,271,213668,1,4,0:0:0:0:
377,345,213796,1,0,0:0:0:0:
304,365,213923,1,0,0:0:0:0:
262,301,214050,1,0,3:0:0:0:
310,243,214177,1,12,0:0:0:0:
268,179,214304,1,0,0:0:0:0:
195,199,214431,1,0,0:0:0:0:
190,273,214558,1,0,0:0:0:0:
64,384,214685,6,0,P|84:339|90:257,1,125.999996154785,4|0,0:0|0:0,0:0:0:0:
99,251,214940,2,0,P|87:235|77:216,1,41.9999987182618,0|0,3:0|0:0,0:0:0:0:
287,294,215067,6,0,B|271:201|271:201|291:163|291:163|268:45,1,224,4|0,1:0|0:0,0:0:0:0:
117,13,215448,2,0,P|105:72|88:131,1,112,0|0,3:0|0:0,0:0:0:0:
435,113,215702,2,0,P|447:172|464:231,1,112,0|0,3:0|0:0,0:0:0:0:
363,69,215957,5,0,3:0:0:0:
200,179,216084,1,0,3:0:0:0:
316,280,216211,5,8,1:2:0:0:
286,191,216338,1,8,1:2:0:0:
286,191,216401,1,8,1:2:0:0:
286,191,216465,1,8,1:2:0:0:
169,367,216592,5,8,3:2:0:0:
205,188,216719,1,8,3:2:0:0:
241,9,216846,1,8,3:2:0:0:
88,130,216974,5,4,3:2:0:0:
88,130,217101,2,0,L|186:117,1,70,0|0,3:0|0:0,0:0:0:0:
232,89,217355,5,0,3:0:0:0:
373,171,217482,2,0,P|362:227|361:270,1,70,0|0,3:0|0:0,0:0:0:0:
281,233,217736,5,4,3:2:0:0:
258,378,217863,2,0,L|247:288,1,70,0|0,3:0|0:0,0:0:0:0:
467,366,218118,5,0,3:0:0:0:
168,334,218245,2,0,L|89:323,1,70,12|0,3:2|0:0,0:0:0:0:
39,201,218499,5,0,3:0:0:0:
39,201,218626,2,0,P|34:254|46:291,1,70,0|4,3:0|0:0,0:0:0:0:
235,274,218880,1,0,3:0:0:0:
235,274,219007,2,0,P|240:221|228:184,1,70,0|0,3:0|0:0,0:0:0:0:
167,157,219262,6,0,L|179:78,1,70,4|0,3:2|0:0,0:0:0:0:
304,24,219516,2,0,L|315:119,1,70,0|0,3:0|0:0,0:0:0:0:
447,157,219770,5,4,3:2:0:0:
370,184,219897,1,0,3:0:0:0:
396,264,220024,1,0,3:0:0:0:
474,238,220151,1,0,3:0:0:0:
306,248,220279,6,0,P|304:291|296:334,1,70,12|0,3:2|0:0,0:0:0:0:
360,176,220533,5,0,3:0:0:0:
208,124,220660,2,0,L|219:207,1,70,0|4,3:0|3:2,0:0:0:0:
430,51,220914,2,0,L|419:132,1,70,0|0,3:0|0:0,0:0:0:0:
500,302,221168,5,0,3:0:0:0:
360,176,221296,2,0,L|379:262,1,70,4|0,3:2|0:0,0:0:0:0:
327,384,221550,2,0,L|334:298,1,70,0|0,3:0|0:0,0:0:0:0:
430,338,221804,5,4,3:2:0:0:
286,246,221931,2,0,L|203:258,1,70,0|0,3:0|0:0,0:0:0:0:
159,315,222185,5,0,3:0:0:0:
276,74,222313,2,0,L|365:90,1,70,12|0,3:2|0:0,0:0:0:0:
422,45,222567,5,0,3:0:0:0:
422,45,222694,2,0,B|433:80|433:80|423:131,1,70,0|4,3:0|0:2,0:0:0:0:
196,110,222948,1,0,3:0:0:0:
196,110,223075,2,0,B|185:75|185:75|195:24,1,70,0|0,3:0|0:0,0:0:0:0:
265,164,223329,6,0,L|258:251,1,70,4|0,3:2|0:0,0:0:0:0:
104,92,223584,2,0,L|116:182,1,70,0|0,3:0|0:0,0:0:0:0:
54,216,223838,5,4,3:2:0:0:
135,256,223965,1,0,3:0:0:0:
116,348,224092,1,0,3:0:0:0:
116,348,224156,1,0,3:0:0:0:
116,348,224219,1,0,3:0:0:0:
384,248,224346,6,0,L|368:150,1,70,12|0,3:2|0:0,0:0:0:0:
336,314,224601,1,0,3:0:0:0:
336,314,224664,1,0,3:0:0:0:
336,314,224728,1,0,3:0:0:0:
435,95,224855,5,8,3:2:0:0:
244,127,224982,1,8,3:2:0:0:
53,159,225109,1,8,3:2:0:0:
285,26,225236,6,0,P|252:95|136:78,1,168,4|0,1:0|0:0,0:0:0:0:
156,91,225490,1,0,3:0:0:0:
385,198,225618,2,0,L|505:178,1,112,12|0,0:0|0:0,0:0:0:0:
303,169,225872,5,0,3:0:0:0:
249,247,225999,1,0,3:0:0:0:
340,376,226126,1,8,0:0:0:0:
173,201,226253,6,0,B|100:222|100:222|93:236|93:236|-12:267,1,168,4|0,1:0|0:0,0:0:0:0:
0,262,226507,1,0,3:0:0:0:
267,337,226635,2,0,P|273:275|288:215,1,112,12|0,0:0|0:0,0:0:0:0:
231,12,226889,5,0,3:0:0:0:
293,102,227016,1,0,3:0:0:0:
132,62,227143,1,8,0:0:0:0:
470,43,227270,6,0,P|406:55|382:172,1,168,4|0,1:0|0:0,0:0:0:0:
379,161,227524,1,0,3:0:0:0:
127,263,227651,2,0,L|107:171,1,56,12|0,0:0|0:0,0:0:0:0:
164,142,227779,5,0,3:0:0:0:
218,133,227842,1,0,3:0:0:0:
267,158,227906,1,0,3:0:0:0:
292,207,227969,1,0,3:0:0:0:
282,262,228033,1,0,3:0:0:0:
307,311,228096,1,0,3:0:0:0:
356,336,228160,6,0,L|478:313,1,112,12|0,3:2|0:0,0:0:0:0:
125,290,228414,6,0,L|115:366,1,41.9999987182618,4|0,1:2|0:0,0:0:0:0:
404,167,228668,6,0,L|417:225,1,41.9999987182618,4|0,1:2|0:0,0:0:0:0:
219,85,228923,6,0,L|215:163,1,41.9999987182618,8|0,1:2|0:0,0:0:0:0:
286,21,229050,6,0,L|294:80,1,41.9999987182618,8|0,1:2|0:0,0:0:0:0:
314,222,229177,1,8,0:2:0:0:
497,164,229304,6,0,B|429:152|429:152|417:158|417:158|314:140,1,168,4|0,1:0|0:0,0:0:0:0:
309,137,229558,1,0,3:0:0:0:
146,321,229685,2,0,P|71:337|11:357,1,112,8|0,0:0|0:0,0:0:0:0:
172,69,229940,5,0,3:0:0:0:
95,34,230067,1,0,3:0:0:0:
134,214,230194,1,8,0:0:0:0:
352,164,230321,6,0,P|382:75|444:10,1,168,4|0,1:0|0:0,0:0:0:0:
445,14,230575,1,0,3:0:0:0:
187,150,230702,2,0,P|109:173|58:177,1,112,8|0,0:0|0:0,0:0:0:0:
263,328,230957,5,0,3:0:0:0:
300,241,231084,1,0,3:0:0:0:
371,307,231211,1,8,0:0:0:0:
485,120,231338,6,0,L|303:87,1,168,4|0,1:0|0:0,0:0:0:0:
303,87,231592,1,0,3:0:0:0:
100,288,231719,2,0,L|215:256,1,112,8|0,0:0|0:0,0:0:0:0:
30,145,231974,5,0,3:2:0:0:
136,40,232101,1,0,3:0:0:0:
181,183,232228,1,12,0:0:0:0:
181,183,232355,1,0,3:0:0:0:
104,149,232482,6,0,L|40:169,1,56,0|0,1:0|0:0,0:0:0:0:
414,225,232736,6,0,L|478:245,1,56,0|0,1:0|0:0,0:0:0:0:
211,280,232990,6,0,L|147:300,1,56,8|0,1:2|0:0,0:0:0:0:
278,331,233118,6,0,L|342:351,1,56,8|0,1:2|0:0,0:0:0:0:
278,331,233372,6,0,P|260:248|322:197,1,168,4|0,1:0|0:0,0:0:0:0:
334,203,233626,1,0,3:0:0:0:
407,373,233753,2,0,P|450:353|520:339,1,112,12|0,0:0|0:0,0:0:0:0:
447,182,234007,5,0,3:0:0:0:
350,284,234135,1,0,3:0:0:0:
258,169,234262,1,8,0:0:0:0:
435,31,234389,6,0,B|457:107|457:107|467:115|467:115|498:217,1,168,4|0,1:0|0:0,0:0:0:0:
496,202,234643,1,0,3:0:0:0:
255,268,234770,2,0,L|273:127,1,112,12|0,0:0|0:0,0:0:0:0:
162,9,235024,5,0,3:0:0:0:
230,80,235151,1,0,3:0:0:0:
51,161,235279,1,8,0:0:0:0:
180,293,235406,6,0,P|106:306|26:364,1,168,4|0,1:0|0:0,0:0:0:0:
23,372,235660,1,0,3:0:0:0:
324,225,235787,2,0,P|366:277|416:303,1,112,12|0,0:0|0:0,0:0:0:0:
152,82,236041,5,4,3:2:0:0:
233,229,236168,1,0,3:0:0:0:
363,116,236296,1,12,0:0:0:0:
363,116,236423,1,0,3:0:0:0:
287,73,236550,6,0,L|278:11,1,56,0|0,1:0|0:0,0:0:0:0:
196,216,236804,6,0,L|205:154,1,56,0|0,1:0|0:0,0:0:0:0:
438,291,237058,6,0,L|429:229,1,56,8|0,1:2|0:0,0:0:0:0:
90,345,237185,6,0,L|99:283,1,56,8|0,1:2|0:0,0:0:0:0:
90,345,237440,6,0,P|36:298|56:177,1,168,4|0,1:0|0:0,0:0:0:0:
47,195,237694,1,0,3:0:0:0:
300,257,237821,2,0,L|325:383,1,112,8|0,0:0|0:0,0:0:0:0:
154,290,238075,5,0,3:0:0:0:
199,131,238202,1,0,3:0:0:0:
359,202,238329,1,8,0:0:0:0:
192,118,238457,6,0,B|117:107|117:107|92:112|92:112|11:98,1,168,4|0,1:0|0:0,0:0:0:0:
7,95,238711,1,0,3:0:0:0:
307,23,238838,2,0,L|434:3,1,112,8|0,0:0|0:0,0:0:0:0:
486,217,239092,5,0,3:0:0:0:
282,104,239219,1,0,3:0:0:0:
244,323,239346,1,8,0:0:0:0:
244,323,239474,1,0,3:0:0:0:
314,360,239601,6,0,L|372:346,1,56,4|0,3:2|0:0,0:0:0:0:
107,194,239855,2,0,L|49:180,1,56,0|0,3:0|0:0,0:0:0:0:
142,265,240109,5,12,3:2:0:0:
383,192,240236,2,0,L|394:126,1,56,0|0,3:0|0:0,0:0:0:0:
329,20,240490,6,0,L|338:78,1,56,0|4,3:0|0:0,0:0:0:0:
21,59,240745,2,0,L|12:117,1,56,0|0,3:0|0:0,0:0:0:0:
97,28,240999,5,0,3:0:0:0:
236,233,241126,2,0,L|247:308,1,56,12|0,3:2|0:0,0:0:0:0:
315,339,241380,6,0,L|325:263,1,56,0|0,3:0|0:0,0:0:0:0:
60,379,241635,2,0,L|50:303,1,56,4|0,3:2|0:0,0:0:0:0:
117,267,241889,5,0,3:0:0:0:
400,328,242016,2,0,L|468:348,1,56,0|12,3:0|0:0,0:0:0:0:
512,255,242270,6,0,L|446:263,1,56,0|0,3:0|0:0,0:0:0:0:
453,54,242524,2,0,L|387:46,1,56,0|4,3:0|0:2,0:0:0:0:
496,129,242779,5,0,3:0:0:0:
261,14,242906,2,0,L|273:85,1,56,0|0,3:0|0:0,0:0:0:0:
320,171,243160,6,0,L|331:103,1,56,12|0,3:2|0:0,0:0:0:0:
28,233,243414,2,0,L|17:165,1,56,0|0,3:0|0:0,0:0:0:0:
104,266,243668,5,4,3:2:0:0:
124,38,243796,2,0,L|194:27,1,56,0|0,3:0|0:0,0:0:0:0:
210,103,244050,6,0,L|280:114,1,56,0|12,3:0|0:2,0:0:0:0:
124,369,244304,2,0,L|194:358,1,56,0|0,3:0|0:0,0:0:0:0:
225,295,244558,5,0,3:0:0:0:
416,371,244685,2,0,L|428:300,1,56,4|0,3:2|0:0,0:0:0:0:
342,237,244940,6,0,L|351:302,1,56,0|0,3:0|0:0,0:0:0:0:
57,151,245194,2,0,L|48:216,1,56,12|0,3:2|0:0,0:0:0:0:
136,104,245448,5,0,3:0:0:0:
379,20,245575,2,0,L|302:8,1,56,0|4,3:0|0:0,0:0:0:0:
431,95,245829,6,0,L|441:162,1,56,0|0,3:0|0:0,0:0:0:0:
144,263,246084,2,0,L|134:330,1,56,0|12,3:0|0:2,0:0:0:0:
100,192,246338,5,0,3:0:0:0:
366,382,246465,2,0,L|356:310,1,56,0|0,3:0|0:0,0:0:0:0:
419,273,246719,5,0,3:0:0:0:
271,97,246846,1,0,3:0:0:0:
358,103,246974,6,0,P|290:126|98:234,1,280,4|0,3:1|0:0,0:0:0:0:
170,123,248499,5,0,3:0:0:0:
115,348,248626,1,0,3:0:0:0:
184,303,248753,5,8,3:2:0:0:
184,303,249007,1,8,3:2:0:0:
184,303,249262,5,0,3:0:0:0:
488,365,249389,2,0,P|465:219|424:78,1,294,4|0,3:1|0:0,0:0:0:0:
285,183,252313,5,8,1:2:0:0:
446,235,252440,1,8,1:2:0:0:
348,127,252567,5,8,1:2:0:0:
125,232,252694,1,8,1:2:0:0:
279,344,252821,6,0,L|268:254,1,70,4|0,1:0|0:0,0:0:0:0:
67,98,253838,6,0,B|135:103|105:128|182:129,1,112,8|0,0:0|0:0,0:0:0:0:
427,55,254855,5,0,3:0:0:0:
427,55,255364,1,0,0:0:0:0:
427,55,255872,2,0,P|412:95|399:172,1,112,8|0,0:0|0:0,0:0:0:0:
435,239,256635,1,0,0:0:0:0:
290,348,256889,5,0,3:0:0:0:
290,348,257398,1,0,0:0:0:0:
290,348,257906,2,0,P|241:316|189:298,1,112,8|0,0:0|0:0,0:0:0:0:
109,312,258669,1,0,0:0:0:0:
55,250,258923,5,0,3:0:0:0:
32,353,259177,1,0,0:0:0:0:
173,217,259432,5,0,0:0:0:0:
204,379,259686,1,0,0:0:0:0:
109,312,259940,6,0,L|166:303,1,56,10|2,0:0|0:0,0:0:0:0:
264,285,260449,1,2,0:0:0:0:
402,62,260703,2,0,L|370:55,1,28,10|0,0:0|0:0,0:0:0:0:
296,36,260957,5,0,3:0:0:0:
349,140,261211,1,0,0:0:0:0:
402,244,261466,1,0,0:0:0:0:
402,244,261974,5,8,0:0:0:0:
168,212,262228,1,0,0:0:0:0:
444,316,262483,5,0,0:0:0:0:
129,355,262737,1,0,3:0:0:0:
273,208,262991,6,0,P|264:181|228:103,1,112,0|0,3:0|3:0,0:0:0:0:
154,93,263754,1,0,0:0:0:0:
95,148,264008,5,8,0:0:0:0:
271,175,264262,1,0,0:0:0:0:
52,305,264516,5,0,0:0:0:0:
318,248,264771,1,0,0:0:0:0:
202,378,265025,6,0,P|211:333|215:258,1,112,4|0,3:2|0:0,0:0:0:0:
194,183,265788,1,0,0:0:0:0:
391,264,266042,5,8,0:0:0:0:
417,95,266296,1,0,0:0:0:0:
316,305,266550,5,0,0:0:0:0:
254,55,266805,1,0,0:0:0:0:
62,251,267059,5,0,3:0:0:0:
212,182,267313,2,0,P|250:190|297:206,1,83.9999974365235,8|0,0:0|0:0,0:0:0:0:
119,29,267822,5,0,3:0:0:0:
379,154,268076,1,10,0:0:0:0:
364,232,268330,1,2,0:0:0:0:
286,219,268584,1,2,0:0:0:0:
301,140,268838,1,2,0:0:0:0:
446,333,269093,6,0,P|450:286|484:165,1,167.999994873047,4|0,3:0|0:0,0:0:0:0:
286,22,270110,6,0,P|296:50|307:110,1,83.9999974365235,8|0,0:0|0:0,0:0:0:0:
227,117,270618,2,0,P|217:153|209:250,1,125.999996154785
284,285,271127,5,0,3:0:0:0:
76,229,271381,1,0,0:0:0:0:
343,122,271635,5,0,3:0:0:0:
26,162,271889,1,0,0:0:0:0:
209,23,272144,6,0,P|224:57|236:112,1,83.9999974365235,8|0,0:0|0:0,0:0:0:0:
141,222,272652,2,0,P|146:267|143:324,1,83.9999974365235
88,152,273160,5,0,3:0:0:0:
47,349,273415,1,0,0:0:0:0:
196,97,273669,5,0,3:0:0:0:
290,383,273923,1,0,0:0:0:0:
471,224,274177,6,0,P|428:211|351:148,1,125.999996154785,8|0,0:0|0:0,0:0:0:0:
342,85,274686,1,0,0:0:0:0:
129,42,274940,2,0,L|122:101,1,41.9999987182618,0|0,3:0|0:0,0:0:0:0:
108,166,275194,6,0,P|125:210|136:253,1,83.9999974365235,0|0,3:0|0:0,0:0:0:0:
30,147,275703,5,0,0:0:0:0:
214,252,275957,2,0,L|270:246,1,41.9999987182618,0|0,3:0|0:0,0:0:0:0:
119,362,276211,5,10,0:0:0:0:
41,348,276466,1,2,0:0:0:0:
55,268,276720,1,2,0:0:0:0:
133,282,276974,1,2,0:0:0:0:
248,12,277228,6,0,P|187:37|76:62,1,167.999994873047,4|0,3:2|0:0,0:0:0:0:
444,207,278245,2,0,P|452:164|471:111,1,83.9999974365235,8|0,0:0|0:0,0:0:0:0:
366,239,278754,1,0,0:0:0:0:
482,350,279008,1,0,0:0:0:0:
85,267,279262,5,0,3:0:0:0:
85,267,279771,1,0,3:0:0:0:
85,267,280279,2,0,P|135:287|172:312,1,83.9999974365235,8|0,0:0|0:0,0:0:0:0:
0,202,280788,2,0,P|48:188|94:185,1,83.9999974365235
290,41,281296,6,0,P|255:97|220:208,1,167.999994873047,0|0,3:0|0:0,0:0:0:0:
463,352,282313,2,0,P|452:321|423:271,1,83.9999974365235,8|0,0:0|0:0,0:0:0:0:
480,215,282822,1,0,0:0:0:0:
359,72,283076,1,0,0:0:0:0:
282,296,283330,6,0,L|184:316,1,83.9999974365235,0|0,3:0|0:0,0:0:0:0:
365,331,283838,1,0,0:0:0:0:
253,181,284093,1,0,3:0:0:0:
511,103,284347,5,2,3:0:0:0:
491,29,284601,1,2,0:0:0:0:
414,48,284855,5,2,0:0:0:0:
434,122,285110,1,2,0:0:0:0:
110,347,285364,6,0,P|107:298|138:168,1,167.999994873047,4|0,3:2|0:0,0:0:0:0:
0,22,286381,2,0,P|15:46|66:88,1,83.9999974365235,8|0,0:0|0:0,0:0:0:0:
139,54,286889,1,0,0:0:0:0:
215,282,287144,1,0,3:0:0:0:
380,35,287398,5,0,3:0:0:0:
380,35,287906,1,0,3:0:0:0:
380,35,288415,5,10,0:0:0:0:
393,204,288669,2,0,P|367:233|342:285,1,83.9999974365235,2|0,0:0|0:0,0:0:0:0:
476,194,289177,5,2,0:0:0:0:
329,349,289432,2,0,P|263:339|240:238,2,167.999994873047,2|0|8,3:2|3:0|0:0,0:0:0:0:
383,279,290703,5,0,0:0:0:0:
192,172,290957,1,0,0:0:0:0:
70,351,291211,1,0,0:0:0:0:
245,238,291466,6,0,P|236:183|185:68,1,167.999994873047,4|0,3:2|0:0,0:0:0:0:
109,71,292228,5,2,3:2:0:0:
312,293,292483,2,0,P|326:252|326:201,1,83.9999974365235,10|2,0:0|0:0,0:0:0:0:
96,210,292991,6,0,L|2:198,1,83.9999974365235
259,366,293499,6,0,P|311:344|428:317,1,167.999994873047,4|0,3:2|0:0,0:0:0:0:
347,75,294516,2,0,P|366:113|406:153,1,83.9999974365235,8|0,0:0|0:0,0:0:0:0:
412,21,295025,1,0,0:0:0:0:
207,53,295279,1,0,0:0:0:0:
317,269,295533,6,0,P|263:247|143:241,1,167.999994873047,0|0,3:0|0:0,0:0:0:0:
79,286,296296,1,0,3:0:0:0:
84,40,296550,5,8,0:0:0:0:
224,133,296805,2,0,P|234:175|245:225,1,83.9999974365235,0|0,3:0|0:0,0:0:0:0:
289,66,297313,5,0,3:0:0:0:
57,179,297567,2,0,P|49:222|36:345,1,167.999994873047,0|0,3:0|0:0,0:0:0:0:
444,104,298584,5,8,0:0:0:0:
189,183,298838,1,0,0:0:0:0:
497,326,299093,5,0,0:0:0:0:
282,258,299346,2,0,P|292:276|299:296,1,41.9999987182618
350,372,299601,6,0,P|380:325|477:243,1,167.999994873047,0|0,3:0|0:0,0:0:0:0:
291,309,300364,1,0,0:0:0:0:
401,110,300618,2,0,P|407:150|411:207,1,83.9999974365235,8|0,0:0|0:0,0:0:0:0:
478,330,301127,2,0,P|445:293|368:275,1,125.999996154785
304,340,301635,6,0,P|286:293|256:164,1,167.999994873047,4|0,3:2|0:0,0:0:0:0:
209,31,302652,5,8,0:0:0:0:
177,247,302906,1,0,0:0:0:0:
291,14,303160,5,0,0:0:0:0:
367,291,303415,1,0,3:0:0:0:
181,101,303669,6,0,P|140:111|92:137,1,83.9999974365235,0|0,3:0|0:0,0:0:0:0:
353,198,304177,2,0,P|380:210|442:218,1,83.9999974365235,0|0,3:0|0:0,0:0:0:0:
318,121,304686,5,10,0:0:0:0:
187,270,304940,2,0,P|193:233|213:183,1,83.9999974365235,2|0,0:0|0:0,0:0:0:0:
114,309,305449,5,2,0:0:0:0:
368,384,305703,2,0,P|362:344|311:211,2,167.999994873047,2|0|8,3:2|3:0|0:0,0:0:0:0:
79,61,307228,5,0,0:0:0:0:
79,61,307483,2,0,P|107:46|131:40,1,41.9999987182618
36,131,307737,6,0,P|78:140|187:213,1,167.999994873047,0|0,3:0|0:0,0:0:0:0:
261,195,308499,5,0,3:0:0:0:
450,253,308754,2,0,P|405:270|357:266,1,83.9999974365235,8|0,0:0|0:0,0:0:0:0:
180,305,309262,6,0,P|195:281|211:264,1,41.9999987182618
382,146,309516,2,0,P|367:170|351:187,1,41.9999987182618,8|0,0:0|0:0,0:0:0:0:
284,337,309771,6,0,P|279:278|282:164,1,167.999994873047,0|0,3:0|3:0,0:0:0:0:
210,131,310533,1,0,0:0:0:0:
394,22,310788,6,0,P|402:55|403:114,1,83.9999974365235,8|0,0:0|0:0,0:0:0:0:
504,283,311296,1,2,0:0:0:0:
148,211,311550,1,0,0:0:0:0:
171,300,311805,5,0,3:0:0:0:
54,135,312059,2,0,P|85:151|100:168,1,41.9999987182618
297,191,312313,2,0,P|270:214|211:237,1,83.9999974365235
476,83,312821,6,0,P|458:123|431:258,1,167.999994873047,8|0,0:0|0:0,0:0:0:0:
269,115,313584,2,0,P|258:90|237:67,1,41.9999987182618
51,134,313838,6,0,P|95:155|221:179,1,167.999994873047,0|0,3:0|3:0,0:0:0:0:
306,372,314855,2,0,P|349:333|462:297,1,167.999994873047,8|0,0:0|0:0,0:0:0:0:
512,360,315618,1,0,0:0:0:0:
237,339,315872,6,0,P|155:317|71:285,1,167.999994873047,0|0,3:0|0:0,0:0:0:0:
11,338,316635,1,0,3:0:0:0:
245,28,316889,5,8,0:0:0:0:
261,187,317398,1,0,3:0:0:0:
277,346,317906,1,4,1:0:0:0:
256,192,321974,5,0,1:0:0:0:
246,228,325915,5,0,1:0:0:0:
217,58,326042,2,0,L|191:187,1,105.000004005432,4|0,1:2|0:0,0:0:0:0:
325,261,326298,5,0,3:0:0:0:
47,232,326425,2,0,P|45:127|157:109,1,210,12|0,3:2|0:0,0:0:0:0:
197,161,326679,5,0,3:0:0:0:
20,313,326806,1,0,3:0:0:0:
49,79,326933,1,8,3:2:0:0:
211,241,327060,6,0,B|264:258|264:258|325:208|420:237,1,210,4|0,3:2|0:0,0:0:0:0:
467,294,327315,5,0,3:0:0:0:
460,91,327442,2,0,P|365:100|311:215,1,210,12|0,3:2|0:0,0:0:0:0:
330,273,327696,5,0,3:0:0:0:
508,165,327823,1,0,3:0:0:0:
332,77,327950,1,8,3:2:0:0:
392,216,328077,6,0,B|278:200|326:302|194:290,1,210,4|0,3:2|0:0,0:0:0:0:
135,255,328332,5,0,3:0:0:0:
208,6,328459,2,0,P|244:83|274:218,1,210,12|0,3:2|0:0,0:0:0:0:
330,273,328713,5,0,3:0:0:0:
78,167,328840,1,0,3:0:0:0:
280,361,328967,1,8,3:2:0:0:
17,364,329094,6,0,P|27:279|155:269,1,210,4|0,3:2|0:0,0:0:0:0:
172,326,329348,5,0,3:0:0:0:
372,381,329476,2,0,P|396:315|430:254,1,140,12|0,3:2|0:0,0:0:0:0:
505,51,329730,5,2,0:0:0:0:
464,39,329793,1,0,0:0:0:0:
423,43,329857,1,2,0:0:0:0:
386,62,329921,1,0,0:0:0:0:
359,94,329984,1,10,0:0:0:0:
346,134,330048,1,0,0:0:0:0:
349,176,330111,2,0,P|379:193|452:195,1,70,2|0,0:0|0:0,0:0:0:0:
245,12,330238,6,0,P|265:85|272:179,1,140,0|0,3:0|0:0,0:0:0:0:
3,257,330493,2,0,P|11:187|29:120,1,140,8|0,3:2|0:0,0:0:0:0:
309,241,330747,1,0,3:0:0:0:
169,291,330874,6,0,P|191:264|222:247,1,70,2|0,0:0|0:0,0:0:0:0:
422,337,331001,2,0,P|387:330|357:312,1,70,10|0,0:0|0:0,0:0:0:0:
335,94,331128,2,0,P|346:126|345:161,1,70,2|0,0:0|0:0,0:0:0:0:
309,241,331255,5,0,3:0:0:0:
152,193,331382,1,0,3:0:0:0:
269,323,331509,1,8,3:2:0:0:
224,141,331637,1,0,3:0:0:0:
89,245,331764,5,0,3:0:0:0:
278,340,331891,1,0,3:0:0:0:
237,128,332018,1,8,3:2:0:0:
130,319,332145,1,0,3:0:0:0:
365,179,332272,5,0,3:0:0:0:
111,77,332399,1,0,3:0:0:0:
154,342,332526,1,8,3:2:0:0:
310,57,332654,6,0,P|444:58|441:218,1,280,4|0,3:2|0:0,0:0:0:0:
224,298,333035,2,0,L|207:159,1,140,8|0,3:2|0:0,0:0:0:0:
53,347,333289,5,0,3:0:0:0:
300,189,333416,1,0,3:0:0:0:
142,0,333543,2,0,L|111:295,1,280,8|0,3:2|0:0,0:0:0:0:
24,190,333925,6,0,L|36:275,1,70,8|0,3:2|0:0,0:0:0:0:
203,361,334052,2,0,L|191:276,1,70,8|0,3:2|0:0,0:0:0:0:
277,110,334179,6,0,P|402:113|437:239,1,210,4|0,1:0|0:0,0:0:0:0:
403,245,334433,1,0,3:0:0:0:
201,178,334560,2,0,L|184:-12,1,140,8|0,0:0|0:0,0:0:0:0:
356,61,334815,5,0,3:0:0:0:
159,251,334942,1,0,3:0:0:0:
356,61,335069,2,0,L|364:150,1,70,8|0,0:0|0:0,0:0:0:0:
475,219,335196,5,4,1:0:0:0:
457,219,335259,1,0,0:0:0:0:
437,219,335323,1,2,0:0:0:0:
416,218,335387,1,0,0:0:0:0:
392,216,335450,1,2,0:0:0:0:
366,212,335514,1,0,0:0:0:0:
338,208,335577,1,10,0:0:0:0:
308,201,335641,1,0,0:0:0:0:
275,191,335704,1,2,0:0:0:0:
240,179,335768,1,0,0:0:0:0:
202,163,335832,1,2,0:0:0:0:
162,142,335895,1,0,0:0:0:0:
120,116,335959,1,2,0:0:0:0:
76,83,336022,1,0,0:0:0:0:
26,40,336086,2,0,L|42:134,1,70,10|0,0:0|0:0,0:0:0:0:
256,280,336213,6,0,P|301:202|210:42,1,280,4|0,1:0|0:0,0:0:0:0:
45,224,336594,6,0,P|123:230|218:225,1,140,8|0,0:0|0:0,0:0:0:0:
449,349,336848,2,0,P|370:342|276:348,1,140,0|0,3:0|0:0,0:0:0:0:
438,264,337103,5,8,0:0:0:0:
232,384,337230,1,0,3:0:0:0:
186,153,337357,2,0,P|291:168|335:289,1,210,0|0,3:0|0:0,0:0:0:0:
336,267,337611,5,8,0:0:0:0:
317,73,337738,1,0,3:0:0:0:
512,153,337865,2,0,L|356:131,1,140,0|0,3:0|0:0,0:0:0:0:
108,193,338120,5,10,0:0:0:0:
108,193,338183,1,2,0:0:0:0:
108,193,338247,1,2,0:0:0:0:
108,193,338310,1,2,0:0:0:0:
108,193,338374,2,0,P|96:163|115:49,1,140,2|0,3:2|0:0,0:0:0:0:
417,29,338628,5,10,0:0:0:0:
417,29,338692,1,2,0:0:0:0:
417,29,338755,1,2,0:0:0:0:
417,29,338819,1,2,0:0:0:0:
417,29,338882,2,0,P|429:59|410:173,1,140,2|0,3:2|0:0,0:0:0:0:
224,132,339137,6,0,L|305:113,3,70,8|0|0|0,3:2|0:0|0:0|0:0,0:0:0:0:
161,83,339391,2,0,L|182:-8,1,70,2|0,0:0|0:0,0:0:0:0:
351,171,339518,2,0,L|330:262,1,70,2|0,0:0|0:0,0:0:0:0:
172,196,339645,5,10,0:0:0:0:
172,196,339709,1,0,0:0:0:0:
172,196,339772,2,0,L|90:214,1,70,6|0,0:0|0:0,0:0:0:0:
345,57,339899,5,2,0:0:0:0:
345,57,339963,1,0,0:0:0:0:
345,57,340026,2,0,L|427:39,1,70,6|0,0:0|0:0,0:0:0:0:
286,323,340154,5,10,0:0:0:0:
286,323,340217,1,0,0:0:0:0:
286,323,340281,2,0,P|288:220|174:65,1,280,6|0,3:2|0:0,0:0:0:0:
24,259,340662,6,2,L|6:114,2,93.3333333333333,10|0|0,0:0|0:0|0:0,0:0:0:0:
97,194,340916,6,2,L|115:339,2,93.3333333333333,2|0|0,3:2|0:0|0:0,0:0:0:0:
183,245,341171,6,2,L|165:100,2,93.3333333333333,10|0|0,0:0|0:0|0:0,0:0:0:0:
239,97,341425,5,2,3:2:0:0:
268,19,341509,5,0,0:0:0:0:
351,23,341594,5,0,0:0:0:0:
374,105,341679,5,10,0:0:0:0:
303,151,341764,5,0,0:0:0:0:
326,233,341848,5,0,0:0:0:0:
409,237,341933,5,2,3:2:0:0:
438,159,342018,5,0,0:0:0:0:
374,105,342103,5,0,0:0:0:0:
403,27,342187,5,10,0:0:0:0:
486,31,342272,5,0,0:0:0:0:
509,113,342357,5,0,0:0:0:0:
438,159,342442,6,2,L|308:136,2,93.3333333333333,2|0|0,3:2|0:0|0:0,0:0:0:0:
371,227,342696,6,2,L|501:250,2,93.3333333333333,10|0|0,0:0|0:0|0:0,0:0:0:0:
412,317,342950,6,2,L|282:294,2,93.3333333333333,2|0|0,3:2|0:0|0:0,0:0:0:0:
267,363,343204,5,10,0:0:0:0:
185,372,343289,5,0,0:0:0:0:
117,325,343374,5,0,0:0:0:0:
98,245,343459,6,0,L|135:27,1,210,0|0,3:0|0:0,0:0:0:0:
50,55,343713,2,0,L|22:221,1,140,8|0,0:0|0:0,0:0:0:0:
210,5,343967,5,8,3:2:0:0:
241,192,344094,1,8,3:2:0:0:
272,379,344221,1,8,3:2:0:0:
386,147,344348,6,0,L|287:135,1,83.9999974365235,4|0,3:2|0:0,0:0:0:0:
288,258,344603,1,0,3:0:0:0:
157,181,344730,2,0,L|256:193,1,83.9999974365235,8|0,0:0|0:0,0:0:0:0:
453,47,344984,6,0,L|315:70,1,112,4|0,3:2|0:0,0:0:0:0:
133,259,345238,1,8,0:0:0:0:
40,74,345365,6,0,P|121:31|283:142,1,280,4|0,3:2|0:0,0:0:0:0:
496,264,345747,2,0,P|391:281|257:325,1,210,8|0,0:0|0:0,0:0:0:0:
219,352,346001,5,0,3:0:0:0:
356,372,346128,1,0,3:0:0:0:
305,231,346255,1,8,0:0:0:0:
291,310,346382,6,0,P|287:240|274:171,1,140,4|0,3:2|0:0,0:0:0:0:
24,197,346637,1,0,3:0:0:0:
24,197,346764,2,0,P|27:266|40:335,1,140,12|0,3:2|0:0,0:0:0:0:
308,94,347018,5,0,3:0:0:0:
106,231,347145,1,0,3:0:0:0:
305,16,347272,5,8,3:2:0:0:
418,218,347399,1,0,3:0:0:0:
189,304,347526,6,0,L|178:218,1,52.5000020027161,8|0,1:2|0:0,0:0:0:0:
308,94,347781,6,0,L|295:179,1,52.5000020027161,8|0,1:2|0:0,1:0:0:0:
418,218,348035,6,0,L|407:147,1,52.5000020027161,8|0,1:2|0:0,0:0:0:0:
500,121,348162,6,0,L|492:198,1,52.5000020027161,8|0,1:2|0:0,0:0:0:0:
500,121,348416,6,0,P|437:68|329:83,1,140,4|0,1:0|0:0,0:0:0:0:
243,226,348671,1,0,3:0:0:0:
222,50,348798,1,12,0:0:0:0:
293,162,348925,6,0,L|309:84,1,70,0|0,3:0|0:0,0:0:0:0:
230,62,349052,2,0,L|214:140,1,70,4|0,3:2|0:0,0:0:0:0:
366,282,349179,6,0,L|349:187,1,70,0|0,3:0|0:0,0:0:0:0:
153,180,349306,2,0,L|170:275,1,70,12|0,0:2|0:0,0:0:0:0:
226,375,349433,5,0,3:0:0:0:
308,168,349560,1,4,3:2:0:0:
97,112,349687,5,0,3:0:0:0:
243,226,349815,1,12,3:2:0:0:
381,44,349942,5,2,3:2:0:0:
193,16,350069,1,2,3:2:0:0:
165,204,350196,1,2,3:2:0:0:
353,232,350323,1,10,3:2:0:0:
271,48,350450,6,0,L|37:79,1,210,4|0,1:0|0:0,0:0:0:0:
47,78,350704,1,0,3:0:0:0:
361,98,350832,6,0,P|373:181|342:245,1,140,12|0,0:0|0:0,0:0:0:0:
38,211,351086,2,0,P|26:128|57:64,1,140,4|0,0:0|0:0,0:0:0:0:
192,0,351340,2,0,L|166:168,1,140,8|0,0:0|0:0,0:0:0:0:
298,300,351594,5,8,3:2:0:0:
298,300,351658,1,8,3:2:0:0:
298,300,351721,1,8,3:2:0:0:
278,204,351848,1,8,3:2:0:0:
258,108,351976,1,8,3:2:0:0:
215,262,352103,6,0,L|141:250,1,52.5000020027161,8|0,1:2|0:0,0:0:0:0:
338,142,352230,6,0,L|412:130,1,52.5000020027161,8|0,1:2|0:0,0:0:0:0:
338,142,352484,6,0,P|327:101|327:59,1,83.9999974365235,4|0,1:0|0:0,0:0:0:0:
405,196,352738,1,0,3:0:0:0:
278,204,352865,2,0,P|288:244|288:286,1,83.9999974365235,8|0,0:0|0:0,0:0:0:0:
416,0,353120,6,0,L|408:155,1,112,4|0,3:2|0:0,0:0:0:0:
209,373,353374,2,0,L|217:218,1,112,8|0,0:0|0:0,0:0:0:0:
101,157,353628,6,0,P|177:134|237:84,1,140,4|0,3:2|0:0,0:0:0:0:
411,227,353882,2,0,P|335:250|275:300,1,140,8|0,0:0|0:0,0:0:0:0:
0,231,354137,6,0,L|169:244,1,140,4|0,3:2|0:0,0:0:0:0:
209,373,354391,1,8,0:0:0:0:
512,153,354518,6,0,L|287:133,1,210,4|0,1:0|0:0,0:0:0:0:
226,124,354772,1,0,3:0:0:0:
117,16,354899,6,0,P|141:95|147:192,1,140,12|0,0:0|0:0,0:0:0:0:
333,270,355154,2,0,P|309:191|303:94,1,140,4|0,0:0|0:0,0:0:0:0:
56,332,355408,2,0,L|70:175,1,140,12|0,0:0|0:0,0:0:0:0:
178,360,355662,6,0,L|103:377,1,52.5000020027161,0|0,1:0|0:0,0:0:0:0:
333,270,355916,6,0,L|408:287,1,52.5000020027161,0|0,1:0|0:0,0:0:0:0:
226,124,356171,6,0,L|151:141,1,52.5000020027161,8|0,1:2|0:0,0:0:0:0:
268,55,356298,6,0,L|343:72,1,52.5000020027161,8|0,1:2|0:0,0:0:0:0:
268,55,356552,6,0,L|286:218,1,140,4|0,1:0|0:0,0:0:0:0:
359,383,356806,1,0,3:0:0:0:
188,242,356933,1,12,0:0:0:0:
352,239,357060,6,0,L|337:307,1,70,0|0,3:0|0:0,0:0:0:0:
248,340,357187,2,0,L|262:271,1,70,4|0,3:2|0:0,0:0:0:0:
351,77,357315,6,0,L|362:146,1,70,0|0,3:0|0:0,0:0:0:0:
188,242,357442,2,0,L|176:172,1,70,12|0,3:2|0:0,0:0:0:0:
422,317,357569,5,0,3:0:0:0:
287,190,357696,1,4,3:2:0:0:
502,71,357823,5,0,3:0:0:0:
352,239,357950,2,0,L|178:210,1,140,8|0,3:2|0:0,0:0:0:0:
16,110,358204,6,0,P|64:55|137:51,1,140,0|0,3:0|0:0,0:0:0:0:
308,149,358459,1,8,0:0:0:0:
16,110,358586,6,0,L|243:140,1,210,4|0,3:2|0:0,0:0:0:0:
308,149,358840,1,0,3:0:0:0:
125,212,358967,6,0,P|81:226|-16:283,1,140,12|0,0:0|0:0,0:0:0:0:
387,172,359221,2,0,P|431:158|528:101,1,140,4|0,0:0|0:0,0:0:0:0:
277,356,359476,2,0,L|255:197,1,140,12|0,0:0|0:0,0:0:0:0:
163,132,359730,6,2,L|175:45,1,84,2|0,0:0|0:0,0:1:0:0:
100,3,360620,6,0,L|72:196,1,167.999994873047,4|0,1:0|3:0,0:0:0:0:
9,284,361001,2,0,L|-2:191,1,83.9999974365235,8|0,0:0|0:0,0:0:0:0:
84,321,361255,5,0,3:0:0:0:
84,321,361382,1,0,3:0:0:0:
246,189,361509,2,0,L|259:288,1,83.9999974365235,8|0,0:0|0:0,0:0:0:0:
322,346,361764,5,0,3:0:0:0:
322,346,361891,1,0,3:0:0:0:
123,243,362018,5,8,0:0:0:0:
170,384,362145,2,0,L|189:264,1,83.9999974365235,0|0,3:0|0:0,0:0:0:0:
408,217,362399,2,0,L|389:337,1,83.9999974365235,0|0,3:0|0:0,0:0:0:0:
263,287,362654,6,0,L|245:113,1,167.999994873047,0|0,3:0|0:0,0:0:0:0:
452,70,363035,2,0,L|465:174,1,83.9999974365235,8|0,0:0|0:0,0:0:0:0:
306,62,363289,5,0,3:0:0:0:
306,62,363416,1,0,3:0:0:0:
367,198,363543,2,0,L|378:93,1,83.9999974365235,8|0,0:0|0:0,0:0:0:0:
208,17,363798,6,0,L|226:119,1,83.9999974365235,0|0,3:0|0:0,0:0:0:0:
240,182,364052,1,8,0:0:0:0:
240,182,364179,1,0,3:0:0:0:
64,191,364306,6,0,L|77:83,1,83.9999974365235,0|0,3:0|0:0,0:0:0:0:
133,245,364560,1,8,0:0:0:0:
312,132,364687,6,0,L|141:164,1,167.999994873047,0|0,3:0|3:0,0:0:0:0:
370,199,365069,2,0,L|473:218,1,83.9999974365235,8|0,0:0|0:0,0:0:0:0:
368,68,365323,5,0,3:0:0:0:
368,68,365450,1,0,3:0:0:0:
304,252,365577,5,8,0:0:0:0:
229,108,365704,2,0,L|108:131,1,83.9999974365235,0|0,3:0|0:0,0:0:0:0:
52,272,365959,5,0,3:0:0:0:
81,196,366086,2,0,L|180:206,1,83.9999974365235,8|0,0:0|0:0,0:0:0:0:
18,141,366340,5,0,3:0:0:0:
18,141,366467,1,0,3:0:0:0:
215,274,366594,1,8,0:0:0:0:
215,274,366721,1,0,3:0:0:0:
239,24,366848,6,0,L|225:140,1,83.9999974365235,0|0,3:0|0:0,0:0:0:0:
290,228,367103,2,0,L|304:112,1,83.9999974365235,8|0,0:0|0:0,0:0:0:0:
151,139,367357,6,0,P|157:180|154:222,1,83.9999974365235,0|0,3:0|0:0,0:0:0:0:
361,357,367611,2,0,P|354:315|357:273,1,83.9999974365235,8|0,0:0|0:0,0:0:0:0:
64,303,367865,6,0,P|133:259|214:273,1,167.999994873047,4|0,1:0|0:0,0:0:0:0:
504,302,368247,6,0,L|404:317,1,70,4|0,0:0|0:0,0:0:0:0:
271,335,368374,1,0,3:0:0:0:
369,270,368501,6,0,L|342:358,1,70,4|0,0:0|0:0,0:0:0:0:
302,192,368628,1,8,0:0:0:0:
366,75,368755,6,0,L|383:155,1,70,4|0,0:0|0:0,0:0:0:0:
302,192,368882,5,0,1:0:0:0:
338,213,368946,1,0,0:0:0:0:
379,223,369009,1,0,0:0:0:0:
421,222,369073,1,0,0:0:0:0:
461,210,369137,1,8,0:0:0:0:
493,183,369200,1,0,0:0:0:0:
509,145,369264,1,0,0:0:0:0:
504,104,369327,1,0,0:0:0:0:
480,70,369391,1,0,1:0:0:0:
443,51,369454,1,0,0:0:0:0:
402,53,369518,1,0,0:0:0:0:
366,75,369582,1,0,0:0:0:0:
345,109,369645,2,0,P|344:144|353:178,3,70,8|0|0|0,0:0|0:0|0:0|0:0,0:0:0:0:
325,252,369899,5,0,1:0:0:0:
306,297,369963,1,0,0:0:0:0:
273,332,370026,1,0,0:0:0:0:
230,355,370090,1,0,0:0:0:0:
181,360,370154,1,8,0:0:0:0:
134,349,370217,1,0,0:0:0:0:
93,322,370281,1,0,0:0:0:0:
65,282,370344,1,0,0:0:0:0:
52,235,370408,1,0,1:0:0:0:
57,186,370471,1,0,0:0:0:0:
77,142,370535,1,0,0:0:0:0:
112,108,370598,1,0,0:0:0:0:
157,89,370662,2,0,P|202:92|263:123,3,70,8|0|0|0,0:0|0:0|0:0|0:0,0:0:0:0:
264,173,370916,5,0,1:0:0:0:
299,215,370980,1,0,0:0:0:0:
351,233,371043,1,0,0:0:0:0:
405,222,371107,1,0,0:0:0:0:
446,184,371170,1,8,0:0:0:0:
462,131,371234,1,0,0:0:0:0:
448,78,371298,1,0,0:0:0:0:
409,39,371361,1,0,0:0:0:0:
355,26,371425,1,0,1:0:0:0:
300,18,371488,1,0,0:0:0:0:
244,22,371552,1,0,0:0:0:0:
190,37,371615,1,0,0:0:0:0:
140,62,371679,1,8,0:0:0:0:
96,97,371743,1,0,0:0:0:0:
60,139,371806,1,0,0:0:0:0:
33,188,371870,1,0,0:0:0:0:
15,241,371933,6,0,P|42:264|64:291,1,70,2|0,1:2|0:0,0:0:0:0:
146,353,372060,2,0,P|149:318|145:283,1,70,2|0,0:0|0:0,0:0:0:0:
167,149,372187,2,0,P|184:179|196:212,1,70,10|0,0:0|0:0,0:0:0:0:
278,248,372315,2,0,P|280:213|276:178,1,70,2|0,0:0|0:0,0:0:0:0:
340,129,372442,6,0,P|435:135|500:217,1,140,2|0,1:2|0:0,0:0:0:0:
410,352,372696,2,0,P|396:299|399:243,3,70,8|0|0|0,0:0|0:0|0:0|0:0,0:0:0:0:
355,217,372950,5,0,1:0:0:0:
369,195,373014,1,0,0:0:0:0:
376,167,373077,1,0,0:0:0:0:
372,133,373141,1,0,0:0:0:0:
352,101,373204,1,8,0:0:0:0:
315,80,373268,1,0,0:0:0:0:
266,81,373332,1,0,0:0:0:0:
223,116,373395,1,0,0:0:0:0:
212,178,373459,5,2,1:2:0:0:
160,224,373522,1,2,0:2:0:0:
92,231,373586,1,2,0:2:0:0:
32,198,373649,1,2,0:2:0:0:
3,135,373713,1,10,0:2:0:0:
16,68,373776,1,2,0:2:0:0:
67,21,373840,1,2,0:2:0:0:
135,12,373904,1,2,0:2:0:0:
195,45,373967,6,0,P|197:85|190:141,3,70,0|0|0|0,1:0|0:0|0:0|0:0,0:0:0:0:
271,132,374221,2,0,P|268:166|271:201,3,70,8|0|0|0,0:0|0:0|0:0|0:0,0:0:0:0:
195,216,374476,5,0,1:0:0:0:
181,238,374539,1,0,0:0:0:0:
174,266,374603,1,0,0:0:0:0:
178,300,374666,1,0,0:0:0:0:
198,332,374730,1,8,0:0:0:0:
235,353,374793,1,0,0:0:0:0:
284,352,374857,1,0,0:0:0:0:
327,317,374920,1,0,0:0:0:0:
338,255,374984,5,2,1:2:0:0:
327,186,375048,1,2,0:2:0:0:
288,129,375111,1,2,0:2:0:0:
227,95,375175,1,2,0:2:0:0:
158,91,375238,1,10,0:2:0:0:
94,118,375302,1,2,0:2:0:0:
49,170,375365,1,2,0:2:0:0:
36,239,375429,1,2,0:2:0:0:
55,306,375493,6,0,P|88:293|123:286,1,70,2|0,1:2|0:0,0:0:0:0:
245,251,375620,2,0,P|213:236|179:226,1,70,2|0,0:0|0:0,0:0:0:0:
115,149,375747,2,0,P|149:143|184:142,1,70,10|0,0:0|0:0,0:0:0:0:
249,78,375874,2,0,P|216:65|181:58,1,70,2|0,0:0|0:0,0:0:0:0:
114,3,376001,6,0,P|29:34|11:112,1,140,2|0,3:2|3:0,0:0:0:0:
62,209,376255,1,8,3:2:0:0:
273,158,376382,1,8,3:2:0:0:
484,107,376509,1,8,3:2:0:0:
331,287,376637,6,0,P|330:252|334:218,1,70,8|0,3:2|0:0,0:0:0:0:
224,20,376764,2,0,P|225:55|222:90,1,70,8|0,3:2|0:0,0:0:0:0:
181,318,376891,6,0,P|103:330|65:198,1,210,4|0,1:0|0:0,0:0:0:0:
74,148,377145,1,0,3:0:0:0:
298,220,377272,6,0,L|395:200,1,70,14|0,0:0|0:0,0:0:0:0:
214,164,377399,2,0,L|117:184,1,70,2|0,0:0|0:0,0:0:0:0:
257,294,377526,6,0,L|344:314,1,70,2|0,0:0|0:0,0:0:0:0:
255,90,377654,2,0,L|168:70,1,70,2|0,0:0|0:0,0:0:0:0:
181,318,377781,5,8,0:0:0:0:
404,283,377908,2,0,L|364:62,1,210,4|0,1:0|0:0,0:0:0:0:
349,0,378162,1,0,3:0:0:0:
294,163,378289,6,0,L|311:255,1,70,14|0,0:0|0:0,0:0:0:0:
218,221,378416,2,0,L|201:129,1,70,2|0,0:0|0:0,0:0:0:0:
108,101,378543,6,0,L|177:81,1,70,2|0,0:0|0:0,0:0:0:0:
404,283,378670,2,0,L|335:303,1,70,2|0,0:0|0:0,0:0:0:0:
255,90,378798,5,8,0:0:0:0:
181,318,378925,2,0,P|90:297|75:175,1,210,4|0,1:0|0:0,0:0:0:0:
108,101,379179,1,0,3:0:0:0:
357,179,379306,6,0,L|259:162,1,70,14|0,0:0|0:0,0:0:0:0:
155,205,379433,2,0,L|253:222,1,70,2|0,0:0|0:0,0:0:0:0:
321,267,379560,6,0,L|400:249,1,70,6|0,0:0|0:0,0:0:0:0:
191,117,379687,2,0,L|112:135,1,70,2|0,0:0|0:0,0:0:0:0:
240,365,379815,6,0,L|247:296,1,70,14|0,0:0|0:0,0:0:0:0:
272,19,379942,2,0,L|265:88,1,70,2|0,0:0|0:0,0:0:0:0:
102,268,380069,6,0,L|32:249,1,52.5000020027161,0|0,1:0|0:0,0:0:0:0:
433,180,380323,6,0,L|503:161,1,52.5000020027161,0|0,1:0|0:0,0:0:0:0:
233,77,380577,6,0,L|163:58,1,52.5000020027161,8|0,1:2|0:0,0:0:0:0:
285,13,380704,6,0,L|355:-6,1,52.5000020027161,8|0,1:2|0:0,0:0:0:0:
285,13,380959,6,0,L|246:246,1,210,4|0,1:0|0:0,0:0:0:0:
236,298,381213,1,0,3:0:0:0:
353,212,381340,6,0,L|338:118,1,70,14|0,0:0|0:0,0:0:0:0:
159,172,381467,2,0,L|174:266,1,70,2|0,0:0|0:0,0:0:0:0:
429,70,381594,6,0,L|419:153,1,70,2|0,0:0|0:0,0:0:0:0:
83,314,381721,2,0,L|93:231,1,70,2|0,0:0|0:0,0:0:0:0:
111,108,381848,5,8,0:0:0:0:
132,384,381976,2,0,P|222:318|345:346,1,210,4|0,1:0|0:0,0:0:0:0:
385,365,382230,1,0,3:0:0:0:
290,239,382357,6,0,L|192:221,1,70,14|0,0:0|0:0,0:0:0:0:
222,145,382484,2,0,L|320:163,1,70,2|0,0:0|0:0,0:0:0:0:
160,307,382611,6,0,L|141:215,1,70,2|0,0:0|0:0,0:0:0:0:
352,77,382738,2,0,L|371:169,1,70,2|0,0:0|0:0,0:0:0:0:
432,195,382865,5,8,0:0:0:0:
288,6,382993,2,0,L|76:31,1,210,4|0,1:0|0:0,0:0:0:0:
1,42,383247,5,0,3:0:0:0:
224,378,383374,2,0,L|436:353,1,210,12|0,0:0|0:0,0:0:0:0:
511,342,383628,6,0,P|519:242|485:176,1,140,4|0,0:0|0:0,0:0:0:0:
303,215,383882,2,0,P|295:315|329:381,1,140,8|0,0:0|0:0,0:0:0:0:
426,163,384137,5,8,3:2:0:0:
426,163,384200,1,8,3:2:0:0:
426,163,384264,1,8,3:2:0:0:
223,193,384391,1,8,3:2:0:0:
20,223,384518,1,8,3:2:0:0:
156,236,384645,6,0,L|145:319,1,52.5000020027161,8|0,3:2|0:0,0:0:0:0:
92,182,384772,2,0,L|103:99,1,52.5000020027161,8|0,3:2|0:0,0:0:0:0:
92,182,385026,6,0,P|-3:136|28:23,1,210,4|0,1:0|0:0,0:0:0:0:
83,23,385281,1,0,3:0:0:0:
222,237,385408,6,0,L|212:167,1,70,14|0,0:0|0:0,0:0:0:0:
290,147,385535,2,0,L|301:216,1,70,2|0,0:0|0:0,0:0:0:0:
374,267,385662,6,0,L|380:197,1,70,6|0,0:0|0:0,0:0:0:0:
138,117,385789,2,0,L|133:186,1,70,2|0,0:0|0:0,0:0:0:0:
163,359,385916,5,8,0:0:0:0:
447,311,386043,2,0,P|502:253|462:113,1,210,4|0,1:0|0:0,0:0:0:0:
410,103,386298,1,0,3:0:0:0:
272,233,386425,6,0,L|358:219,1,70,14|0,0:0|0:0,0:0:0:0:
240,151,386552,2,0,L|154:165,1,70,2|0,0:0|0:0,0:0:0:0:
218,305,386679,6,0,L|288:315,1,70,6|0,0:0|0:0,0:0:0:0:
294,79,386806,2,0,L|225:68,1,70,2|0,0:0|0:0,0:0:0:0:
89,181,386933,5,8,0:0:0:0:
156,367,387060,2,0,P|266:336|372:331,1,210,4|0,1:0|0:0,0:0:0:0:
439,352,387315,1,0,3:0:0:0:
222,255,387442,6,0,L|212:185,1,70,14|0,0:0|0:0,0:0:0:0:
290,129,387569,2,0,L|301:198,1,70,2|0,0:0|0:0,0:0:0:0:
148,136,387696,6,0,L|43:124,1,70,6|0,0:0|0:0,0:0:0:0:
364,248,387823,2,0,L|469:260,1,70,2|0,0:0|0:0,0:0:0:0:
398,64,387950,6,0,L|327:57,1,70,14|0,0:0|0:0,0:0:0:0:
115,319,388077,2,0,L|185:327,1,70
284,381,388204,6,0,L|299:330,1,52.5000020027161,0|0,1:0|0:0,0:0:0:0:
202,33,388459,6,0,L|217:83,1,52.5000020027161,0|0,1:0|0:0,0:0:0:0:
62,255,388713,6,0,L|77:204,1,52.5000020027161,8|0,1:2|0:0,0:0:0:0:
0,111,388840,6,0,L|15:161,1,52.5000020027161,8|0,1:2|0:0,0:0:0:0:
0,111,389094,6,0,P|130:120|171:220,1,210,4|0,1:0|0:0,0:0:0:0:
146,256,389348,1,0,3:0:0:0:
229,20,389476,5,10,0:0:0:0:
236,63,389539,1,2,0:0:0:0:
243,106,389603,1,2,0:0:0:0:
249,149,389666,1,2,0:0:0:0:
256,192,389730,1,2,0:0:0:0:
263,236,389793,1,2,0:0:0:0:
269,279,389857,1,2,0:0:0:0:
276,322,389920,1,2,0:0:0:0:
282,365,389984,1,10,0:0:0:0:
413,275,390111,6,0,P|448:188|368:82,1,210,4|0,1:0|0:0,0:0:0:0:
318,72,390365,1,0,3:0:0:0:
12,164,390493,5,10,0:2:0:0:
73,171,390556,1,2,0:0:0:0:
134,178,390620,1,2,0:0:0:0:
195,185,390683,1,2,0:0:0:0:
256,192,390747,1,2,0:0:0:0:
317,199,390810,1,2,0:0:0:0:
377,206,390874,1,2,0:0:0:0:
438,214,390937,1,2,0:0:0:0:
499,221,391001,1,10,0:2:0:0:
177,313,391128,6,0,B|158:226|158:226|141:200|141:200|117:82,1,210,4|0,1:0|0:0,0:0:0:0:
108,32,391382,1,0,3:0:0:0:
256,0,391509,6,0,P|279:76|257:146,1,140,12|0,0:0|0:0,0:0:0:0:
90,288,391764,2,0,P|145:230|216:214,1,140,4|0,0:0|0:0,0:0:0:0:
423,288,392018,2,0,P|345:269|296:215,1,140,12|0,0:0|0:0,0:0:0:0:
35,50,392272,5,8,1:2:0:0:
35,50,392399,1,0,1:0:0:0:
173,69,392653,1,0,3:0:0:0:
311,88,392907,1,0,3:0:0:0:
370,29,393034,5,8,1:2:0:0:
370,29,393161,1,0,1:0:0:0:
433,152,393416,1,0,3:0:0:0:
498,276,393670,1,0,3:0:0:0:
454,337,393798,6,0,B|386:322|386:322|362:252|362:252|285:234,1,210,4|0,1:0|0:0,0:0:0:0:
231,281,394052,1,0,3:0:0:0:
490,158,394179,1,0,3:0:0:0:
494,137,394433,1,0,3:0:0:0:
138,90,394560,5,12,3:2:0:0:
240,33,394687,2,0,P|229:104|224:173,1,140,0|0,3:0|0:0,0:0:0:0:
90,365,394942,2,0,P|101:294|106:225,1,140,0|0,3:0|0:0,0:0:0:0:
44,160,395196,1,0,3:0:0:0:
194,276,395323,5,4,3:2:0:0:
246,197,395450,1,0,3:0:0:0:
224,186,395704,1,0,3:0:0:0:
228,210,395959,1,0,3:0:0:0:
304,246,396086,5,0,3:0:0:0:
142,194,396213,1,0,3:0:0:0:
302,100,396340,1,0,3:0:0:0:
314,98,396403,1,0,3:0:0:0:
324,96,396467,2,0,P|332:140|338:179,1,70,2|0,3:0|0:0,0:0:0:0:
352,322,396594,1,0,3:0:0:0:
323,333,396658,1,0,3:0:0:0:
291,333,396721,1,0,3:0:0:0:
263,321,396785,1,0,3:0:0:0:
241,298,396848,5,8,3:2:0:0:
401,257,396975,1,0,3:0:0:0:
450,194,397103,5,8,3:2:0:0:
185,154,397230,1,0,3:0:0:0:
161,80,397357,5,8,3:2:0:0:
439,8,397484,1,0,3:0:0:0:
421,86,397611,5,0,3:0:0:0:
421,86,397738,1,0,3:0:0:0:
244,98,397865,1,0,3:0:0:0:
244,98,397992,1,0,3:0:0:0:
374,159,398120,1,0,3:0:0:0:
374,159,398247,1,0,3:0:0:0:
302,322,398374,6,0,P|295:252|279:185,1,140,4|0,3:2|0:0,0:0:0:0:
160,40,398628,1,0,3:0:0:0:
94,92,398755,1,0,3:0:0:0:
91,175,398882,1,0,3:0:0:0:
147,236,399009,1,0,3:0:0:0:
24,346,399136,5,12,3:2:0:0:
96,302,399264,1,0,3:0:0:0:
177,280,399391,1,0,3:0:0:0:
257,303,399518,1,0,3:0:0:0:
307,368,399645,2,0,P|301:323|298:292,1,70,0|0,3:0|0:0,0:0:0:0:
403,269,399772,2,0,P|409:224|412:193,1,70,0|0,3:0|0:0,0:0:0:0:
289,18,399899,6,0,P|298:93|302:185,1,140,6|0,3:2|3:0,0:0:0:0:
232,213,400090,1,0,3:0:0:0:
232,213,400153,2,0,P|226:169|223:135,1,70,2|0,3:2|0:0,0:0:0:0:
115,34,400281,1,0,3:0:0:0:
122,34,400344,1,0,3:0:0:0:
131,33,400408,2,0,P|137:77|140:111,1,70,2|0,3:2|0:0,0:0:0:0:
58,160,400535,2,0,P|61:194|66:229,1,70,2|0,3:2|0:0,0:0:0:0:
0,314,400662,6,0,B|186:280|84:416|276:369,1,280,12|0,3:2|0:0,0:0:0:0:
438,306,401043,1,0,3:0:0:0:
368,265,401170,1,0,3:0:0:0:
365,344,401298,1,0,3:0:0:0:
498,367,401425,6,0,P|454:261|460:129,1,210,4|0,3:2|0:0,0:0:0:0:
486,93,401679,1,0,3:0:0:0:
186,40,401806,1,0,3:0:0:0:
209,34,402060,1,0,3:0:0:0:
430,23,402187,5,12,3:2:0:0:
215,126,402314,2,0,P|297:110|356:101,1,140,0|0,3:0|0:0,0:0:0:0:
20,355,402569,2,0,P|89:344|157:330,1,140,0|0,3:0|0:0,0:0:0:0:
255,277,402823,1,0,3:0:0:0:
42,54,402950,6,0,P|60:157|74:261,1,210,4|0,3:2|0:0,0:0:0:0:
35,331,403204,1,0,3:0:0:0:
151,188,403331,1,0,3:0:0:0:
258,369,403459,1,0,3:0:0:0:
258,369,403522,1,0,3:0:0:0:
258,369,403586,1,0,3:0:0:0:
311,201,403713,6,0,P|327:173|337:142,1,41.9999987182618,2|0,3:2|0:0,0:0:0:0:
451,156,403840,2,0,P|420:146|392:129,1,41.9999987182618,2|0,3:2|0:0,0:0:0:0:
317,297,403967,6,0,P|342:276|361:250,1,41.9999987182618,2|0,3:2|0:0,0:0:0:0:
503,232,404094,2,0,P|470:233|438:227,1,41.9999987182618,2|0,3:2|0:0,0:0:0:0:
435,371,404221,6,0,L|417:300,1,70,2|0,3:2|0:0,0:0:0:0:
384,196,404348,2,0,L|366:125,1,70,2|0,3:2|0:0,0:0:0:0:
373,50,404475,5,12,3:2:0:0:
288,105,404603,1,0,3:0:0:0:
189,98,404730,1,0,3:0:0:0:
120,26,404857,1,8,3:2:0:0:
204,16,404984,5,0,3:0:0:0:
41,218,405111,1,0,3:0:0:0:
28,129,405238,5,8,3:2:0:0:
116,172,405365,1,0,3:0:0:0:
159,260,405492,1,0,3:0:0:0:
145,358,405620,1,8,3:2:0:0:
145,358,405683,1,0,3:0:0:0:
145,358,405747,2,0,P|72:346|0:336,1,140,0|0,3:0|0:0,0:0:0:0:
318,221,406001,6,0,P|269:278|248:347,1,125.999996154785,4|0,1:0|0:0,0:0:0:0:
132,111,406255,6,0,P|185:140|225:201,1,112
352,15,406509,6,0,P|315:55|295:119,1,97.9999970092774,0|0,3:0|3:0,0:0:0:0:
361,147,406700,1,0,3:0:0:0:
361,147,406764,6,0,P|398:107|418:43,1,83.9999974365235,8|0,3:2|0:0,0:0:0:0:
199,20,407018,1,0,3:0:0:0:
167,265,407145,6,0,P|125:266|84:255,1,83.9999974365235,8|0,3:2|0:0,0:0:0:0:
221,130,407399,1,0,3:0:0:0:
327,337,407526,5,8,3:2:0:0:
198,253,407653,1,8,3:2:0:0:
336,189,407781,1,0,3:0:0:0:
289,259,407907,5,8,3:2:0:0:
137,173,408035,1,0,3:0:0:0:
290,91,408162,1,8,3:2:0:0:
236,171,408289,5,8,3:2:0:0:
211,64,408416,1,0,3:0:0:0:
102,92,408543,1,0,3:0:0:0:
128,199,408670,1,0,3:0:0:0:
280,104,408798,1,0,3:0:0:0:
56,161,408925,1,0,3:0:0:0:
231,344,409052,5,0,3:0:0:0:
507,367,416170,5,8,3:2:0:0:
507,367,416234,1,8,3:2:0:0:
507,367,416297,1,8,3:2:0:0:
444,241,416424,1,8,3:2:0:0:
339,174,416552,1,8,3:2:0:0:
227,148,416679,1,8,3:2:0:0:
138,167,416806,1,8,3:2:0:0:
72,218,416933,1,8,3:2:0:0:
49,287,417060,6,0,P|152:276|165:120,1,280,4|0,1:0|3:0,0:0:0:0:
90,0,417441,2,0,P|80:25|84:78,1,70,10|0,0:0|0:0,0:0:0:0:
24,117,417568,2,0,P|33:142|69:180,1,70,2|0,0:0|0:0,0:0:0:0:
241,316,417696,5,0,3:0:0:0:
234,319,417759,1,0,0:0:0:0:
225,323,417823,2,0,P|214:269|211:250,1,70,2|0,0:0|0:0,0:0:0:0:
304,43,417950,1,8,0:0:0:0:
311,40,418013,1,0,0:0:0:0:
320,36,418077,2,0,P|331:90|334:109,1,70,2|0,0:0|0:0,0:0:0:0:
151,153,418204,5,0,3:0:0:0:
148,145,418268,1,0,0:0:0:0:
144,137,418331,2,0,P|198:125|217:122,1,70,2|0,0:0|0:0,0:0:0:0:
424,216,418458,1,8,0:0:0:0:
427,223,418522,1,0,0:0:0:0:
430,232,418585,2,0,P|376:243|357:246,1,70,2|0,0:0|0:0,0:0:0:0:
257,261,418713,5,0,3:0:0:0:
250,264,418776,1,0,0:0:0:0:
241,268,418840,2,0,P|230:214|227:195,1,70,2|0,0:0|0:0,0:0:0:0:
290,124,418967,1,8,0:0:0:0:
297,121,419030,1,0,0:0:0:0:
306,117,419094,2,0,P|317:171|320:190,1,70,2|0,0:0|0:0,0:0:0:0:
284,354,419221,6,0,P|246:360|204:374,1,70,0|0,3:0|0:0,0:0:0:0:
57,349,419348,2,0,P|90:339|125:333,1,70,2|0,0:0|0:0,0:0:0:0:
250,264,419475,2,0,P|212:270|170:284,1,70,8|0,0:0|0:0,0:0:0:0:
32,257,419602,2,0,P|65:247|100:241,1,70,2|0,0:0|0:0,0:0:0:0:
110,96,419729,5,0,3:0:0:0:
110,96,419793,1,0,0:0:0:0:
110,96,419857,2,0,P|126:152|130:178,1,70,2|0,0:0|0:0,0:0:0:0:
231,191,419984,1,8,0:0:0:0:
231,191,420047,1,0,0:0:0:0:
231,191,420111,2,0,P|215:135|211:109,1,70,2|0,0:0|0:0,0:0:0:0:
309,27,420238,6,0,B|275:18|275:18|219:53,1,70,2|0,3:2|0:0,0:0:0:0:
381,180,420365,1,2,0:0:0:0:
381,180,420429,1,0,0:0:0:0:
381,180,420492,2,0,B|351:198|351:198|317:189,1,70,10|0,0:0|0:0,0:0:0:0:
446,58,420619,1,0,0:0:0:0:
446,58,420683,1,0,0:0:0:0:
446,58,420746,2,0,B|414:44|414:44|382:59,1,70,2|0,3:2|0:0,0:0:0:0:
131,10,420874,1,0,0:0:0:0:
131,10,420937,1,0,0:0:0:0:
131,10,421001,2,0,P|141:45|146:92,1,70,10|0,0:2|0:0,0:0:0:0:
68,253,421128,6,0,B|46:283|46:283|-44:182|58:67,1,280,4|0,1:0|3:0,0:0:0:0:
132,176,421509,2,0,P|155:241|149:311,1,140,8|0,0:0|0:0,0:0:0:0:
61,357,421763,1,0,3:0:0:0:
215,159,421890,1,0,3:0:0:0:
273,384,422018,2,0,P|249:318|256:249,1,140,8|0,0:0|0:0,0:0:0:0:
475,192,422272,6,0,P|376:197|333:287,1,210,4|0,3:2|0:0,0:0:0:0:
400,329,422526,1,8,0:0:0:0:
177,231,422653,1,0,3:0:0:0:
386,102,422780,2,0,P|317:94|246:87,1,140,0|0,3:0|0:0,0:0:0:0:
55,44,423035,1,8,0:0:0:0:
179,135,423162,1,0,3:0:0:0:
236,0,423289,5,0,3:0:0:0:
68,142,423416,1,0,3:0:0:0:
224,299,423543,2,0,P|263:241|281:174,1,140,8|0,0:0|0:0,0:0:0:0:
246,87,423797,5,0,3:0:0:0:
303,168,423924,1,0,3:0:0:0:
206,167,424052,1,8,0:0:0:0:
332,93,424179,1,0,3:0:0:0:
480,359,424306,6,0,P|414:308|218:301,1,280,0|8,3:0|0:0,0:0:0:0:
26,206,424814,5,8,3:2:0:0:
243,183,424941,1,8,3:2:0:0:
474,162,425068,1,8,3:2:0:0:
389,219,425196,6,0,P|268:202|72:176,1,280,4|0,1:0|0:0,0:0:0:0:
66,115,425577,5,12,3:2:0:0:
139,102,425704,1,0,3:0:0:0:
204,296,425831,5,0,3:0:0:0:
56,282,425958,1,0,3:0:0:0:
273,70,426085,5,8,3:2:0:0:
470,149,426213,1,4,1:0:0:0:
200,198,426340,5,0,3:0:0:0:
506,77,426467,1,0,3:0:0:0:
186,10,426594,1,12,3:2:0:0:
299,342,426721,1,0,3:0:0:0:
299,342,426785,1,0,3:0:0:0:
299,342,426848,6,0,P|318:264|304:189,1,140,0|0,3:0|0:0,0:0:0:0:
143,103,427102,1,8,3:2:0:0:
359,6,427229,1,0,3:0:0:0:
50,66,427357,6,0,B|-4:72|-4:72|115:89|179:189,1,280,4|8,3:2|0:0,0:0:0:0:
201,271,427738,1,0,3:0:0:0:
260,103,427865,1,0,3:0:0:0:
260,103,427992,1,0,3:0:0:0:
45,319,428119,2,0,P|73:255|76:185,1,140,8|0,3:2|0:0,0:0:0:0:
509,335,428374,6,0,B|508:371|508:371|236:309,1,280,0|8,3:0|0:0,0:0:0:0:
167,360,428755,1,0,3:0:0:0:
433,273,428882,2,0,P|459:227|459:121,1,140,0|0,3:0|0:0,0:0:0:0:
336,18,429136,1,8,3:2:0:0:
385,198,429263,1,0,3:0:0:0:
268,61,429390,6,0,P|241:36|203:24,1,70,2|0,3:2|0:0,0:0:0:0:
99,13,429518,1,0,0:0:0:0:
99,13,429581,1,0,0:0:0:0:
99,13,429645,2,0,P|110:49|120:83,1,70,10|0,0:0|0:0,0:0:0:0:
145,159,429772,2,0,P|156:195|166:229,1,70,2|0,0:0|0:0,0:0:0:0:
316,155,429899,6,0,P|343:130|381:118,1,70,2|0,3:2|0:0,0:0:0:0:
485,107,430026,1,0,0:0:0:0:
485,107,430090,1,0,0:0:0:0:
485,107,430153,2,0,P|474:143|464:177,1,70,10|0,0:0|0:0,0:0:0:0:
439,253,430280,2,0,P|428:289|418:323,1,70,2|0,0:0|0:0,0:0:0:0:
128,340,430407,6,0,P|187:324|202:320,1,70,2|0,3:2|0:0,0:0:0:0:
327,269,430535,1,0,0:0:0:0:
327,269,430598,1,0,0:0:0:0:
327,269,430662,2,0,P|268:253|253:249,1,70,10|0,0:0|0:0,0:0:0:0:
41,212,430789,6,0,P|136:192|327:152,1,280,4|0,1:0|0:0,0:0:0:0:
330,79,431170,1,8,0:0:0:0:
235,365,431297,1,0,3:0:0:0:
11,57,431424,5,0,3:0:0:0:
46,35,431488,1,0,0:0:0:0:
88,28,431552,1,0,0:0:0:0:
129,34,431615,1,0,0:0:0:0:
165,55,431679,1,8,0:0:0:0:
192,87,431742,1,0,0:0:0:0:
207,126,431806,1,0,0:0:0:0:
207,168,431869,1,0,0:0:0:0:
193,207,431933,6,0,P|154:204|111:200,1,70,2|0,3:2|0:0,0:0:0:0:
32,311,432060,1,0,0:0:0:0:
24,319,432124,1,0,0:0:0:0:
28,328,432187,2,0,P|62:331|97:333,1,70,10|0,0:0|0:0,0:0:0:0:
334,365,432314,1,0,0:0:0:0:
329,381,432378,1,0,0:0:0:0:
315,383,432441,6,0,P|304:327|305:309,1,70,2|0,3:2|0:0,0:0:0:0:
421,255,432568,2,0,P|419:220|410:186,1,70,2|0,0:0|0:0,0:0:0:0:
256,72,432696,1,8,0:0:0:0:
279,106,432759,1,0,0:0:0:0:
317,124,432823,1,0,0:0:0:0:
358,121,432886,1,0,0:0:0:0:
392,98,432950,6,0,P|352:97|317:106,1,70,2|0,3:2|0:0,0:0:0:0:
238,239,433077,2,0,P|203:246|168:244,1,70,2|0,0:0|0:0,0:0:0:0:
53,235,433204,1,8,0:0:0:0:
74,199,433268,1,0,0:0:0:0:
86,159,433331,1,0,0:0:0:0:
85,117,433395,1,0,0:0:0:0:
73,77,433458,6,0,P|65:120|69:159,1,70,2|0,3:2|0:0,0:0:0:0:
103,361,433585,2,0,P|111:318|107:279,1,70,2|0,0:0|0:0,0:0:0:0:
162,119,433713,2,0,P|197:118|232:126,1,70,10|0,0:0|0:0,0:0:0:0:
293,304,433840,2,0,P|327:311|362:310,1,70,2|0,0:0|0:0,0:0:0:0:
512,114,433967,5,0,3:0:0:0:
463,86,434030,1,0,0:0:0:0:
408,86,434094,1,0,0:0:0:0:
361,115,434157,1,0,0:0:0:0:
334,163,434221,2,0,P|336:222|339:244,1,70,10|0,0:2|0:0,0:0:0:0:
464,360,434348,1,0,0:0:0:0:
464,360,434412,1,0,0:0:0:0:
464,360,434475,6,0,P|442:274|450:203,1,140,4|0,3:2|0:0,0:0:0:0:
499,130,434729,1,8,1:2:0:0:
320,308,434857,1,8,1:2:0:0:
168,85,434984,5,8,3:2:0:0:
422,207,435111,1,8,3:2:0:0:
179,354,435238,1,8,3:2:0:0:
38,72,435365,6,0,P|131:34|246:204,1,280,4|0,1:0|3:0,0:0:0:0:
182,180,435746,1,12,0:0:0:0:
324,97,435874,1,0,3:0:0:0:
348,335,436001,5,0,3:0:0:0:
95,208,436128,1,0,3:0:0:0:
398,63,436255,1,8,0:0:0:0:
456,381,436382,6,0,B|375:369|222:353|222:353|173:320,1,280,4|0,1:0|3:0,0:0:0:0:
130,275,436763,1,12,0:0:0:0:
237,150,436890,1,0,3:0:0:0:
337,367,437018,5,0,3:0:0:0:
56,329,437145,1,0,3:0:0:0:
296,94,437272,1,8,0:0:0:0:
128,370,437399,6,0,P|81:255|119:81,1,280,4|0,1:0|3:0,0:0:0:0:
66,40,437780,1,12,0:0:0:0:
178,225,437907,1,0,3:0:0:0:
399,141,438035,5,0,3:0:0:0:
167,46,438162,1,0,3:0:0:0:
237,287,438289,1,8,0:0:0:0:
496,163,438416,1,0,3:0:0:0:
313,6,438543,6,0,B|295:104|295:104|304:149,1,140,4|0,3:2|0:0,0:0:0:0:
361,245,438797,5,4,3:2:0:0:
440,230,438924,1,0,0:0:0:0:
182,157,439052,5,8,1:2:0:0:
77,138,439179,1,8,1:2:0:0:
379,80,439306,5,0,3:0:0:0:
282,342,439433,2,0,B|120:317|183:389|-6:363,1,280,4|0,1:0|3:0,0:0:0:0:
75,291,439814,1,12,0:0:0:0:
75,291,439941,1,0,3:0:0:0:
323,205,440068,5,0,3:0:0:0:
53,110,440196,1,0,3:0:0:0:
335,36,440323,1,8,0:0:0:0:
69,8,440450,6,0,B|122:227|122:227|187:273,1,280,4|0,1:0|3:0,0:0:0:0:
247,230,440831,1,12,0:0:0:0:
184,178,440958,1,0,3:0:0:0:
190,362,441085,5,0,3:0:0:0:
303,345,441213,1,0,3:0:0:0:
66,227,441340,1,8,0:0:0:0:
376,190,441467,6,0,P|283:113|115:116,1,280,4|0,1:0|3:0,0:0:0:0:
493,8,441848,2,0,P|433:61|410:151,1,140,12|0,0:0|0:0,0:0:0:0:
303,345,442102,6,0,P|370:325|439:320,1,140,4|0,0:0|0:0,0:0:0:0:
504,365,442357,1,12,0:0:0:0:
229,278,442484,1,0,3:0:0:0:
298,218,442611,5,0,1:0:0:0:
229,369,442738,1,0,1:0:0:0:
22,116,442865,1,0,1:0:0:0:
484,15,443119,1,8,1:2:0:0:
484,15,443246,1,8,1:2:0:0:
38,16,443501,6,0,B|83:222|83:222|97:154,1,280,4|0,1:0|3:0,0:0:0:0:
132,75,443882,1,12,0:0:0:0:
260,218,444009,1,0,3:0:0:0:
52,260,444136,5,0,3:0:0:0:
193,15,444263,1,0,3:0:0:0:
323,285,444390,1,8,0:0:0:0:
7,163,444518,6,0,B|229:90|229:90|285:97,1,280,4|0,1:0|3:0,0:0:0:0:
341,168,444899,1,12,0:0:0:0:
181,184,445026,1,0,3:0:0:0:
335,15,445153,5,0,3:0:0:0:
423,268,445280,1,0,3:0:0:0:
92,213,445407,1,8,0:0:0:0:
497,71,445535,6,0,L|446:375,1,280,4|0,1:0|3:0,0:0:0:0:
366,371,445916,1,12,0:0:0:0:
509,181,446043,1,0,3:0:0:0:
257,96,446170,5,4,3:2:0:0:
323,288,446297,1,0,3:0:0:0:
497,71,446424,1,12,0:0:0:0:
146,19,446551,1,0,0:0:0:0:
82,78,446679,5,0,1:0:0:0:
505,219,446933,1,0,1:0:0:0:
27,364,447187,1,8,1:2:0:0:
27,364,447314,1,8,1:2:0:0:
496,382,447568,6,0,B|279:337|279:337|289:250,1,280,4|0,1:0|3:0,0:0:0:0:
394,203,447950,2,0,B|401:282|355:263|356:335,1,140,12|0,0:0|0:0,0:0:0:0:
442,316,448204,1,4,3:2:0:0:
311,208,448331,1,0,3:0:0:0:
470,145,448458,1,8,0:0:0:0:
191,356,448585,6,0,P|165:253|208:64,1,280,4|0,1:0|3:0,0:0:0:0:
261,30,448967,2,0,P|279:66|270:117,1,70,14|0,0:0|0:0,0:0:0:0:
134,136,449094,2,0,P|116:100|125:49,1,70,2|0,3:2|0:0,0:0:0:0:
311,208,449221,6,0,P|258:196|229:192,1,70,2|0,3:2|0:0,0:0:0:0:
91,288,449348,2,0,P|144:276|173:272,1,70,2|0,3:2|0:0,0:0:0:0:
302,363,449475,2,0,P|249:351|220:347,1,70,10|0,0:0|0:0,0:0:0:0:
60,362,449602,6,0,P|67:277|35:141,1,210.000008010865,0|0,1:0|3:0,0:0:0:0:
386,5,449984,2,0,P|380:109|404:211,1,210.000008010865,12|4,0:0|0:0,0:0:0:0:
496,219,450365,1,0,3:0:0:0:
419,305,450492,2,0,P|371:286|319:289,1,105.000004005432,12|0,0:0|0:0,0:0:0:0:
246,335,450746,5,8,1:2:0:0:
246,335,450873,1,0,1:0:0:0:
17,215,451127,1,0,3:0:0:0:
452,72,451381,1,0,3:0:0:0:
444,152,451508,1,8,1:2:0:0:
466,73,451635,1,0,1:2:0:0:
34,18,451890,5,0,3:0:0:0:
246,362,452144,5,0,3:0:0:0:
351,276,452271,2,0,B|221:265|278:344|125:321,1,210.000008010865,4|0,3:2|0:0,0:0:0:0:
28,164,452652,2,0,P|113:153|172:289,1,210.000008010865,0|0,3:0|0:0,0:0:0:0:
87,362,453034,5,14,3:2:0:0:
73,326,453118,1,0,0:0:0:0:
82,291,453203,1,0,0:0:0:0:
144,238,453288,5,2,0:0:0:0:
162,191,453373,1,0,0:0:0:0:
150,145,453457,1,0,0:0:0:0:
66,133,453542,5,2,0:0:0:0:
43,74,453627,1,0,0:0:0:0:
58,16,453712,1,0,0:0:0:0:
135,0,453796,5,4,3:2:0:0:
263,146,453923,1,0,3:0:0:0:
388,66,454051,2,0,P|330:62|270:59,1,105.000004005432,0|0,3:0|0:0,0:0:0:0:
144,238,454305,2,0,P|202:234|262:231,1,105.000004005432,0|0,3:0|0:0,0:0:0:0:
433,251,454559,1,8,3:2:0:0:
368,173,454686,1,0,3:0:0:0:
306,352,454813,5,0,3:0:0:0:
306,352,454940,1,0,3:0:0:0:
336,277,455195,5,0,3:0:0:0:
222,383,455322,2,0,P|185:318|185:230,1,140,4|0,3:2|0:0,0:0:0:0:
221,75,455576,1,0,3:0:0:0:
276,208,455703,1,8,3:2:0:0:
92,135,455830,5,0,3:0:0:0:
291,1,455957,1,8,3:2:0:0:
368,239,456084,1,8,3:2:0:0:
368,239,456212,1,0,3:0:0:0:
276,208,456339,5,0,3:0:0:0:
336,158,456466,1,0,3:0:0:0:
303,290,456593,1,0,3:0:0:0:
303,290,456720,1,0,3:0:0:0:
468,90,456847,6,0,P|424:87|341:84,1,105.000004005432,4|0,3:2|0:0,0:0:0:0:
181,173,457101,1,0,3:0:0:0:
159,77,457229,1,0,3:0:0:0:
252,105,457356,1,0,3:0:0:0:
164,260,457483,1,0,3:0:0:0:
0,143,457610,2,0,P|43:140|126:137,1,105.000004005432,12|0,3:2|0:0,0:0:0:0:
356,208,457864,5,8,3:2:0:0:
335,338,457991,1,8,3:2:0:0:
207,321,458118,1,0,3:0:0:0:
228,191,458246,1,8,3:2:0:0:
277,268,458373,5,8,3:2:0:0:
277,268,458500,1,0,3:0:0:0:
485,181,458627,1,0,3:0:0:0:
485,181,458754,1,0,3:0:0:0:
289,38,458881,6,0,P|296:127|299:166,1,105.000004005432,0|0,3:0|0:0,0:0:0:0:
360,199,459135,1,8,3:2:0:0:
214,156,459262,1,8,3:2:0:0:
214,367,459390,5,0,3:0:0:0:
420,311,459517,1,8,3:2:0:0:
465,240,459644,5,8,3:2:0:0:
102,167,459771,1,8,3:2:0:0:
67,250,459898,5,4,3:2:0:0:
218,236,460025,6,0,P|113:210|-24:194,1,210.000008010865,0|0,3:0|0:0,0:0:0:0:
251,138,460407,1,0,3:0:0:0:
298,200,460534,1,0,3:0:0:0:
382,142,460661,6,0,P|391:107|398:88,1,52.5000020027161,12|0,3:2|0:0,0:0:0:0:
321,71,460788,2,0,P|329:46|336:21,1,52.5000020027161,0|0,3:0|0:0,0:0:0:0:
191,209,460915,6,0,P|182:174|175:155,1,52.5000020027161,0|0,3:0|0:0,0:0:0:0:
251,138,461042,2,0,P|242:113|236:87,1,52.5000020027161,0|0,3:0|0:0,0:0:0:0:
343,321,461169,6,0,P|352:286|359:267,1,52.5000020027161,0|0,3:0|0:0,0:0:0:0:
283,250,461296,2,0,P|291:225|297:199,1,52.5000020027161,0|0,3:0|0:0,0:0:0:0:
447,242,461423,2,0,P|440:267|432:292,1,52.5000020027161,4|0,3:2|0:0,0:0:0:0:
415,373,461551,6,0,P|364:359|312:350,1,105.000004005432,0|0,3:0|3:0,0:0:0:0:
233,360,461741,1,0,3:0:0:0:
233,360,461805,2,0,P|181:351|130:336,1,105.000004005432,0|0,3:0|0:0,0:0:0:0:
16,268,462059,5,0,3:0:0:0:
110,127,462186,2,0,P|95:189|95:255,1,105.000004005432,12|0,3:2|0:0,0:0:0:0:
378,264,462440,2,0,P|393:202|392:136,1,105.000004005432,0|0,3:0|0:0,0:0:0:0:
307,27,462695,1,0,3:0:0:0:
301,213,462822,1,0,3:0:0:0:
385,48,462949,5,12,3:2:0:0:
241,80,463076,1,0,3:0:0:0:
394,161,463203,1,0,3:0:0:0:
465,6,463330,1,8,3:2:0:0:
228,163,463457,5,0,3:0:0:0:
80,24,463584,1,0,3:0:0:0:
295,15,463712,1,8,3:2:0:0:
195,247,463839,1,0,3:0:0:0:
33,98,463966,5,0,3:0:0:0:
350,77,464093,1,8,3:2:0:0:
255,345,464220,1,0,3:0:0:0:
99,151,464347,1,0,3:0:0:0:
416,135,464474,6,0,P|405:194|396:258,1,105.000004005432,12|0,3:2|0:0,0:0:0:0:
433,342,464729,1,0,3:0:0:0:
433,342,464856,1,0,3:0:0:0:
195,284,464983,5,0,3:0:0:0:
195,284,465110,1,0,3:0:0:0:
398,238,465237,2,0,B|412:258|412:258|304:238,1,105.000004005432,8|0,3:2|0:0,0:0:0:0:
259,184,465491,1,0,3:0:0:0:
259,184,465618,1,0,3:0:0:0:
149,356,465746,1,0,3:0:0:0:
149,356,465873,1,0,3:0:0:0:
6,149,466000,5,4,3:1:0:0:
54,80,466127,1,0,3:0:0:0:
135,60,466254,1,0,3:0:0:0:
214,88,466381,1,0,3:0:0:0:
268,143,466508,2,0,P|261:205|256:263,1,105.000004005432,0|0,3:0|0:0,0:0:0:0:
30,294,466762,2,0,B|16:274|16:274|123:293,1,105.000004005432,8|0,3:2|0:0,0:0:0:0:
314,374,467017,5,0,3:0:0:0:
231,358,467144,1,0,3:0:0:0:
180,292,467271,1,0,3:0:0:0:
173,208,467398,1,0,3:0:0:0:
208,125,467525,5,6,1:2:0:0:
210,122,467589,1,0,0:0:0:0:
213,120,467652,1,0,0:0:0:0:
216,118,467716,1,0,0:0:0:0:
219,116,467779,1,0,0:0:0:0:
222,114,467843,1,0,0:0:0:0:
225,113,467907,1,0,0:0:0:0:
228,111,467970,1,0,0:0:0:0:
231,110,468034,1,0,0:0:0:0:
235,109,468097,1,0,0:0:0:0:
238,109,468161,1,0,0:0:0:0:
241,108,468224,1,0,0:0:0:0:
245,107,468288,6,0,L|250:144,1,35
264,218,468415,2,0,L|269:255,1,35
333,130,468542,2,0,L|338:167,1,35
352,241,468669,2,0,L|357:278,1,35
448,182,468796,2,0,L|395:190,1,35
299,326,468923,2,0,L|246:334,1,35
159,373,469051,6,0,P|151:355|151:336,1,35
63,351,469178,2,0,P|69:332|80:317,1,35
7,269,469305,2,0,P|23:258|41:255,1,35
19,171,469432,2,0,P|38:173|54:182,1,35
162,226,469559,6,0,P|169:208|169:189,1,35
258,204,469686,2,0,P|251:185|240:170,1,35
314,122,469813,2,0,P|297:111|279:108,1,35
302,24,469940,2,0,P|282:26|266:35,1,35
112,3,470068,6,0,P|141:10|162:14,1,35
92,77,470195,2,0,P|121:84|142:88,1,35
51,181,470322,6,0,P|21:188|0:192,1,35
71,255,470449,2,0,P|41:262|20:266,1,35
154,302,470576,6,0,L|148:351,2,46.6666666666667,2|0|0,0:0|0:0|0:0,0:0:0:0:
251,197,470830,2,0,L|245:246,2,46.6666666666667,2|0|0,0:0|0:0|0:0,0:0:0:0:
470,125,471084,5,2,0:0:0:0:
422,90,471169,1,0,0:0:0:0:
364,99,471254,1,0,0:0:0:0:
326,142,471339,5,2,0:0:0:0:
322,164,471423,1,0,0:0:0:0:
327,176,471508,1,0,0:0:0:0:
333,182,471593,5,2,0:0:0:0:
309,131,471678,1,0,0:0:0:0:
256,113,471762,1,0,0:0:0:0:
206,138,471847,5,2,0:0:0:0:
149,171,471932,1,0,0:0:0:0:
85,156,472017,1,0,0:0:0:0:
60,96,472101,5,2,0:0:0:0:
70,75,472186,1,0,0:0:0:0:
83,71,472271,1,0,0:0:0:0:
92,72,472356,5,2,0:0:0:0:
125,87,472440,1,0,0:0:0:0:
156,67,472525,1,0,0:0:0:0:
164,30,472610,5,2,0:0:0:0:
221,210,472737,1,2,0:0:0:0:
467,20,472864,6,2,B|374:9|398:61|287:47,1,175,2|0,0:0|0:0,0:1:0:0:
297,48,473627,5,8,3:2:0:0:
372,70,473754,1,0,3:0:0:0:
315,123,473881,1,0,3:0:0:0:
507,173,474008,5,8,3:2:0:0:
432,194,474135,1,0,3:0:0:0:
489,249,474263,1,0,3:0:0:0:
233,183,474390,5,8,3:2:0:0:
353,216,474517,1,0,3:0:0:0:
261,304,474644,1,0,3:0:0:0:
267,9,474772,5,8,3:2:0:0:
98,58,474899,1,0,3:0:0:0:
225,180,475026,1,0,3:0:0:0:
182,33,475153,5,8,3:2:0:0:
246,94,475280,1,0,3:0:0:0:
161,118,475407,1,0,3:0:0:0:
406,240,475534,5,8,3:2:0:0:
223,189,475661,1,0,3:0:0:0:
40,138,475789,1,0,3:0:0:0:
413,239,475916,5,8,3:2:0:0:
349,299,476043,1,0,3:0:0:0:
434,323,476170,1,0,3:0:0:0:
490,120,476297,5,8,3:2:0:0:
359,156,476424,1,0,3:0:0:0:
228,192,476551,1,0,3:0:0:0:
257,324,476678,6,0,P|260:297|268:273,1,52.5000020027161,8|0,3:2|0:0,0:0:0:0:
170,291,476805,2,0,P|159:266|154:241,1,52.5000020027161,0|0,3:0|0:0,0:0:0:0:
118,374,476933,2,0,P|96:358|79:338,1,52.5000020027161,0|0,3:0|0:0,0:0:0:0:
161,229,477060,6,0,P|176:207|196:190,1,52.5000020027161,8|0,3:2|0:0,0:0:0:0:
102,156,477187,2,0,P|105:129|113:105,1,52.5000020027161,0|0,3:0|0:0,0:0:0:0:
15,202,477314,2,0,P|4:177|0:152,1,52.5000020027161,0|0,3:0|0:0,0:0:0:0:
256,297,477440,6,0,P|253:270|245:246,1,52.5000020027161,8|0,3:2|0:0,0:0:0:0:
343,264,477568,2,0,P|354:239|359:214,1,52.5000020027161,0|0,3:0|0:0,0:0:0:0:
395,347,477695,2,0,P|417:331|434:311,1,52.5000020027161,0|0,3:2|0:0,0:0:0:0:
352,202,477822,6,0,P|337:180|317:163,1,52.5000020027161,8|0,3:2|0:0,0:0:0:0:
411,129,477950,2,0,P|408:102|400:78,1,52.5000020027161,0|0,3:0|0:0,0:0:0:0:
498,175,478077,2,0,P|509:150|513:125,1,52.5000020027161,0|0,3:0|0:0,0:0:0:0:
266,223,478204,6,0,P|258:247|256:274,1,52.5000020027161,8|0,3:2|0:0,0:0:0:0:
315,155,478331,2,0,P|340:149|364:139,1,52.5000020027161,0|0,3:0|0:0,0:0:0:0:
232,147,478458,2,0,P|214:127|193:112,1,52.5000020027161,0|0,3:0|0:0,0:0:0:0:
352,234,478585,6,0,P|369:254|390:269,1,52.5000020027161,8|0,3:2|0:0,0:0:0:0:
290,81,478712,2,0,P|298:56|300:30,1,52.5000020027161,0|0,3:0|0:0,0:0:0:0:
186,209,478839,2,0,P|160:214|136:224,1,52.5000020027161,0|0,3:0|0:0,0:0:0:0:
507,164,478966,6,0,P|397:167|122:251,1,367.500014019013,14|0,3:2|0:0,0:0:0:0:
99,297,479475,6,0,B|132:332|130:369|130:369|135:332|185:305,1,157.500006008148,2|0,0:0|0:0,0:0:0:0:
158,233,479729,5,14,0:0:0:0:
166,175,479793,1,0,0:0:0:0:
127,130,479856,1,0,0:0:0:0:
69,128,479920,1,0,0:0:0:0:
30,85,479983,1,0,0:0:0:0:
46,29,480047,1,0,0:0:0:0:
41,20,480110,5,10,0:0:0:0:
67,58,480174,1,0,0:0:0:0:
114,60,480238,1,0,0:0:0:0:
159,49,480301,1,0,0:0:0:0:
206,55,480365,1,0,0:0:0:0:
229,95,480428,1,0,0:0:0:0:
225,106,480491,5,10,0:0:0:0:
199,123,480555,1,0,0:0:0:0:
193,154,480619,1,0,0:0:0:0:
210,180,480683,1,0,0:0:0:0:
240,185,480746,1,0,0:0:0:0:
268,170,480810,1,0,0:0:0:0:
277,160,480873,6,0,P|293:172|313:207,1,52.5000020027161,10|0,0:0|0:0,0:0:0:0:
397,110,481000,2,0,P|394:129|374:164,1,52.5000020027161
454,225,481128,2,0,P|435:232|395:232,1,52.5000020027161,2|0,0:0|0:0,0:0:0:0:
493,42,481254,5,14,0:0:0:0:
444,72,481318,1,0,0:0:0:0:
409,118,481382,1,0,0:0:0:0:
387,171,481445,1,0,0:0:0:0:
383,229,481509,1,0,0:0:0:0:
387,286,481572,1,0,0:0:0:0:
396,296,481636,5,10,0:0:0:0:
368,257,481700,1,0,0:0:0:0:
321,261,481763,1,0,0:0:0:0:
277,279,481827,1,0,0:0:0:0:
230,281,481890,1,0,0:0:0:0:
203,241,481954,1,0,0:0:0:0:
196,230,482017,5,14,0:0:0:0:
167,215,482081,1,0,0:0:0:0:
135,218,482144,1,0,0:0:0:0:
112,240,482208,1,0,0:0:0:0:
104,270,482272,1,0,0:0:0:0:
114,299,482335,1,0,0:0:0:0:
107,308,482399,6,0,P|80:307|55:317,1,52.5000020027161,10|0,0:0|0:0,0:0:0:0:
261,308,482526,2,0,P|274:331|295:348,1,52.5000020027161,2|0,0:0|0:0,0:0:0:0:
219,155,482653,2,0,P|232:132|236:105,1,52.5000020027161,2|0,0:0|0:0,0:0:0:0:
44,3,482780,5,10,0:0:0:0:
96,26,482844,1,0,0:0:0:0:
150,47,482907,1,0,0:0:0:0:
205,64,482971,1,0,0:0:0:0:
261,79,483034,1,0,0:0:0:0:
317,91,483098,1,0,0:0:0:0:
321,100,483161,5,10,0:0:0:0:
329,53,483225,1,0,0:0:0:0:
373,36,483289,1,0,0:0:0:0:
414,56,483352,1,0,0:0:0:0:
425,102,483416,1,0,0:0:0:0:
397,139,483479,1,0,0:0:0:0:
405,147,483543,5,10,0:0:0:0:
376,159,483606,1,0,0:0:0:0:
370,190,483670,1,0,0:0:0:0:
388,214,483733,1,0,0:0:0:0:
417,225,483797,1,0,0:0:0:0:
446,213,483861,1,0,0:0:0:0:
465,208,483924,6,0,P|475:179|491:150,1,52.5000020027161,10|0,0:0|0:0,0:0:0:0:
256,144,484051,2,0,P|256:114|261:81,1,52.5000020027161,2|0,0:0|0:0,0:0:0:0:
71,204,484178,2,0,P|60:175|53:142,1,52.5000020027161,2|0,0:0|0:0,0:0:0:0:
51,8,484305,5,10,0:0:0:0:
56,7,484369,1,0,0:0:0:0:
61,8,484433,1,0,0:0:0:0:
65,11,484496,1,0,0:0:0:0:
68,15,484560,1,0,0:0:0:0:
70,19,484623,1,0,0:0:0:0:
101,32,484687,6,0,P|87:60|56:80,1,52.5000020027161,10|0,0:0|0:0,0:0:0:0:
178,112,484814,2,0,P|151:129|115:131,1,52.5000020027161,2|0,0:0|0:0,0:0:0:0:
30,205,484941,2,0,P|34:179|48:157,1,52.5000020027161,2|0,0:0|0:0,0:0:0:0:
483,364,485068,5,14,0:0:0:0:
490,371,485831,5,14,0:0:0:0:
485,355,485894,1,0,0:0:0:0:
467,359,485958,1,0,0:0:0:0:
465,335,486022,1,0,0:0:0:0:
452,347,486085,6,0,P|421:357|393:367,1,52.5000020027161
243,171,486212,5,10,0:0:0:0:
248,155,486276,1,0,0:0:0:0:
266,159,486339,1,0,0:0:0:0:
268,135,486403,1,0,0:0:0:0:
281,147,486466,6,0,P|312:157|340:167,1,52.5000020027161
336,297,486594,6,0,L|316:358,1,52.5000020027161,14|0,0:0|0:0,0:0:0:0:
351,285,486721,2,0,L|413:271,1,52.5000020027161,2|0,0:0|0:0,0:0:0:0:
333,278,486848,2,0,L|290:230,1,52.5000020027161,2|0,0:0|0:0,0:0:0:0:
501,218,486975,5,10,0:0:0:0:
486,225,487039,1,0,0:0:0:0:
457,217,487102,1,0,0:0:0:0:
414,182,487166,1,0,0:0:0:0:
412,121,487229,1,0,0:0:0:0:
457,64,487293,1,0,0:0:0:0:
476,55,487356,5,14,0:0:0:0:
492,60,487420,1,0,0:0:0:0:
488,78,487483,1,0,0:0:0:0:
512,80,487547,1,0,0:0:0:0:
500,93,487611,6,0,P|490:124|480:152,1,52.5000020027161
274,8,487738,5,10,0:0:0:0:
258,13,487801,1,0,0:0:0:0:
262,31,487865,1,0,0:0:0:0:
238,33,487928,1,0,0:0:0:0:
250,46,487992,6,0,P|260:77|270:105,1,52.5000020027161
49,169,488119,5,14,0:0:0:0:
33,174,488183,1,0,0:0:0:0:
37,192,488246,1,0,0:0:0:0:
13,194,488310,1,0,0:0:0:0:
25,207,488373,6,0,P|35:238|45:266,1,52.5000020027161
251,122,488500,5,10,0:0:0:0:
267,127,488564,1,0,0:0:0:0:
263,145,488628,1,0,0:0:0:0:
287,147,488691,1,0,0:0:0:0:
275,160,488755,6,0,P|265:191|255:219,1,52.5000020027161
178,375,488882,6,0,P|183:335|189:303,1,52.5000020027161,14|0,0:0|0:0,0:0:0:0:
158,250,489009,2,0,P|160:223|165:197,1,52.5000020027161,2|0,0:0|0:0,0:0:0:0:
138,125,489136,2,0,P|140:98|145:72,1,52.5000020027161,2|0,0:0|0:0,0:0:0:0:
0,12,489263,5,10,0:0:0:0:
2,22,489327,1,0,0:0:0:0:
8,30,489390,1,0,0:0:0:0:
18,32,489454,1,0,0:0:0:0:
24,45,489517,6,0,P|44:61|63:79,1,52.5000020027161
355,207,489644,5,14,0:0:0:0:
345,203,489708,1,0,0:0:0:0:
335,204,489772,1,0,0:0:0:0:
328,212,489835,1,0,0:0:0:0:
314,211,489899,6,0,P|289:220|264:227,1,52.5000020027161
42,383,490026,5,10,0:0:0:0:
50,376,490089,1,0,0:0:0:0:
54,367,490153,1,0,0:0:0:0:
51,357,490216,1,0,0:0:0:0:
59,345,490280,6,0,P|62:319|69:293,1,52.5000020027161
180,113,490407,5,14,3:2:0:0:
173,266,490534,1,0,3:0:0:0:
43,188,490661,1,0,3:0:0:0:
249,35,490789,5,8,3:2:0:0:
277,127,490916,1,0,3:0:0:0:
512,147,491043,5,0,3:0:0:0:
460,152,491106,1,0,3:0:0:0:
410,135,491170,1,0,3:0:0:0:
371,101,491233,1,0,3:0:0:0:
350,53,491297,1,0,3:0:0:0:
440,15,491424,5,0,3:0:0:0:
449,24,491488,1,0,3:0:0:0:
456,35,491551,1,0,3:0:0:0:
461,47,491615,1,0,3:0:0:0:
463,60,491678,1,0,3:0:0:0:
333,206,491805,2,0,P|367:216|392:223,1,52.5000020027161,0|0,3:0|0:0,0:0:0:0:
493,296,491933,6,0,B|416:315|416:315|391:360|391:360|303:379,1,210.000008010865,4|8,1:0|0:0,0:0:0:0:
313,377,492441,6,0,L|320:327,1,35,0|0,3:0|0:0,0:0:0:0:
252,177,492568,2,0,L|245:127,1,35,0|0,3:0|0:0,0:0:0:0:
210,384,492695,2,0,B|253:283|253:283|243:254,1,140,8|0,0:0|3:0,0:0:0:0:
165,203,493077,5,0,3:0:0:0:
94,301,493204,2,0,L|163:289,1,70,8|0,0:0|0:0,0:0:0:0:
327,275,493458,5,0,3:0:0:0:
327,275,493585,1,0,3:0:0:0:
473,191,493712,2,0,L|420:182,1,35,8|0,0:0|0:0,0:0:0:0:
349,175,493839,1,0,0:0:0:0:
349,175,493903,1,0,0:0:0:0:
349,175,493966,2,0,P|339:120|336:99,1,70,0|0,3:0|0:0,0:0:0:0:
262,34,494221,5,8,0:0:0:0:
208,98,494348,1,0,3:0:0:0:
124,109,494475,1,0,3:0:0:0:
48,73,494602,1,0,3:0:0:0:
116,30,494729,1,8,0:0:0:0:
42,214,494856,2,0,L|97:200,1,35,0|0,3:0|0:0,0:0:0:0:
280,370,494983,6,0,L|287:335,1,35,0|0,3:0|0:0,0:0:0:0:
354,246,495110,2,0,L|346:280,1,35,0|0,3:0|0:0,0:0:0:0:
202,372,495238,2,0,L|196:297,1,70,8|0,0:0|0:0,0:0:0:0:
242,230,495492,5,0,3:0:0:0:
242,230,495619,1,0,3:0:0:0:
79,87,495746,1,8,0:0:0:0:
127,26,495873,1,0,3:0:0:0:
300,154,496000,5,4,3:0:0:0:
75,205,496127,1,4,3:0:0:0:
238,8,496255,5,10,0:0:0:0:
272,31,496339,1,0,0:0:0:0:
280,72,496424,1,0,0:0:0:0:
267,112,496509,5,2,3:2:0:0:
314,82,496594,1,0,0:0:0:0:
368,91,496678,1,0,0:0:0:0:
397,138,496763,5,10,0:0:0:0:
351,134,496848,1,0,0:0:0:0:
324,98,496933,1,0,0:0:0:0:
333,23,497017,5,2,3:2:0:0:
372,0,497102,1,0,0:0:0:0:
415,14,497187,1,0,0:0:0:0:
449,43,497271,6,0,L|438:102,1,35,10|0,0:0|0:0,0:0:0:0:
270,165,497399,2,0,L|281:224,1,35,2|0,0:0|0:0,0:0:0:0:
464,376,497526,1,2,3:2:0:0:
429,371,497589,1,0,0:0:0:0:
399,354,497653,1,0,0:0:0:0:
377,327,497716,1,0,0:0:0:0:
366,294,497780,1,10,0:0:0:0:
369,259,497844,1,0,0:0:0:0:
384,228,497907,1,0,0:0:0:0:
409,204,497971,1,0,0:0:0:0:
444,198,498034,5,2,3:2:0:0:
433,252,498098,1,0,0:0:0:0:
400,297,498161,1,0,0:0:0:0:
352,324,498225,1,0,0:0:0:0:
296,327,498288,1,10,0:0:0:0:
245,306,498352,1,0,0:0:0:0:
207,265,498416,1,0,0:0:0:0:
190,212,498479,1,0,0:0:0:0:
198,157,498543,5,0,3:0:0:0:
401,81,498670,1,0,3:0:0:0:
73,7,498797,2,0,P|83:59|86:88,1,70,8|0,0:0|0:0,0:0:0:0:
70,374,499051,6,0,P|60:356|60:333,1,35,0|0,3:0|0:0,0:0:0:0:
0,291,499178,2,0,P|3:270|18:253,1,35,0|0,3:0|0:0,0:0:0:0:
105,278,499305,2,0,P|134:257|172:246,1,70,8|0,0:0|0:0,0:0:0:0:
351,278,499560,5,0,3:0:0:0:
351,278,499687,1,0,3:0:0:0:
347,372,499814,2,0,P|318:351|280:340,1,70,8|0,0:0|0:0,0:0:0:0:
64,135,500068,6,0,P|100:153|138:152,1,70,0|0,3:0|0:0,0:0:0:0:
480,194,500322,1,8,0:0:0:0:
459,119,500449,1,0,3:0:0:0:
394,77,500577,1,0,3:0:0:0:
317,80,500704,1,0,3:0:0:0:
212,220,500831,1,8,0:0:0:0:
212,220,500894,1,0,0:0:0:0:
212,220,500958,2,0,P|217:189|220:170,1,35,2|0,0:0|0:0,0:0:0:0:
254,8,501085,6,0,P|251:25|248:42,1,35,2|0,3:2|0:0,0:0:0:0:
330,189,501212,1,0,0:0:0:0:
330,189,501276,1,0,0:0:0:0:
330,189,501339,2,0,L|279:174,1,35,10|0,0:0|0:0,0:0:0:0:
118,270,501466,1,0,0:0:0:0:
118,270,501530,1,0,0:0:0:0:
118,270,501594,6,0,L|169:285,1,35,2|0,3:2|0:0,0:0:0:0:
310,271,501721,2,0,L|276:261,1,35,2|0,0:0|0:0,0:0:0:0:
107,17,501848,2,0,L|102:64,1,35,10|0,0:0|0:0,0:0:0:0:
31,211,501975,1,0,0:0:0:0:
31,211,502038,1,0,0:0:0:0:
31,211,502102,6,0,L|34:176,1,35,2|0,3:2|0:0,0:0:0:0:
193,27,502229,1,0,0:0:0:0:
193,27,502293,1,0,0:0:0:0:
193,27,502356,2,0,L|189:61,1,35,10|0,0:0|0:0,0:0:0:0:
120,192,502483,1,0,0:0:0:0:
120,192,502547,1,0,0:0:0:0:
120,192,502610,6,0,L|164:197,1,35,2|0,3:2|0:0,0:0:0:0:
2,95,502738,1,0,0:0:0:0:
2,95,502801,1,0,0:0:0:0:
2,95,502865,2,0,L|46:100,1,35,10|0,0:0|0:0,0:0:0:0:
228,159,502992,2,0,L|235:117,1,35,2|0,0:0|0:0,0:0:0:0:
128,278,503119,6,0,L|181:262,1,35,2|0,3:2|0:0,0:0:0:0:
441,187,503246,2,0,L|494:171,1,35,2|0,3:2|0:0,0:0:0:0:
382,111,503373,6,0,L|374:157,1,35,10|0,0:0|0:0,0:0:0:0:
354,247,503500,2,0,L|346:293,1,35,2|0,0:0|0:0,0:0:0:0:
220,366,503627,2,0,L|288:351,1,70,2|0,3:2|0:0,0:0:0:0:
455,332,503882,1,8,0:0:0:0:
253,252,504009,1,0,3:0:0:0:
432,205,504136,5,0,3:0:0:0:
432,205,504263,1,0,3:0:0:0:
214,179,504390,1,8,0:0:0:0:
214,179,504517,1,0,3:0:0:0:
471,72,504644,1,0,3:0:0:0:
471,72,504771,1,0,3:0:0:0:
134,15,504899,5,8,0:0:0:0:
264,269,505026,2,0,P|229:265|195:261,1,70,0|0,3:0|0:0,0:0:0:0:
144,193,505280,5,0,3:0:0:0:
9,376,505407,2,0,P|43:371|78:367,1,70,8|0,0:0|0:0,0:0:0:0:
321,349,505661,5,0,3:0:0:0:
321,349,505788,1,0,3:0:0:0:
68,262,505916,1,8,0:0:0:0:
68,262,506043,1,0,3:0:0:0:
368,19,506170,6,0,P|357:70|354:106,1,70,0|0,3:0|0:0,0:0:0:0:
404,372,506424,2,0,P|415:321|418:285,1,83.9999974365235,8|0,0:0|0:0,0:0:0:0:
228,81,506678,2,0,P|215:139|211:180,1,97.9999970092774,0|0,3:0|0:0,0:0:0:0:
49,372,506933,2,0,P|63:304|67:256,1,112,8|0,0:0|0:0,0:0:0:0:
91,61,507187,6,0,L|67:57,1,21,2|0,3:2|0:0,0:0:0:0:
63,136,507441,5,8,0:0:0:0:
173,69,507568,1,8,0:0:0:0:
245,192,507695,1,8,0:0:0:0:
343,43,507822,1,8,0:0:0:0:
415,241,507949,1,8,0:0:0:0:
463,26,508077,6,0,B|299:7|299:7|259:33,1,210.000008010865,4|0,3:2|3:0,0:0:0:0:
329,194,508458,1,8,3:2:0:0:
432,107,508585,1,0,3:0:0:0:
176,79,508712,5,0,3:0:0:0:
170,158,508839,1,0,3:0:0:0:
246,127,508966,1,8,3:2:0:0:
246,127,509094,1,0,3:0:0:0:
21,145,509221,5,0,3:0:0:0:
89,343,509348,1,0,3:0:0:0:
286,217,509475,1,8,3:2:0:0:
286,217,509538,1,0,3:0:0:0:
286,217,509602,2,0,L|227:209,1,52.5000020027161,0|0,3:0|0:0,0:0:0:0:
169,260,509729,6,0,L|110:252,1,52.5000020027161,0|0,3:0|0:0,0:0:0:0:
7,63,509856,2,0,L|59:70,1,52.5000020027161,0|0,3:0|0:0,0:0:0:0:
120,128,509983,1,8,3:2:0:0:
99,2,510110,1,0,3:0:0:0:
329,29,510238,5,0,3:0:0:0:
301,104,510365,1,0,3:0:0:0:
512,39,510492,2,0,P|461:24|410:12,1,105.000004005432,8|0,3:2|0:0,0:0:0:0:
249,39,510746,5,0,3:0:0:0:
381,246,510873,1,0,3:0:0:0:
467,104,511000,1,8,3:2:0:0:
398,140,511127,1,0,3:0:0:0:
382,345,511255,5,0,3:0:0:0:
507,264,511382,1,0,3:0:0:0:
274,118,511509,1,8,3:2:0:0:
220,370,511636,1,0,3:0:0:0:
381,246,511763,6,0,L|310:231,1,52.5000020027161,0|0,3:0|0:0,0:0:0:0:
117,287,511890,1,0,3:0:0:0:
117,287,511954,1,0,3:0:0:0:
117,287,512017,2,0,L|168:297,1,52.5000020027161,8|0,3:2|0:0,0:0:0:0:
297,384,512144,6,0,P|263:330|255:266,1,105.000004005432,4|0,3:2|0:0,0:0:0:0:
302,21,512399,1,0,3:0:0:0:
352,88,512526,5,8,3:2:0:0:
352,88,512653,1,0,3:0:0:0:
139,57,512780,1,0,3:0:0:0:
139,57,512907,1,0,3:0:0:0:
207,104,513034,5,8,3:2:0:0:
227,182,513161,1,0,3:0:0:0:
58,285,513288,5,0,3:0:0:0:
8,111,513416,1,0,3:0:0:0:
147,162,513543,1,8,3:2:0:0:
188,363,513670,1,0,3:0:0:0:
85,215,513797,5,0,3:0:0:0:
174,16,513924,1,0,3:0:0:0:
232,69,514051,1,8,3:2:0:0:
101,44,514178,1,0,3:0:0:0:
296,10,514305,5,0,3:0:0:0:
349,203,514433,1,0,3:0:0:0:
178,141,514560,1,8,3:2:0:0:
430,2,514687,1,0,3:2:0:0:
512,173,514814,6,0,P|446:159|390:148,1,105.000004005432,0|0,3:0|0:0,0:0:0:0:
336,101,515068,1,8,3:2:0:0:
277,157,515195,1,0,3:0:0:0:
103,49,515322,5,0,3:0:0:0:
3,346,515449,1,0,3:0:0:0:
83,354,515577,6,0,P|77:328|71:303,1,52.5000020027161,8|0,3:2|0:0,0:0:0:0:
37,166,515704,2,0,P|31:140|24:114,1,52.5000020027161,0|0,3:0|0:0,0:0:0:0:
283,40,515831,6,0,P|267:61|252:82,1,52.5000020027161,8|0,3:2|0:0,0:0:0:0:
268,236,515958,2,0,P|256:212|246:188,1,52.5000020027161,8|0,3:2|0:0,0:0:0:0:
105,126,516085,2,0,P|131:128|157:131,1,52.5000020027161,8|0,3:2|0:0,0:0:0:0:
196,19,516212,6,0,B|249:-15|418:14|252:109|353:186|411:166,1,280,4|0,3:2|0:0,0:0:0:0:
435,32,516848,2,0,P|415:61|403:99,1,70,4|0,0:0|0:0,0:0:0:0:
444,229,517102,1,0,0:0:0:0:
444,229,517229,1,0,0:0:0:0:
306,376,517356,6,0,P|275:290|277:157,1,210,12|0,0:0|0:0,0:0:0:0:
13,174,517865,2,0,P|25:141|58:102,1,70,4|0,0:0|0:0,0:0:0:0:
121,64,518119,1,0,3:0:0:0:
121,64,518246,1,0,3:0:0:0:
168,148,518373,5,4,3:2:0:0:
37,35,518500,1,0,3:0:0:0:
232,6,518627,2,0,P|218:83|215:104,1,70,0|0,3:0|0:0,0:0:0:0:
274,172,518882,2,0,P|260:249|257:270,1,70,4|0,0:0|0:0,0:0:0:0:
242,354,519136,1,0,0:0:0:0:
242,354,519263,1,0,0:0:0:0:
40,233,519390,6,0,P|70:215|103:204,1,70,12|0,0:0|0:0,0:0:0:0:
301,99,519644,2,0,P|334:107|365:124,1,70
424,187,519899,1,4,0:0:0:0:
213,209,520026,1,0,0:0:0:0:
213,209,520089,1,0,0:0:0:0:
213,209,520153,6,0,L|204:156,1,35,0|0,3:0|0:0,0:0:0:0:
100,134,520280,2,0,L|91:81,1,35,0|0,3:0|0:0,0:0:0:0:
210,35,520407,6,0,B|28:10|28:10|65:42,1,210,4|0,0:0|0:0,0:0:0:0:
280,91,520916,2,0,P|313:57|319:12,1,70,4|0,0:0|0:0,0:0:0:0:
406,18,521170,1,0,0:0:0:0:
406,18,521297,1,0,0:0:0:0:
210,35,521424,6,0,P|239:101|248:259,1,210,12|0,0:0|0:0,0:0:0:0:
188,282,521869,1,0,0:0:0:0:
188,282,521933,2,0,P|159:250|188:192,1,105,4|0,0:0|0:0,0:0:0:0:
295,151,522187,2,0,P|312:168|323:196,1,35,0|0,3:0|0:0,0:0:0:0:
321,282,522314,2,0,P|304:299|276:310,1,35,0|0,3:0|0:0,0:0:0:0:
206,349,522441,6,0,P|212:325|230:302,1,35,6|0,0:0|0:0,0:0:0:0:
306,260,522568,2,0,P|329:266|352:284,1,35,2|0,0:0|0:0,0:0:0:0:
421,328,522695,6,0,P|397:334|368:329,1,35,2|0,0:0|0:0,0:0:0:0:
293,285,522822,2,0,P|286:261|291:232,1,35,2|0,0:0|0:0,0:0:0:0:
178,197,522949,6,0,L|219:187,1,35,6|0,0:0|0:0,0:0:0:0:
409,136,523077,2,0,L|368:126,1,35,2|0,0:0|0:0,0:0:0:0:
55,107,523204,6,0,L|46:62,1,35,2|0,0:0|0:0,0:0:0:0:
131,92,523331,2,0,L|122:47,1,35,2|0,0:0|0:0,0:0:0:0:
77,0,523458,5,12,0:0:0:0:
19,307,523585,1,0,0:0:0:0:
19,307,523649,1,0,0:0:0:0:
19,307,523712,2,0,L|74:290,1,35
297,360,523839,1,0,0:0:0:0:
297,360,523903,1,0,0:0:0:0:
297,360,523966,6,0,P|239:348|152:343,1,125.999996154785,6|0,0:0|0:0,0:0:0:0:
164,358,524221,6,0,P|197:348|225:302,1,52.5000020027161
370,306,524348,2,0,P|385:285|391:259,1,52.5000020027161
244,30,524475,6,0,P|228:50|222:76,1,35,4|0,1:0|0:0,0:0:0:0:
272,149,524602,1,0,0:0:0:0:
272,149,524666,1,0,0:0:0:0:
272,149,524729,6,0,P|287:128|293:102,1,35,2|0,0:0|0:0,0:0:0:0:
365,115,524856,2,0,P|368:89|360:64,1,35,2|0,0:0|0:0,0:0:0:0:
138,10,524983,6,0,P|139:36|151:59,1,35,2|0,0:0|0:0,0:0:0:0:
88,95,525110,2,0,P|102:116|124:131,1,35,2|0,0:0|0:0,0:0:0:0:
18,7,525238,6,0,P|41:18|67:20,1,35,2|0,0:0|0:0,0:0:0:0:
0,195,525365,2,0,P|26:193|49:181,1,35,2|0,0:0|0:0,0:0:0:0:
116,201,525492,5,8,3:2:0:0:
191,372,525619,1,8,3:2:0:0:
191,372,525683,1,8,3:2:0:0:
191,372,525746,1,8,3:2:0:0:
94,367,525873,1,8,3:2:0:0:
179,283,526000,1,8,3:2:0:0:
321,234,526127,1,8,3:2:0:0:
490,255,526255,5,0,3:0:0:0:
437,358,526382,1,4,3:2:0:0:
437,358,526445,1,0,3:0:0:0:
437,358,526509,2,0,P|408:276|423:139,1,210,0|0,3:2|0:0,0:0:0:0:
177,77,527017,2,0,P|200:41|232:19,1,70,4|0,0:0|0:0,0:0:0:0:
308,13,527271,1,0,0:0:0:0:
308,13,527399,1,0,0:0:0:0:
232,229,527526,6,0,P|176:209|67:198,1,140,12|0,0:0|0:0,0:0:0:0:
16,327,527907,1,0,0:0:0:0:
16,327,527971,1,0,0:0:0:0:
16,327,528034,2,0,P|72:346|145:354,1,105,4|0,0:0|0:0,0:0:0:0:
201,380,528288,2,0,P|236:370|275:346,1,70
448,368,528543,6,0,P|394:307|382:241,1,140,4|0,0:0|0:0,0:0:0:0:
422,1,528924,2,0,P|454:34|468:85,1,70,0|4,0:0|0:0,0:0:0:0:
373,175,529178,1,0,0:0:0:0:
209,118,529305,2,0,P|227:103|248:94,2,46.6666666666667,0|0|0,3:0|3:0|3:0,3:0:0:0:
326,42,529560,6,0,P|288:22|234:17,1,70,12|0,0:0|0:0,0:0:0:0:
184,41,529814,1,0,0:0:0:0:
195,208,529941,1,0,0:0:0:0:
373,175,530068,2,0,P|404:159|438:151,1,70,4|0,0:0|0:0,0:0:0:0:
332,272,530322,1,0,0:0:0:0:
512,169,530449,1,0,0:0:0:0:
292,124,530577,6,0,P|245:72|183:40,1,140,4|0,0:0|0:0,0:0:0:0:
112,5,530958,1,0,0:0:0:0:
22,112,531085,2,0,P|78:93|112:94,1,70,4|0,0:0|0:0,0:0:0:0:
148,148,531339,1,0,0:0:0:0:
347,39,531466,1,0,0:0:0:0:
293,358,531594,6,0,P|229:340|124:335,1,167.999994873047,12|0,0:0|0:0,0:0:0:0:
458,255,531975,1,0,0:0:0:0:
488,330,532102,2,0,P|418:326|371:311,1,83.9999974365235,4|0,0:0|0:0,0:0:0:0:
298,230,532356,1,0,0:0:0:0:
511,163,532483,1,0,0:0:0:0:
275,31,532610,6,0,P|246:77|218:237,1,195.999994018555,4|0,0:0|0:0,0:0:0:0:
36,94,532992,1,0,0:0:0:0:
89,22,533119,2,0,P|105:48|121:139,1,97.9999970092774,4|0,0:0|0:0,0:0:0:0:
39,375,533373,6,0,P|17:334|15:291,2,74.6666666666667,0|0|0,3:0|3:0|3:0,3:0:0:0:
208,293,533627,6,0,P|149:348|81:324,1,112,12|0,0:0|0:0,0:0:0:0:
75,269,533882,2,0,P|76:222|96:184,2,74.6666666666667,0|0|0,3:0|3:0|3:0,3:0:0:0:
17,152,534136,5,8,3:2:0:0:
266,358,534263,1,8,3:2:0:0:
489,165,534390,1,8,3:2:0:0:
439,81,534517,6,0,L|489:388,1,280,4|0,1:0|3:0,0:0:0:0:
508,257,534899,1,12,0:0:0:0:
293,71,535026,1,0,3:0:0:0:
239,341,535153,1,0,3:0:0:0:
424,160,535280,1,0,3:0:0:0:
121,34,535407,1,8,0:0:0:0:
23,306,535534,6,0,B|242:258|242:258|304:208,1,280,4|0,1:0|3:0,0:0:0:0:
204,178,535916,1,12,0:0:0:0:
365,355,536043,1,0,3:0:0:0:
91,218,536170,5,0,3:0:0:0:
343,6,536297,1,0,3:0:0:0:
458,325,536424,1,8,0:0:0:0:
257,36,536551,6,0,P|328:154|319:291,1,280,4|0,1:0|3:0,0:0:0:0:
166,377,536933,5,12,0:0:0:0:
106,252,537060,1,0,3:0:0:0:
422,144,537187,5,4,3:2:0:0:
287,368,537314,1,0,3:0:0:0:
40,182,537441,1,12,0:0:0:0:
100,0,537568,2,0,B|148:235|148:235|199:261,1,280,4|0,1:0|3:0,3:0:0:0:
240,49,537949,1,8,3:2:0:0:
309,280,538077,1,0,3:0:0:0:
487,198,538204,1,8,3:2:0:0:
164,104,538331,1,8,3:2:0:0:
490,12,538458,5,0,3:0:0:0:
491,349,538585,2,0,B|473:377|473:377|207:311,1,280,4|0,1:0|3:0,0:0:0:0:
146,216,538966,1,12,0:0:0:0:
377,248,539094,1,0,3:0:0:0:
109,365,539221,5,0,3:0:0:0:
111,66,539348,1,0,3:0:0:0:
464,279,539475,1,8,0:0:0:0:
30,169,539602,6,0,P|115:147|199:334,1,280,4|0,1:0|3:0,0:0:0:0:
192,365,539983,1,4,1:0:0:0:
399,214,540110,1,0,3:0:0:0:
169,125,540238,1,0,3:0:0:0:
371,332,540365,1,0,3:0:0:0:
506,84,540492,1,8,0:0:0:0:
207,17,540619,6,0,B|236:251|236:251|271:224,1,280,4|0,1:0|3:0,0:0:0:0:
485,0,541000,2,0,B|406:60|406:60|387:109,1,140,12|0,0:0|0:0,0:0:0:0:
467,342,541255,2,0,L|487:274,1,70,0|0,3:0|0:0,0:0:0:0:
354,179,541382,1,0,3:0:0:0:
354,179,541445,1,0,3:0:0:0:
354,179,541509,2,0,L|373:258,1,70,8|0,3:2|0:0,0:0:0:0:
245,328,541636,2,0,L|315:307,1,70,0|0,3:0|0:0,0:0:0:0:
438,206,541763,5,0,1:0:0:0:
487,146,542017,5,0,1:0:0:0:
32,63,542271,5,8,1:2:0:0:
32,63,542399,1,8,1:2:0:0:
94,0,542653,6,0,P|78:65|42:305,1,280,4|0,1:0|3:0,0:0:0:0:
109,344,543034,1,12,0:0:0:0:
293,195,543161,1,0,3:0:0:0:
470,379,543288,5,0,3:0:0:0:
284,285,543416,1,0,3:0:0:0:
480,125,543543,1,8,0:0:0:0:
204,319,543670,1,4,1:0:0:0:
70,258,543797,6,0,B|182:241|182:241|223:213,1,140,0|0,3:0|3:0,0:0:0:0:
377,99,544051,2,0,B|264:116|264:116|224:144,1,140,12|0,0:0|0:0,0:0:0:0:
423,170,544305,1,0,3:0:0:0:
480,32,544433,1,0,3:0:0:0:
287,13,544560,1,8,0:0:0:0:
312,218,544687,6,0,B|467:275|467:275|423:170,1,280,4|8,1:0|0:0,0:0:0:0:
217,358,545068,2,0,B|325:334|325:334|374:346,1,140,12|0,0:0|0:0,0:0:0:0:
32,360,545322,5,0,3:0:0:0:
246,263,545449,1,0,3:0:0:0:
68,271,545577,2,0,P|11:255|11:167,1,140,8|0,0:0|0:0,0:0:0:0:
68,117,545831,5,0,1:0:0:0:
51,42,546085,5,0,1:0:0:0:
427,326,546339,5,8,1:2:0:0:
427,326,546466,1,8,1:2:0:0:
272,355,546594,1,0,3:0:0:0:
501,365,546721,6,0,P|458:290|441:73,1,280,4|0,1:0|0:0,0:0:0:0:
282,10,547102,2,0,P|354:47|329:121,1,140,12|0,0:0|0:0,0:0:0:0:
243,281,547356,1,4,3:2:0:0:
188,289,547420,1,0,3:2:0:0:
138,266,547483,1,0,3:2:0:0:
110,218,547547,1,0,3:2:0:0:
113,163,547610,6,0,P|141:190|145:228,1,70,12|0,0:0|0:0,0:0:0:0:
35,347,547738,2,0,P|53:316|57:275,1,70,0|0,3:0|0:0,0:0:0:0:
39,186,547865,1,4,3:2:0:0:
39,186,547992,1,0,3:0:0:0:
234,209,548119,1,12,0:0:0:0:
146,33,548246,1,0,3:0:0:0:
14,42,548373,6,0,P|40:80|158:108,1,140,4|0,3:2|0:0,0:0:0:0:
355,18,548627,2,0,P|309:21|225:109,1,140,12|0,0:0|3:0,0:0:0:0:
315,256,548818,1,0,3:0:0:0:
315,256,548882,6,0,P|360:252|444:164,1,140,4|0,3:2|0:0,0:0:0:0:
386,97,549136,6,0,P|372:115|373:157,1,52.5,2|0,0:0|0:0,0:0:0:0:
184,377,549390,6,0,P|225:309|215:199,1,157.500006008148,14|0,3:2|0:0,0:0:0:0:
258,163,549644,6,0,P|239:140|203:120,1,52.5000020027161,2|0,0:0|0:0,0:0:0:0:
242,47,549771,2,0,P|214:36|172:37,1,52.5000020027161,2|0,0:0|0:0,0:0:0:0:
0,201,549899,6,0,L|74:190,1,52.5000020027161,6|0,3:2|0:0,0:0:0:0:
136,101,550026,1,0,0:0:0:0:
136,101,550089,1,0,0:0:0:0:
136,101,550153,2,0,L|84:108,1,52.5000020027161,2|0,0:0|0:0,0:0:0:0:
105,279,550280,1,0,0:0:0:0:
105,279,550344,1,0,0:0:0:0:
105,279,550407,6,0,L|156:271,1,52.5000020027161,14|0,3:2|0:0,0:0:0:0:
221,177,550534,2,0,L|169:184,1,52.5000020027161,2|0,0:0|0:0,0:0:0:0:
285,366,550661,2,0,L|266:301,1,52.5000020027161,2|0,0:0|0:0,0:0:0:0:
413,263,550788,1,0,0:0:0:0:
413,263,550852,1,0,0:0:0:0:
413,263,550916,6,0,L|419:208,1,52.5000020027161,6|0,3:2|0:0,0:0:0:0:
323,26,551043,1,0,0:0:0:0:
323,26,551106,1,0,0:0:0:0:
323,26,551170,2,0,L|317:78,1,52.5000020027161,2|0,0:0|0:0,0:0:0:0:
182,44,551297,2,0,L|246:49,1,52.5000020027161,2|0,0:0|0:0,0:0:0:0:
458,125,551424,5,12,3:2:0:0:
458,125,551488,1,0,0:0:0:0:
458,125,551551,2,0,L|400:121,1,52.5000020027161,2|0,0:0|0:0,0:0:0:0:
207,125,551678,2,0,P|240:170|254:247,1,105.000004005432,2|0,0:0|0:0,0:0:0:0:
217,287,551869,1,0,0:0:0:0:
217,287,551933,6,0,P|184:274|155:276,1,52.5000020027161,6|0,3:2|0:0,0:0:0:0:
102,230,552060,2,0,P|68:241|47:261,1,52.5000020027161,2|0,0:0|0:0,0:0:0:0:
26,371,552187,2,0,P|93:346|133:345,1,105.000004005432,2|0,0:0|0:0,0:0:0:0:
253,368,552377,1,0,0:0:0:0:
253,368,552441,6,0,P|305:362|352:341,1,105.000004005432,14|0,3:2|0:0,0:0:0:0:
455,379,552632,1,0,0:0:0:0:
455,379,552695,2,0,P|436:347|431:321,1,52.5000020027161,2|0,0:0|0:0,0:0:0:0:
207,125,552822,2,0,P|206:87|215:62,1,52.5000020027161,2|0,0:0|0:0,0:0:0:0:
470,235,552949,6,0,L|395:235,1,52.5000020027161,6|0,3:2|0:0,0:0:0:0:
198,237,553077,1,0,0:0:0:0:
198,237,553140,1,0,0:0:0:0:
198,237,553204,2,0,L|273:237,1,52.5000020027161,2|0,0:0|0:0,0:0:0:0:
346,114,553331,1,0,0:0:0:0:
346,114,553394,1,0,0:0:0:0:
346,114,553458,6,0,L|271:113,1,52.5000020027161,14|0,3:2|0:0,0:0:0:0:
120,4,553585,2,0,L|119:69,1,52.5000020027161,2|0,0:0|0:0,0:0:0:0:
61,218,553712,1,0,0:0:0:0:
45,216,553776,1,0,0:0:0:0:
43,203,553839,2,0,P|63:219|64:261,1,52.5000020027161,2|0,0:0|0:0,0:0:0:0:
38,343,553966,6,0,P|18:327|17:285,1,52.5000020027161,6|0,3:2|0:0,0:0:0:0:
148,153,554094,1,0,0:0:0:0:
164,151,554157,1,0,0:0:0:0:
166,138,554221,2,0,P|146:154|145:196,1,52.5000020027161,2|0,0:0|0:0,0:0:0:0:
171,278,554348,2,0,P|191:262|192:220,1,52.5000020027161,2|0,0:0|0:0,0:0:0:0:
26,104,554475,6,0,P|58:114|96:115,1,52.5000020027161,14|0,3:2|0:0,0:0:0:0:
244,169,554602,1,0,0:0:0:0:
244,169,554666,1,0,0:0:0:0:
244,169,554729,2,0,P|277:167|313:155,1,52.5000020027161,2|0,0:0|0:0,0:0:0:0:
452,3,554856,1,0,0:0:0:0:
452,3,554920,1,0,0:0:0:0:
452,3,554983,6,0,P|438:30|433:62,1,52.5000020027161,6|0,3:2|0:0,0:0:0:0:
362,66,555110,2,0,P|363:96|375:126,1,52.5000020027161,2|0,0:0|0:0,0:0:0:0:
447,283,555238,1,0,0:0:0:0:
447,283,555301,1,0,0:0:0:0:
447,283,555365,2,0,P|413:265|388:257,1,52.5000020027161,2|0,0:0|0:0,0:0:0:0:
336,309,555492,6,0,P|298:317|274:327,1,52.5000020027161,14|0,3:2|0:0,0:0:0:0:
469,162,555619,1,0,0:0:0:0:
469,162,555683,1,0,0:0:0:0:
469,162,555746,2,0,P|435:180|410:188,1,52.5000020027161,2|0,0:0|0:0,0:0:0:0:
281,91,555873,2,0,P|243:82|219:72,1,52.5000020027161,2|0,0:0|0:0,0:0:0:0:
196,7,556000,5,0,3:2:0:0:
370,117,556127,1,0,3:0:0:0:
409,358,556255,1,8,3:2:0:0:
409,358,556318,1,8,3:2:0:0:
104,370,556509,6,0,L|91:334,1,26.2500010013581,2|0,0:0|0:0,0:0:0:0:
157,261,556636,1,0,0:0:0:0:
164,260,556699,1,0,0:0:0:0:
170,259,556763,2,0,L|176:215,1,26.2500010013581,2|0,0:0|0:0,0:0:0:0:
90,216,556890,2,0,L|58:215,1,26.2500010013581,2|0,0:0|0:0,0:0:0:0:
141,157,557017,6,0,L|148:123,1,26.2500010013581,2|0,0:0|0:0,0:0:0:0:
245,164,557144,2,0,L|217:159,1,26.2500010013581,2|0,0:0|0:0,0:0:0:0:
74,117,557271,1,0,0:0:0:0:
67,121,557335,1,0,0:0:0:0:
62,124,557399,2,0,L|49:85,1,26.2500010013581,2|0,0:0|0:0,0:0:0:0:
213,70,557526,5,0,0:0:0:0:
208,78,557589,2,0,L|246:80,1,26.2500010013581,2|0,0:0|0:0,0:0:0:0:
119,43,557716,1,0,0:0:0:0:
114,52,557780,2,0,L|103:12,1,26.2500010013581,2|0,0:0|0:0,0:0:0:0:
181,1,557907,1,0,3:0:0:0:
274,333,558034,5,8,0:0:0:0:
274,333,558098,1,8,0:0:0:0:
422,27,558288,5,8,0:0:0:0:
422,27,558352,1,8,0:0:0:0:
496,79,558543,5,0,3:0:0:0:
284,14,558670,1,0,3:0:0:0:
226,106,558797,2,0,P|255:97|297:93,1,52.5000020027161
512,339,559051,6,0,P|482:330|441:326,1,52.5000020027161,4|0,0:0|0:0,0:0:0:0:
432,257,559305,2,0,P|372:269|314:294,1,105.000004005432,0|4,0:0|0:0,0:0:0:0:
250,370,559687,5,0,0:0:0:0:
250,370,559814,2,0,P|254:336|255:313,1,52.5000020027161
151,384,560068,6,0,P|132:355|105:320,1,70,4|0,0:0|0:0,0:0:0:0:
37,300,560322,5,0,0:0:0:0:
93,248,560492,5,0,0:0:0:0:
342,278,560661,5,0,0:0:0:0:
301,211,560831,5,0,0:0:0:0:
334,75,561000,5,0,0:0:0:0:
258,9,561170,6,0,L|257:57,1,35.0000013351441
176,52,561339,2,0,L|195:138,1,70.0000026702882
245,304,561594,5,8,0:0:0:0:
173,199,561721,1,8,0:0:0:0:
279,128,561848,1,8,0:0:0:0:
351,234,561975,1,8,0:0:0:0:
261,215,562102,5,4,1:0:0:0:
256,192,562166,12,0,572780,0:0:0:0:
