osu file format v14

[General]
AudioFilename: audio.mp3
AudioLeadIn: 0
PreviewTime: 47495
Countdown: 1
SampleSet: Normal
StackLeniency: 0.7
Mode: 0
LetterboxInBreaks: 0
WidescreenStoryboard: 0

[Editor]
Bookmarks: 31140,44204,45946,47688,77398,107785,138656,151043
DistanceSpacing: 2
BeatDivisor: 4
GridSize: 32
TimelineZoom: 1.2

[Metadata]
Title:Vanquish (Strelizia Awakening)
TitleUnicode:Vanquish (Strelizia Awakening)
Artist:Darling in the FranXX
ArtistUnicode:Darling in the FranXX
Creator:DjLolko123
Version:Insane
Source:Darling in the FranXX
Tags:Darling in the Franxx Torikago Hitori Vanquish Strelitzia Awakening
BeatmapID:1623141
BeatmapSetID:772119

[Difficulty]
HPDrainRate:5
CircleSize:5
OverallDifficulty:6
ApproachRate:9.2
SliderMultiplier:1.4
SliderTickRate:1

[Events]
//Background and Video events
0,0,"66813490_p0.jpg",0,0
//Break Periods
//Storyboard Layer 0 (Background)
//Storyboard Layer 1 (Fail)
//Storyboard Layer 2 (Pass)
//Storyboard Layer 3 (Foreground)
//Storyboard Sound Samples

[TimingPoints]
269.430947197234,387.096774193548,4,1,0,100,1,0
1817,-100,4,1,0,100,0,0
5688,-133.333333333333,4,1,0,100,0,0
6366,-100,4,1,0,100,0,0
33172,-200,4,1,0,100,0,0
34140,-100,4,1,0,100,0,0
47882,-200,4,1,0,100,0,1
48656,-100,4,1,0,100,0,1
65301,-200,4,1,0,100,0,0
65688,-100,4,1,0,100,0,1
83495,-200,4,1,0,100,0,0
84269,-100,4,1,0,100,0,1
96462,-200,4,1,0,100,0,1
99172,-100,4,1,0,100,0,1

[Colours]
Combo1 : 255,0,0
Combo2 : 255,128,0
Combo3 : 192,192,192

[HitObjects]
62,103,269,6,0,P|80:191|261:107,1,350
158,146,3172,1,0,0:0:0:0:
222,21,3366,1,0,0:0:0:0:
153,33,3559,1,0,0:0:0:0:
279,43,5688,6,0,B|265:108|265:108|216:137,1,105.000004005432
56,12,6462,1,0,0:0:0:0:
273,52,6946,1,0,0:0:0:0:
129,151,7430,1,0,0:0:0:0:
338,167,8011,5,0,0:0:0:0:
316,138,8108,1,0,0:0:0:0:
310,103,8204,1,0,0:0:0:0:
330,53,10237,5,0,0:0:0:0:
441,121,10817,1,0,0:0:0:0:
232,142,11108,1,0,0:0:0:0:
67,11,11495,1,0,0:0:0:0:
108,162,11785,5,0,0:0:0:0:
108,162,11882,1,0,0:0:0:0:
176,216,12172,1,0,0:0:0:0:
82,111,12366,1,0,0:0:0:0:
267,145,14882,5,0,0:0:0:0:
242,120,14979,1,0,0:0:0:0:
219,93,15075,1,0,0:0:0:0:
209,59,15172,2,0,P|216:29|233:2,1,35
355,88,17301,5,0,0:0:0:0:
508,155,17688,1,0,0:0:0:0:
434,52,17979,1,0,0:0:0:0:
319,159,18269,1,0,0:0:0:0:
385,51,18656,2,0,P|443:68|471:149,1,140
452,240,20011,5,0,0:0:0:0:
347,249,20301,1,0,0:0:0:0:
406,122,20688,1,0,0:0:0:0:
341,95,20882,1,0,0:0:0:0:
272,106,21075,1,0,0:0:0:0:
383,218,21366,5,0,0:0:0:0:
383,218,21462,1,0,0:0:0:0:
272,181,21946,1,0,0:0:0:0:
75,91,23108,5,0,0:0:0:0:
75,91,23204,1,0,0:0:0:0:
275,25,23592,5,0,0:0:0:0:
218,113,23785,1,0,0:0:0:0:
218,113,23882,1,0,0:0:0:0:
152,8,24172,1,0,0:0:0:0:
264,302,24753,1,0,0:0:0:0:
441,116,25721,5,0,0:0:0:0:
224,344,26301,1,0,0:0:0:0:
255,302,26398,1,0,0:0:0:0:
268,251,26495,1,0,0:0:0:0:
384,357,26785,1,0,0:0:0:0:
194,266,27172,1,0,0:0:0:0:
84,152,27462,2,0,P|155:201|217:227,1,140
475,62,28430,5,0,0:0:0:0:
472,224,31430,6,0,P|387:224|361:288,1,140
456,309,32011,1,0,0:0:0:0:
360,350,32204,1,0,0:0:0:0:
254,345,32398,2,0,P|294:264|341:253,1,140
440,240,32979,1,0,0:0:0:0:
387,243,33172,2,0,P|396:160|475:136,1,175
449,89,34237,2,0,P|463:221|354:298,1,280
341,349,35108,2,0,P|291:268|371:217,1,210
379,322,35882,6,0,P|326:308|302:219,1,140
401,220,36462,1,0,0:0:0:0:
443,123,36656,2,0,P|358:76|310:225,1,280
312,228,37624,2,0,P|221:170|157:253,1,210
242,294,38398,2,0,P|192:324|165:332,1,70
77,310,38785,1,0,0:0:0:0:
101,73,39172,6,0,P|93:177|171:243,1,210
158,79,40140,1,0,0:0:0:0:
198,111,40236,1,0,0:0:0:0:
230,152,40333,1,0,0:0:0:0:
180,244,40527,2,0,P|116:207|76:154,1,140
55,51,41108,5,0,0:0:0:0:
40,154,41301,1,0,0:0:0:0:
138,116,41495,1,0,0:0:0:0:
152,65,41592,6,0,P|196:122|111:164,1,175
152,65,42269,2,0,P|236:91|280:205,1,210
320,99,43043,1,0,0:0:0:0:
398,28,43237,2,0,P|324:134|295:151,1,140
325,34,43817,1,0,0:0:0:0:
219,37,44011,1,0,0:0:0:0:
121,132,44204,5,0,0:0:0:0:
110,165,44300,1,0,0:0:0:0:
106,199,44397,1,0,0:0:0:0:
111,234,44494,1,0,0:0:0:0:
124,267,44591,1,0,0:0:0:0:
143,296,44687,1,0,0:0:0:0:
169,319,44784,1,0,0:0:0:0:
199,337,44881,1,0,0:0:0:0:
232,347,44978,1,0,0:0:0:0:
267,349,45074,5,0,0:0:0:0:
302,344,45171,1,0,0:0:0:0:
334,330,45268,1,0,0:0:0:0:
362,310,45365,1,0,0:0:0:0:
385,284,45462,1,0,0:0:0:0:
402,253,45558,1,0,0:0:0:0:
411,220,45655,1,0,0:0:0:0:
413,185,45752,1,0,0:0:0:0:
406,150,45849,1,0,0:0:0:0:
147,93,47882,6,0,P|232:65|281:82,1,140
395,155,48850,2,0,P|367:133|336:117,1,70
217,191,49237,1,0,0:0:0:0:
354,212,49430,1,0,0:0:0:0:
331,73,49624,1,0,0:0:0:0:
331,73,49721,1,0,0:0:0:0:
331,73,49817,1,0,0:0:0:0:
196,114,50011,6,0,P|234:203|286:235,1,140
342,108,50592,1,0,0:0:0:0:
342,108,50688,1,0,0:0:0:0:
342,108,50785,1,0,0:0:0:0:
481,91,50979,6,0,P|399:49|339:40,1,140
371,179,51559,1,0,0:0:0:0:
371,179,51656,1,0,0:0:0:0:
371,179,51753,1,0,0:0:0:0:
232,159,51946,6,0,P|253:260|274:289,1,140
438,325,52527,1,0,0:0:0:0:
390,302,52623,1,0,0:0:0:0:
341,284,52720,1,0,0:0:0:0:
290,273,52817,1,0,0:0:0:0:
237,267,52914,1,0,0:0:0:0:
185,267,53010,1,0,0:0:0:0:
133,274,53107,1,0,0:0:0:0:
317,171,53398,5,0,0:0:0:0:
317,171,53495,1,0,0:0:0:0:
384,325,53688,2,0,P|439:256|437:200,1,140
423,68,54269,5,0,0:0:0:0:
290,110,54462,1,0,0:0:0:0:
403,192,54656,1,0,0:0:0:0:
424,53,54850,1,0,0:0:0:0:
299,115,55043,1,0,0:0:0:0:
412,197,55237,1,0,0:0:0:0:
423,205,55333,1,0,0:0:0:0:
492,194,55430,6,0,P|454:253|391:285,1,140
198,364,56108,1,0,0:0:0:0:
198,364,56204,1,0,0:0:0:0:
59,341,56398,2,0,P|140:283|204:282,1,140
47,227,56979,1,0,0:0:0:0:
47,227,57075,1,0,0:0:0:0:
47,227,57172,1,0,0:0:0:0:
23,88,57366,2,0,P|99:50|171:37,1,140
76,155,57946,5,0,0:0:0:0:
76,155,58043,1,0,0:0:0:0:
97,88,58140,2,0,P|150:128|144:195,1,140
212,72,58721,5,0,0:0:0:0:
345,30,58914,1,0,0:0:0:0:
292,160,59108,2,0,P|223:215|134:234,1,175
278,211,59785,1,0,0:0:0:0:
240,270,59882,2,0,P|210:222|219:192,1,70
249,152,60172,2,0,P|273:176|278:210,1,70
279,70,60559,5,0,0:0:0:0:
407,13,60753,2,0,P|430:88|407:118,1,105
489,227,61237,1,0,0:0:0:0:
428,352,61430,1,0,0:0:0:0:
455,214,61624,1,0,0:0:0:0:
455,214,61721,1,0,0:0:0:0:
215,358,62108,1,0,0:0:0:0:
388,53,62592,5,0,0:0:0:0:
297,159,62785,1,0,0:0:0:0:
437,163,62979,1,0,0:0:0:0:
374,38,63172,1,0,0:0:0:0:
487,214,63462,1,0,0:0:0:0:
487,214,63559,1,0,0:0:0:0:
350,245,63753,5,0,0:0:0:0:
224,184,63946,1,0,0:0:0:0:
265,318,64140,1,0,0:0:0:0:
217,113,64430,1,0,0:0:0:0:
217,113,64527,1,0,0:0:0:0:
84,159,64721,5,0,0:0:0:0:
217,113,64914,1,0,0:0:0:0:
102,32,65108,1,0,0:0:0:0:
171,32,65301,2,0,P|235:47|252:62,1,70
105,97,65882,1,0,0:0:0:0:
260,237,66172,1,0,0:0:0:0:
255,232,66269,1,0,0:0:0:0:
260,237,66366,6,0,P|127:191|108:100,1,245
142,102,67140,1,0,0:0:0:0:
179,112,67237,6,0,P|139:215|24:241,1,210
68,374,68011,1,0,0:0:0:0:
68,374,68108,1,0,0:0:0:0:
24,320,68204,2,0,P|54:258|118:234,1,140
222,139,68785,1,0,0:0:0:0:
303,253,68979,1,0,0:0:0:0:
163,243,69172,1,0,0:0:0:0:
303,253,69366,6,0,P|399:246|486:345,1,210
293,219,70237,1,0,0:0:0:0:
361,227,70333,2,0,P|311:210|259:215,1,105
388,160,70817,5,0,0:0:0:0:
388,160,70914,1,0,0:0:0:0:
485,54,71108,2,0,P|497:149|440:179,1,140
331,164,71688,1,0,0:0:0:0:
331,164,71785,1,0,0:0:0:0:
331,164,71882,1,0,0:0:0:0:
465,127,72075,6,0,P|443:55|383:41,1,140
331,164,72656,1,0,0:0:0:0:
331,164,72753,1,0,0:0:0:0:
331,164,72850,1,0,0:0:0:0:
416,274,73043,2,0,P|320:289|251:266,1,140
369,171,73624,2,0,P|404:259|398:321,1,140
264,279,74204,5,0,0:0:0:0:
344,164,74398,1,0,0:0:0:0:
344,164,74495,1,0,0:0:0:0:
344,164,74592,1,0,0:0:0:0:
321,301,74785,2,0,P|364:247|373:221,1,70
369,106,75172,1,0,0:0:0:0:
226,86,75366,5,0,0:0:0:0:
226,86,75462,1,0,0:0:0:0:
226,86,75559,1,0,0:0:0:0:
86,73,75753,5,0,0:0:0:0:
226,86,75946,1,0,0:0:0:0:
140,197,76140,1,0,0:0:0:0:
88,67,76333,1,0,0:0:0:0:
226,92,76527,1,0,0:0:0:0:
145,207,76721,5,0,0:0:0:0:
211,186,76817,1,0,0:0:0:0:
279,168,76914,1,0,0:0:0:0:
342,138,77011,1,0,0:0:0:0:
380,79,77108,1,0,0:0:0:0:
420,325,78075,6,0,P|447:295|462:251,2,70
337,211,78656,1,0,0:0:0:0:
317,72,78850,1,0,0:0:0:0:
451,34,79043,2,0,P|483:66|512:106,1,70
358,78,79430,1,0,0:0:0:0:
371,217,79624,1,0,0:0:0:0:
263,127,79817,2,0,B|295:103|295:103|322:91,1,70
390,69,80108,5,0,0:0:0:0:
378,139,80205,1,0,0:0:0:0:
350,203,80302,1,0,0:0:0:0:
296,248,80399,1,0,0:0:0:0:
236,283,80495,1,0,0:0:0:0:
241,352,80592,2,0,P|274:345|295:318,1,70
231,206,80979,1,0,0:0:0:0:
288,78,81172,2,0,P|347:109|355:176,1,140
224,227,81753,2,0,P|242:308|322:333,2,175
364,232,82914,5,0,0:0:0:0:
226,206,83108,1,0,0:0:0:0:
400,193,83301,1,0,0:0:0:0:
455,124,83495,2,0,P|374:105|335:145,1,140
88,56,84559,1,0,0:0:0:0:
258,95,84753,1,0,0:0:0:0:
115,195,84946,1,0,0:0:0:0:
134,20,85140,1,0,0:0:0:0:
395,31,85430,6,0,P|385:87|301:106,1,140
164,17,86011,1,0,0:0:0:0:
14,106,86204,2,0,P|26:172|88:199,1,140
145,33,86785,1,0,0:0:0:0:
20,157,86979,2,0,P|96:161|140:214,1,140
253,75,87559,5,0,0:0:0:0:
425,109,87753,1,0,0:0:0:0:
296,227,87946,1,0,0:0:0:0:
351,60,88140,1,0,0:0:0:0:
351,60,88237,1,0,0:0:0:0:
351,60,88333,1,0,0:0:0:0:
237,193,88527,6,0,P|317:216|374:206,1,140
264,345,89108,1,0,0:0:0:0:
264,345,89204,1,0,0:0:0:0:
264,345,89301,1,0,0:0:0:0:
301,173,89495,2,0,P|235:133|152:215,1,210
326,230,90269,1,0,0:0:0:0:
240,77,90462,2,0,P|301:66|351:162,1,175
326,235,91043,6,0,P|408:172|400:59,1,210
258,164,91817,1,0,0:0:0:0:
325,326,92011,2,0,P|229:327|184:280,1,140
273,257,92495,1,0,0:0:0:0:
273,257,92592,1,0,0:0:0:0:
287,83,92785,5,0,0:0:0:0:
114,51,92979,1,0,0:0:0:0:
163,218,93172,1,0,0:0:0:0:
333,178,93366,2,0,P|320:107|285:57,1,105
304,79,93753,1,0,0:0:0:0:
131,52,93946,5,0,0:0:0:0:
186,218,94140,1,0,0:0:0:0:
285,74,94333,1,0,0:0:0:0:
162,199,94527,5,0,0:0:0:0:
162,199,94624,1,0,0:0:0:0:
162,199,94721,1,0,0:0:0:0:
285,74,94914,5,0,0:0:0:0:
193,223,95108,1,0,0:0:0:0:
138,57,95301,1,0,0:0:0:0:
312,76,95495,1,0,0:0:0:0:
207,215,95688,1,0,0:0:0:0:
312,76,95882,6,0,P|330:120|329:168,1,70
177,225,96269,1,0,0:0:0:0:
208,143,96462,2,0,P|183:229|142:264,1,140
147,261,97333,1,0,0:0:0:0:
271,217,97624,5,0,0:0:0:0:
308,295,97817,1,0,0:0:0:0:
391,322,98011,1,0,0:0:0:0:
474,297,98204,2,0,P|453:233|353:245,1,175
203,320,99366,5,0,0:0:0:0:
88,188,99559,1,0,0:0:0:0:
169,32,99753,1,0,0:0:0:0:
343,22,99946,1,0,0:0:0:0:
474,137,100140,2,0,P|495:221|491:299,1,140
435,108,100721,2,0,P|415:139|403:177,1,70
397,345,101108,5,0,0:0:0:0:
397,345,101204,1,0,0:0:0:0:
397,345,101301,1,0,0:0:0:0:
435,108,101495,1,0,0:0:0:0:
279,28,101688,1,0,0:0:0:0:
188,44,101882,2,0,P|142:96|110:179,1,140
179,321,102462,5,0,0:0:0:0:
354,321,102656,1,0,0:0:0:0:
230,196,102850,1,0,0:0:0:0:
178,231,102946,1,0,0:0:0:0:
203,288,103043,1,0,0:0:0:0:
375,320,103237,5,0,0:0:0:0:
200,325,103430,1,0,0:0:0:0:
373,296,103624,1,0,0:0:0:0:
197,287,103817,1,0,0:0:0:0:
172,232,103914,1,0,0:0:0:0:
225,192,104011,1,0,0:0:0:0:
381,269,104204,1,0,0:0:0:0:
218,242,104398,2,0,P|244:197|218:159,1,70
227,149,104688,1,0,0:0:0:0:
227,149,104785,1,0,0:0:0:0:
200,50,105172,6,0,P|270:54|329:96,1,140
481,174,105753,5,0,0:0:0:0:
408,332,105946,1,0,0:0:0:0:
232,332,106140,5,0,0:0:0:0:
370,226,106333,1,0,0:0:0:0:
200,272,106527,5,0,0:0:0:0:
40,345,106721,1,0,0:0:0:0:
164,223,106914,5,0,0:0:0:0:
172,82,107108,1,0,0:0:0:0:
240,62,107205,5,0,0:0:0:0:
311,62,107302,1,0,0:0:0:0:
380,78,107399,1,0,0:0:0:0:
438,116,107495,1,0,0:0:0:0:
