osu file format v14

[General]
AudioFilename: audio.mp3
AudioLeadIn: 0
PreviewTime: 68769
Countdown: 0
SampleSet: Soft
StackLeniency: 0.7
Mode: 0
LetterboxInBreaks: 0
WidescreenStoryboard: 1

[Editor]
Bookmarks: 68769,81569,87969
DistanceSpacing: 1.4
BeatDivisor: 8
GridSize: 32
TimelineZoom: 1.7

[Metadata]
Title:Tonight
TitleUnicode:Tonight
Artist:Darkney
ArtistUnicode:Darkney
Creator:greenhue
Version:Hard
Source:
Tags:electronic instrumental english fa featured artist
BeatmapID:3800180
BeatmapSetID:1824906

[Difficulty]
HPDrainRate:4
CircleSize:3.5
OverallDifficulty:5.5
ApproachRate:7.5
SliderMultiplier:1.6
SliderTickRate:1

[Events]
//Background and Video events
0,0,"darkneyhard.jpg",0,0
//Break Periods
2,81769,87069
//Storyboard Layer 0 (Background)
//Storyboard Layer 1 (Fail)
//Storyboard Layer 2 (Pass)
//Storyboard Layer 3 (Foreground)
//Storyboard Layer 4 (Overlay)
//Storyboard Sound Samples

[TimingPoints]
1569,400,4,2,0,100,1,0
1569,-125,4,2,0,100,0,0
7969,-125,4,2,0,70,0,0
14369,-125,4,2,0,75,0,0
43169,-100,4,2,0,80,0,0
68769,-100,4,2,0,75,0,0
81569,-100,4,2,0,70,0,0
87969,-125,4,2,0,75,0,0
94369,-100,4,2,0,80,0,0
144769,-100,4,2,0,75,0,0
145569,-100,4,2,0,75,0,1
171169,-100,4,2,0,75,0,0

[Colours]
Combo1 : 241,141,158
Combo2 : 177,200,233
Combo3 : 18,124,255
Combo4 : 225,189,240

[HitObjects]
130,52,14369,6,0,L|119:129,1,64,2|2,3:2|0:0,0:0:0:0:
35,151,14769,2,0,L|55:291,1,128,2|8,0:0|0:0,0:0:0:0:
53,277,15569,2,0,P|92:256|120:265,1,64,2|2,0:0|0:0,0:0:0:0:
162,318,15969,5,2,0:0:0:0:
272,252,16369,1,2,0:0:0:0:
406,336,16769,1,8,0:0:0:0:
406,336,17169,1,2,0:0:0:0:
406,336,17369,6,0,P|379:291|377:271,1,64,2|2,0:0|3:2,0:0:0:0:
433,221,17769,2,0,P|437:171|410:78,1,128,2|0,0:0|0:0,0:0:0:0:
371,34,18369,1,8,0:0:0:0:
246,32,18769,1,2,0:0:0:0:
246,32,18969,1,2,0:0:0:0:
191,91,19169,6,0,P|127:77|43:66,2,128,2|2|10,0:0|0:0|0:2,0:0:0:0:
264,160,20369,1,0,0:0:0:0:
143,210,20769,6,0,P|107:202|71:191,1,64,0|2,3:3|0:0,0:0:0:0:
7,244,21169,2,0,P|21:293|41:379,1,128,2|8,0:0|0:0,0:0:0:0:
38,367,21969,1,2,0:0:0:0:
108,322,22169,1,2,0:0:0:0:
175,370,22369,6,0,P|240:361|271:303,1,128,2|2,0:0|0:0,0:0:0:0:
362,195,23169,2,0,L|335:54,1,128,8|2,0:0|0:0,0:0:0:0:
406,22,23769,6,0,P|433:34|481:49,1,64,2|0,0:0|3:3,0:0:0:0:
456,126,24169,2,0,P|340:143|245:157,1,192,0|8,0:0|0:0,0:0:0:0:
134,60,25169,1,2,0:0:0:0:
134,60,25369,1,2,0:0:0:0:
27,110,26169,5,2,0:0:0:0:
118,314,26769,1,2,0:0:0:0:
105,325,27169,6,0,P|115:267|127:197,1,128,6|2,3:2|3:2,0:0:0:0:
27,110,27969,2,0,P|41:51|101:40,1,128,2|2,3:2|3:2,0:0:0:0:
214,111,28769,5,2,3:2:0:0:
313,29,29169,1,2,3:2:0:0:
358,133,29569,1,2,3:2:0:0:
507,103,29969,1,2,3:2:0:0:
507,103,30369,5,2,3:2:0:0:
400,24,30769,1,2,3:2:0:0:
307,121,31169,1,2,3:2:0:0:
364,235,31569,1,2,3:2:0:0:
484,200,31969,6,0,P|470:260|451:350,1,128,2|2,3:2|3:2,0:0:0:0:
363,234,32769,2,0,P|370:203|380:171,1,64,2|2,3:2|3:2,0:0:0:0:
352,87,33169,1,2,3:2:0:0:
256,78,33369,1,2,3:2:0:0:
183,133,33569,6,0,P|165:213|149:275,1,128,2|2,3:2|3:2,0:0:0:0:
301,349,34369,2,0,P|237:353|174:367,1,128,2|2,3:2|3:2,0:0:0:0:
153,257,35169,5,2,3:2:0:0:
53,351,35569,1,2,3:2:0:0:
0,212,35969,2,0,P|15:162|30:83,1,128,2|2,3:2|3:2,0:0:0:0:
129,17,36769,6,0,P|164:23|219:36,1,64,2|0,3:2|3:0,0:0:0:0:
248,99,37169,2,0,P|284:88|308:62,1,64,2|0,3:2|3:0,0:0:0:0:
436,134,37569,2,0,P|401:140|346:153,1,64,2|0,3:2|3:0,0:0:0:0:
317,216,37969,2,0,P|281:205|257:179,1,64,2|0,3:2|3:0,0:0:0:0:
181,241,38369,6,0,P|172:226|163:187,3,32,0|0|0|0,3:0|3:0|3:0|3:0,0:0:0:0:
125,208,38769,2,0,P|129:191|150:157,3,32,0|0|0|0,3:0|3:0|3:0|3:0,0:0:0:0:
110,143,39169,2,0,P|124:133|163:125,3,32,0|0|0|0,3:0|3:0|3:0|3:0,0:0:0:0:
151,88,39569,5,0,3:0:0:0:
167,91,39669,1,0,3:0:0:0:
182,94,39769,1,0,3:0:0:0:
198,97,39869,1,0,3:0:0:0:
214,100,39969,5,0,1:0:0:0:
286,254,43169,6,0,P|354:185|419:176,1,160,0|2,1:0|2:0,0:0:0:0:
412,176,43769,1,2,2:0:0:0:
454,97,43969,1,8,0:0:0:0:
357,78,44169,2,0,P|350:44|340:-6,2,80,2|2|2,2:0|2:0|0:0,0:0:0:0:
278,128,44769,6,0,P|280:158|289:223,2,80,2|2|2,1:2|2:0|2:0,0:0:0:0:
207,59,45369,2,0,P|176:69|125:86,1,80,2|10,0:0|0:2,0:0:0:0:
50,73,45769,1,2,2:0:0:0:
71,167,45969,2,0,P|32:174|0:153,1,80,2|2,2:0|0:0,0:0:0:0:
0,298,46369,6,0,P|68:252|161:241,1,160,0|0,1:2|1:0,0:0:0:0:
143,239,46969,1,2,0:0:0:0:
216,172,47169,2,0,P|244:186|277:233,1,80,10|2,0:2|0:0,0:0:0:0:
303,339,47569,1,2,0:0:0:0:
395,341,47769,1,2,0:0:0:0:
470,270,47969,6,0,P|460:231|448:180,1,80,2|2,1:2|0:0,0:0:0:0:
358,145,48369,2,0,P|368:106|380:55,1,80,2|2,0:0|0:0,0:0:0:0:
377,67,48669,1,0,1:0:0:0:
377,67,48769,1,8,0:0:0:0:
260,31,48969,1,2,0:0:0:0:
260,31,49169,2,0,L|274:81,1,40,0|0,3:0|3:0,0:0:0:0:
237,109,49369,1,0,3:0:0:0:
227,104,49469,1,0,3:0:0:0:
219,99,49569,5,0,1:0:0:0:
103,88,49769,1,0,0:0:0:0:
15,130,49969,2,0,P|39:224|53:293,1,160,2|10,0:2|0:2,0:0:0:0:
84,367,50569,2,0,P|100:288|120:211,1,160,2|2,0:2|0:2,0:0:0:0:
185,123,51169,6,0,P|201:201|221:278,1,160,2|2,1:2|0:2,0:0:0:0:
303,371,51769,2,0,B|319:292|330:244|330:244|346:247|368:250,1,160,2|2,0:2|0:2,0:0:0:0:
419,333,52369,6,0,P|457:323|497:317,2,80,4|8|0,0:3|0:3|1:0,0:0:0:0:
363,245,52969,1,2,0:0:0:0:
363,245,53169,1,2,0:0:0:0:
445,180,53369,2,0,P|432:135|421:89,1,80,2|8,3:0|0:0,0:0:0:0:
492,30,53769,1,2,0:0:0:0:
492,30,53969,1,2,0:0:0:0:
424,102,54169,1,2,3:0:0:0:
323,48,54369,6,0,L|331:7,3,40,0|0|0|0,1:3|3:0|3:0|3:0,0:0:0:0:
268,81,54769,2,0,L|276:122,3,40,0|0|0|0,3:0|3:0|3:0|3:0,0:0:0:0:
227,48,55169,2,0,P|152:74|156:146,1,160,8|0,0:0|1:0,0:0:0:0:
154,143,55669,1,0,1:0:0:0:
154,143,55769,1,0,1:0:0:0:
71,210,55969,5,0,1:0:0:0:
71,210,56169,1,0,1:0:0:0:
141,283,56369,6,0,P|125:328|112:368,2,80,2|2|10,0:0|0:0|0:0,0:0:0:0:
246,337,56969,2,0,P|234:270|219:179,1,160,2|2,0:0|0:0,0:0:0:0:
300,110,57569,6,0,P|284:65|271:25,2,80,0|2|2,1:0|0:0|0:0,0:0:0:0:
405,56,58169,2,0,P|393:123|378:214,1,160,2|2,0:0|0:0,0:0:0:0:
449,288,58769,5,2,0:0:0:0:
392,361,58969,1,2,0:0:0:0:
392,361,59169,6,0,P|355:346|316:340,1,80,0|2,1:3|0:3,0:0:0:0:
253,265,59569,2,0,P|213:271|176:286,1,80,2|2,0:0|0:3,0:0:0:0:
100,218,59969,2,0,P|122:174|134:135,1,80,8|0,0:0|0:0,0:0:0:0:
70,68,60369,1,0,1:0:0:0:
70,68,60469,1,0,1:0:0:0:
70,68,60569,1,8,0:0:0:0:
23,152,60769,5,0,1:0:0:0:
131,144,60969,2,0,B|266:172|198:51|354:79,1,240,0|8,0:0|0:0,0:0:0:0:
431,28,61769,2,0,L|446:80,1,40,2|2,0:0|0:0,0:0:0:0:
487,95,61969,2,0,L|474:150,1,40,2|2,0:0|0:0,0:0:0:0:
475,192,62169,1,2,0:0:0:0:
475,192,62269,1,2,0:0:0:0:
475,192,62369,6,0,P|429:178|386:169,1,80,0|2,1:0|2:3,0:0:0:0:
280,226,62769,2,0,P|295:310|304:384,1,160,2|10,0:0|0:2,0:0:0:0:
371,291,63369,2,0,P|328:296|288:305,1,80,2|2,0:0|0:0,0:0:0:0:
208,320,63769,1,2,0:0:0:0:
114,340,63969,6,0,P|95:252|89:181,1,160,2|2,1:2|0:0,0:0:0:0:
16,276,64569,2,0,P|47:268|119:260,1,80,2|10,0:0|0:2,0:0:0:0:
173,201,64969,1,2,0:0:0:0:
89,145,65169,2,0,P|50:154|10:159,1,80,4|8,3:0|0:3,0:0:0:0:
16,70,65569,6,0,P|11:52|-5:22,3,40,0|0|0|0,1:0|3:0|3:0|3:0,0:0:0:0:
77,64,65969,2,0,P|86:47|96:15,3,40,0|0|0|0,3:0|3:0|3:0|3:0,0:0:0:0:
129,96,66369,2,0,P|147:90|177:75,3,40,8|0|0|0,0:0|3:0|3:0|3:0,0:0:0:0:
170,139,66769,2,0,P|179:122|189:90,3,40,0|0|0|0,3:0|3:0|3:0|3:0,0:0:0:0:
237,146,67169,6,0,P|232:128|216:98,3,40,0|0|0|0,1:0|3:0|3:0|3:0,0:0:0:0:
295,110,67569,2,0,P|278:100|246:90,3,40,0|0|0|0,3:0|3:0|3:0|3:0,0:0:0:0:
299,48,67969,1,8,0:0:0:0:
109,25,68369,1,0,1:0:0:0:
109,25,68469,1,0,1:0:0:0:
109,25,68569,1,8,0:0:0:0:
190,0,68769,6,0,P|229:108|241:156,1,160,4|2,1:0|0:0,0:0:0:0:
339,143,69369,1,0,0:0:0:0:
251,163,69569,2,0,P|252:211|250:254,1,80,8|0,0:0|0:0,0:0:0:0:
217,353,69969,2,0,P|164:312|144:302,1,80,2|0,0:0|0:0,0:0:0:0:
92,219,70369,6,0,P|129:149|162:50,1,160,0|2,1:0|0:0,0:0:0:0:
156,73,70969,1,0,0:0:0:0:
59,76,71169,2,0,P|42:115|24:147,1,80,8|0,0:0|0:0,0:0:0:0:
92,219,71569,1,2,0:0:0:0:
92,219,71769,1,0,0:0:0:0:
185,169,71969,6,0,P|246:209|215:276,1,160,0|2,1:0|0:0,0:0:0:0:
145,339,72569,1,0,0:0:0:0:
215,276,72769,2,0,P|293:278|301:354,1,160,8|2,0:0|0:0,0:0:0:0:
444,339,73569,6,0,P|425:286|412:239,1,80,2|2,1:2|0:2,0:0:0:0:
498,232,73969,2,0,P|511:265|527:317,1,80,2|2,0:2|0:2,0:0:0:0:
418,263,74369,2,0,P|431:225|443:187,1,80,10|2,0:2|0:2,0:0:0:0:
363,156,74769,2,0,P|348:193|336:231,1,80,2|2,0:2|0:2,0:0:0:0:
210,258,75169,6,0,P|167:127|154:87,1,160,0|2,1:0|0:0,0:0:0:0:
263,135,75769,1,0,0:0:0:0:
148,94,75969,2,0,L|176:10,1,80,8|0,0:0|0:0,0:0:0:0:
75,19,76369,2,0,P|61:56|45:98,1,80,2|0,0:0|0:0,0:0:0:0:
72,199,76769,6,0,P|115:330|128:370,1,160,0|2,1:0|0:0,0:0:0:0:
197,287,77369,1,0,0:0:0:0:
279,344,77569,2,0,P|286:303|294:253,1,80,8|0,0:0|0:0,0:0:0:0:
357,195,77969,6,0,P|402:203|445:318,1,160,2|0,0:0|1:0,0:0:0:0:
512,157,78769,2,0,P|487:194|425:175,1,80,2|0,0:0|0:0,0:0:0:0:
394,112,79169,2,0,P|405:72|417:8,2,80,8|0|2,0:0|0:0|0:0,0:0:0:0:
271,37,79969,6,0,P|241:76|245:119,1,80,2|2,1:2|0:2,0:0:0:0:
157,107,80369,2,0,P|163:155|196:183,1,80,2|2,0:2|0:2,0:0:0:0:
288,191,80769,2,0,P|258:230|262:273,1,80,10|2,0:2|0:2,0:0:0:0:
174,261,81169,2,0,P|180:309|213:337,1,80,2|10,1:2|1:2,0:0:0:0:
286,333,81569,5,4,0:0:0:0:
277,349,87969,6,0,P|258:271|236:215,1,128,2|2,3:2|0:0,0:0:0:0:
149,203,88569,1,0,0:0:0:0:
190,109,88769,2,0,P|148:41|115:1,1,128,8|2,0:0|0:0,0:0:0:0:
67,144,89569,6,0,P|145:125|201:103,1,128,2|2,0:0|0:0,0:0:0:0:
218,23,90169,1,0,0:0:0:0:
301,72,90369,2,0,P|369:30|409:-3,1,128,8|2,0:0|0:0,0:0:0:0:
512,97,91169,6,0,P|497:149|422:161,1,128,2|0,1:2|1:0,0:0:0:0:
270,218,91969,2,0,P|285:270|360:282,1,128,8|2,1:2|1:2,0:0:0:0:
431,165,92769,6,0,P|439:195|448:226,1,64,0|0,1:0|1:0,0:0:0:0:
512,283,93169,2,0,P|503:313|494:344,1,64,0|0,1:0|1:0,0:0:0:0:
411,381,93569,2,0,L|363:359,1,32,0|0,1:0|1:0,0:0:0:0:
336,356,93769,1,0,1:0:0:0:
324,360,93869,1,0,1:0:0:0:
313,364,93969,1,4,1:0:0:0:
265,136,94369,6,0,P|249:217|235:300,1,160,0|2,1:0|0:0,0:0:0:0:
160,135,95069,1,0,1:0:0:0:
160,135,95169,2,0,P|100:150|86:174,1,80,8|2,0:0|0:0,0:0:0:0:
11,54,95669,1,2,0:0:0:0:
11,54,95969,6,0,P|72:48|113:0,1,120,0|2,1:0|0:0,0:0:0:0:
220,65,96569,1,2,0:0:0:0:
270,0,96769,1,8,0:0:0:0:
270,0,96869,2,0,P|315:19|406:-9,1,120,0|2,0:0|0:0,0:0:0:0:
472,53,97369,1,2,0:3:0:0:
415,130,97569,6,0,P|423:173|432:230,1,80,0|2,1:0|0:0,0:0:0:0:
508,170,97969,1,0,3:3:0:0:
438,219,98169,2,0,P|446:262|455:319,1,80,2|10,0:0|0:2,0:0:0:0:
358,251,98569,1,0,3:3:0:0:
290,338,98769,2,0,P|278:288|271:253,1,80,2|2,0:0|0:0,0:0:0:0:
169,247,99169,6,0,P|158:321|84:334,1,160,0|0,1:0|0:0,0:0:0:0:
17,269,99769,1,0,0:0:0:0:
17,269,99869,1,0,1:0:0:0:
17,269,99969,1,8,0:0:0:0:
96,183,100169,2,0,L|80:121,1,40,2|0,3:0|3:0,0:0:0:0:
40,116,100369,2,0,L|30:77,1,40,0|0,3:0|3:0,0:0:0:0:
68,37,100569,1,2,3:0:0:0:
68,37,100669,1,0,3:0:0:0:
68,37,100769,6,0,B|169:17|121:90|229:71,1,160,0|0,1:0|3:0,0:0:0:0:
276,156,101369,1,0,3:0:0:0:
335,91,101569,1,8,0:0:0:0:
335,91,101769,2,0,P|323:50|314:7,2,80,0|2|0,3:0|3:0|3:0,0:0:0:0:
418,135,102369,5,0,1:0:0:0:
365,205,102569,1,0,3:0:0:0:
413,278,102769,2,0,L|504:258,2,80,0|2|8,3:0|3:0|0:0,0:0:0:0:
352,342,103369,1,2,2:0:0:0:
352,342,103569,2,0,P|317:306|262:308,1,80,6|10,2:3|3:3,0:0:0:0:
208,335,103969,5,0,1:2:0:0:
137,384,104169,1,0,3:2:0:0:
137,384,104369,2,0,B|155:309|155:309|151:293|151:293|168:215,1,160,2|8,3:2|3:2,0:0:0:0:
80,200,104969,2,0,P|70:239|60:282,2,80,0|0|0,3:2|3:2|3:2,0:0:0:0:
0,176,105569,5,0,1:0:0:0:
0,176,105769,2,0,P|18:136|65:121,1,80,0|2,3:0|3:3,0:0:0:0:
154,56,106169,2,0,L|143:-1,3,40,0|0|8|0,3:0|3:0|0:0|0:0,0:0:0:0:
197,88,106569,2,0,L|186:145,3,40,2|2|2|0,0:0|0:0|3:0|3:0,0:0:0:0:
256,56,106969,1,0,3:0:0:0:
256,56,107069,1,0,3:0:0:0:
256,56,107169,6,0,P|290:85|340:81,1,80,0|0,1:0|1:0,0:0:0:0:
381,157,107569,1,2,0:0:0:0:
381,157,107769,2,0,P|428:139|448:109,1,80,2|10,0:0|0:0,0:0:0:0:
391,51,108169,1,2,0:0:0:0:
391,51,108369,2,0,P|342:64|320:92,1,80,2|2,0:0|0:0,0:0:0:0:
290,169,108769,5,2,1:2:0:0:
290,169,108969,2,0,P|241:155|219:127,1,80,2|2,0:0|0:0,0:0:0:0:
150,92,109369,1,2,0:0:0:0:
150,92,109569,2,0,P|101:105|79:133,1,80,10|2,0:0|0:0,0:0:0:0:
8,170,109969,1,2,0:0:0:0:
8,170,110169,6,0,P|15:209|22:257,1,80,0|0,3:0|1:0,0:0:0:0:
169,315,110769,1,2,3:1:0:0:
262,283,110969,1,2,0:0:0:0:
262,283,111169,2,0,P|256:331|251:373,1,80,10|2,2:0|0:0,0:0:0:0:
349,331,111569,1,0,1:0:0:0:
349,331,111669,1,0,1:0:0:0:
349,331,111769,1,0,1:0:0:0:
438,364,111969,6,0,P|431:321|424:277,1,80,2|2,1:2|0:0,0:0:0:0:
494,238,112369,1,2,0:0:0:0:
418,278,112569,2,0,P|411:235|404:191,1,80,0|8,1:0|0:0,0:0:0:0:
480,151,112969,1,2,0:0:0:0:
480,151,113169,2,0,P|473:108|472:101,1,40,0|0,3:0|3:0,0:0:0:0:
432,95,113369,2,0,P|425:52|424:45,1,40,0|0,3:0|3:0,0:0:0:0:
433,19,113569,6,0,B|342:18|391:67|286:70,1,160,0|2,1:0|0:0,0:0:0:0:
167,137,114169,2,0,P|123:123|80:113,1,80,2|10,0:0|0:0,0:0:0:0:
33,183,114569,1,2,0:0:0:0:
33,183,114769,2,0,P|76:195|129:211,1,80,2|2,0:0|0:0,0:0:0:0:
98,295,115169,5,2,1:2:0:0:
98,295,115369,2,0,B|142:301|142:301|181:258,1,80,2|2,0:0|0:0,0:0:0:0:
215,203,115769,1,2,0:0:0:0:
215,203,115969,2,0,B|239:166|239:166|296:165,1,80,10|2,0:2|0:0,0:0:0:0:
340,231,116369,1,2,0:0:0:0:
340,231,116569,1,2,0:0:0:0:
407,175,116769,6,0,B|391:96|391:96|395:83|395:83|380:0,1,160,0|2,1:0|0:0,0:0:0:0:
259,81,117569,2,0,B|216:62|188:81|182:97|184:112|146:135|95:109,1,160,10|2,0:2|0:0,0:0:0:0:
114,116,118369,5,0,1:0:0:0:
59,185,118569,2,0,P|57:204|66:224,1,40,0|0,3:0|3:0,0:0:0:0:
96,254,118769,2,0,P|108:273|108:312,3,40,2|0|0|0,3:0|3:0|3:0|3:0,0:0:0:0:
96,330,119169,1,8,0:0:0:0:
190,352,119369,1,0,0:0:0:0:
190,352,119469,1,0,0:0:0:0:
190,352,119569,2,0,P|209:335|239:335,1,40,0|0,1:0|1:0,0:0:0:0:
265,345,119769,2,0,P|288:342|315:323,1,40,8|0,0:0|0:0,0:0:0:0:
333,302,119969,6,0,P|320:222|306:127,1,160,6|2,1:0|0:0,0:0:0:0:
243,84,120569,1,0,0:0:0:0:
294,12,120769,2,0,P|333:16|373:18,1,80,8|0,0:0|0:0,0:0:0:0:
447,94,121169,2,0,P|432:130|397:147,1,80,2|0,0:0|0:0,0:0:0:0:
306,208,121569,6,0,P|237:179|125:164,1,160,0|2,1:0|0:0,0:0:0:0:
63,130,122169,1,0,0:0:0:0:
143,81,122369,2,0,P|186:61|213:38,2,80,8|0|2,0:0|0:0|0:0,0:0:0:0:
63,130,122969,1,0,0:0:0:0:
86,221,123169,6,0,P|120:310|121:385,1,160,0|2,1:0|0:0,0:0:0:0:
9,328,123769,1,0,0:0:0:0:
9,328,123969,2,0,P|49:288|84:272,1,80,8|0,0:0|0:0,0:0:0:0:
132,195,124369,2,0,P|166:203|223:215,1,80,2|0,0:0|0:0,0:0:0:0:
251,287,124769,5,2,1:2:0:0:
216,366,124969,1,2,0:2:0:0:
307,384,125169,2,0,P|320:345|342:289,1,80,2|2,0:2|0:2,0:0:0:0:
412,240,125569,1,10,0:2:0:0:
428,329,125769,1,2,0:2:0:0:
512,306,125969,2,0,P|501:266|489:207,1,80,2|2,0:2|0:2,0:0:0:0:
430,162,126369,6,0,P|401:219|302:217,1,160,0|2,1:0|0:0,0:0:0:0:
350,144,126969,1,0,0:0:0:0:
271,105,127169,2,0,P|275:62|281:7,1,80,8|0,0:0|0:0,0:0:0:0:
157,0,127569,2,0,B|170:96|169:91,1,80,2|0,0:0|0:0,0:0:0:0:
184,193,127969,6,0,B|122:206|102:182|104:171|104:163|60:143|26:151,1,160,0|2,1:0|0:0,0:0:0:0:
0,243,128569,1,0,0:0:0:0:
45,323,128769,2,0,P|88:301|115:265,1,80,8|0,0:0|0:0,0:0:0:0:
184,193,129169,1,2,0:0:0:0:
215,285,129369,1,0,0:0:0:0:
305,229,129569,6,0,P|373:240|464:265,1,160,0|2,1:0|0:0,0:0:0:0:
502,182,130169,1,0,0:0:0:0:
450,109,130369,2,0,P|411:128|360:137,1,80,8|0,0:0|0:0,0:0:0:0:
304,201,130769,2,0,P|262:186|220:157,1,80,2|0,0:0|0:0,0:0:0:0:
158,107,131169,5,2,1:2:0:0:
188,11,131369,1,2,0:2:0:0:
91,6,131569,2,0,P|82:41|63:96,1,80,2|2,0:2|0:2,0:0:0:0:
38,169,131969,2,0,P|27:204|14:261,2,80,10|2|2,0:2|0:2|1:2,0:0:0:0:
35,158,132469,1,2,1:2:0:0:
32,150,132569,1,10,1:2:0:0:
116,238,132769,6,0,B|154:282|199:263|221:228|221:228|262:245|301:225|312:178,1,240,2|0,1:2|0:0,0:0:0:0:
187,149,133569,5,8,0:0:0:0:
245,63,133769,6,0,B|246:19|215:-12|215:-12|236:55|361:68|376:3|376:3|340:50|342:134|518:86|554:194|551:251|512:304|402:298|421:213,1,720,0|2,0:0|0:0,0:0:0:0:
348,324,135969,6,0,B|228:291|251:406|148:344|148:344|192:336|203:297,1,280,2|0,1:2|0:0,0:0:0:0:
254,242,136769,2,0,B|260:214|304:206|304:206|201:144|224:259|104:226,1,280,10|0,0:2|0:0,0:0:0:0:
19,222,137569,6,0,B|36:155|48:109|48:109|35:87,2,120,2|2|2,1:2|0:0|0:0,0:0:0:0:
117,174,138369,2,0,B|134:107|141:82|141:82|120:51,2,120,10|2|2,0:2|0:0|0:0,0:0:0:0:
195,223,139169,6,0,P|206:182|221:125,1,80,2|2,1:2|0:0,0:0:0:0:
280,81,139569,2,0,P|308:105|359:91,1,80,2|2,0:0|0:0,0:0:0:0:
419,45,139969,2,0,P|380:50|358:82,1,80,10|2,0:2|0:0,0:0:0:0:
401,165,140369,2,0,P|388:205|378:246,1,80,2|2,0:0|0:0,0:0:0:0:
438,312,140769,5,2,1:2:0:0:
438,312,140969,1,2,0:0:0:0:
379,374,141169,2,0,P|339:365|282:356,1,80,2|2,0:0|0:0,0:0:0:0:
238,291,141569,2,0,P|202:318|163:327,1,80,10|2,0:2|0:0,0:0:0:0:
89,369,141969,2,0,P|48:362|-7:349,1,80,2|2,0:0|0:0,0:0:0:0:
11,262,142369,6,0,P|49:251|80:226,1,80,2|0,1:2|0:0,0:0:0:0:
125,149,142769,1,2,0:0:0:0:
65,77,142969,1,2,0:0:0:0:
65,77,143169,2,0,P|74:27|85:-4,2,80,10|2|2,0:2|0:0|0:0,0:0:0:0:
125,149,143769,6,0,P|193:115|283:92,1,160,2|0,0:0|0:0,0:0:0:0:
337,42,144369,1,2,0:0:0:0:
263,0,144569,1,0,0:0:0:0:
263,0,144669,1,0,1:0:0:0:
263,0,144769,1,10,0:2:0:0:
328,201,145169,1,0,1:0:0:0:
328,201,145269,1,0,1:0:0:0:
432,123,145569,6,0,P|470:117|477:75,1,80,6|2,1:2|0:0,0:0:0:0:
370,53,145969,2,0,P|393:126|418:220,1,160,2|10,0:0|0:2,0:0:0:0:
322,308,146769,6,0,P|311:271|274:265,1,80,2|2,0:0|0:0,0:0:0:0:
212,335,147169,2,0,P|235:262|260:168,1,160,2|2,1:2|0:0,0:0:0:0:
188,49,147969,6,0,P|155:121|74:104,1,160,10|2,0:2|0:0,0:0:0:0:
28,27,148569,1,2,0:0:0:0:
76,110,148769,6,0,P|68:157|52:199,1,80,2|2,1:2|0:0,0:0:0:0:
176,160,149169,2,0,P|191:242|207:324,1,160,0|10,0:0|0:2,0:0:0:0:
206,317,149969,2,0,P|244:301|284:288,1,80,2|2,0:0|0:0,0:0:0:0:
312,215,150369,5,2,1:2:0:0:
484,273,150769,1,2,0:0:0:0:
438,199,150969,1,0,0:0:0:0:
438,199,151069,1,0,1:0:0:0:
438,199,151169,1,10,0:2:0:0:
505,135,151369,2,0,B|529:55|465:13|465:13|446:37,1,160,2|0,0:0|0:0,0:0:0:0:
369,45,151969,6,0,P|333:69|289:76,1,80,6|2,1:2|0:0,0:0:0:0:
223,122,152369,2,0,P|141:107|60:98,2,160,2|10|2,0:0|0:2|0:0,0:0:0:0:
259,192,153369,5,2,0:0:0:0:
304,259,153569,2,0,P|386:244|467:235,2,160,2|2|10,1:2|0:0|0:2,0:0:0:0:
130,372,154769,1,2,0:0:0:0:
62,326,154969,6,0,P|78:286|84:237,1,80,2|2,0:0|1:2,0:0:0:0:
163,236,155369,1,2,0:0:0:0:
163,236,155569,2,0,P|184:273|217:307,2,80,2|2|10,0:0|0:0|0:2,0:0:0:0:
181,154,156169,1,2,0:0:0:0:
266,37,156569,6,0,B|391:40|336:101|396:134|490:121,1,240,2|0,0:0|0:0,0:0:0:0:
481,215,157369,1,2,0:0:0:0:
481,215,157469,1,0,1:0:0:0:
481,215,157569,1,10,0:2:0:0:
402,161,157769,1,2,0:0:0:0:
313,183,157969,1,0,1:0:0:0:
313,183,158069,1,0,1:0:0:0:
252,284,158369,5,6,1:2:0:0:
183,227,158569,1,2,0:0:0:0:
159,315,158769,2,0,P|81:327|-8:343,1,160,2|10,0:0|0:2,0:0:0:0:
3,172,159569,1,2,0:0:0:0:
78,123,159769,1,2,0:0:0:0:
102,211,159969,6,0,P|180:223|269:239,2,160,2|2|10,1:2|0:0|0:2,0:0:0:0:
53,41,161169,2,0,P|67:78|76:117,1,80,2|2,0:0|0:0,0:0:0:0:
102,211,161569,5,2,1:2:0:0:
169,132,161769,2,0,P|222:88|303:41,1,160,2|0,0:0|0:0,0:0:0:0:
369,93,162369,1,10,0:2:0:0:
369,93,162769,2,0,P|413:83|449:77,1,80,2|2,0:0|0:0,0:0:0:0:
485,187,163169,6,0,P|405:176|316:167,2,160,2|2|10,1:2|0:0|0:2,0:0:0:0:
502,288,164169,2,0,P|475:336|374:332,1,160,2|0,0:0|0:0,0:0:0:0:
319,271,164769,6,0,P|326:230|338:179,2,80,6|2|2,1:2|0:0|0:0,0:0:0:0:
158,358,165569,1,10,0:2:0:0:
158,358,165969,2,0,P|143:307|134:275,1,80,2|2,0:0|0:0,0:0:0:0:
218,218,166369,6,0,P|229:135|241:50,2,160,2|2|10,1:2|0:0|0:2,0:0:0:0:
20,284,167569,1,2,0:0:0:0:
9,180,167769,1,2,0:0:0:0:
9,180,167969,6,0,P|51:172|93:162,1,80,2|2,1:2|0:0,0:0:0:0:
117,61,168369,2,0,P|155:70|195:77,1,80,2|2,0:0|0:0,0:0:0:0:
277,30,168769,1,10,0:2:0:0:
277,30,168969,1,2,0:0:0:0:
402,88,169369,6,0,B|439:137|415:202|387:194|360:186|326:261|372:308,1,240,2|0,0:0|0:0,0:0:0:0:
284,354,170169,1,2,0:0:0:0:
284,354,170269,1,0,1:0:0:0:
284,354,170369,1,10,0:2:0:0:
239,261,170569,1,2,0:0:0:0:
150,257,170769,1,8,0:0:0:0:
150,257,170869,1,8,0:0:0:0:
