osu file format v14

[General]
AudioFilename: audio.mp3
AudioLeadIn: 0
PreviewTime: 68769
Countdown: 0
SampleSet: Soft
StackLeniency: 0.1
Mode: 0
LetterboxInBreaks: 0
WidescreenStoryboard: 0

[Editor]
Bookmarks: 14369,40169,42769,68769,81569,87969
DistanceSpacing: 0.9
BeatDivisor: 8
GridSize: 32
TimelineZoom: 1.7

[Metadata]
Title:Tonight
TitleUnicode:Tonight
Artist:Darkney
ArtistUnicode:Darkney
Creator:greenhue
Version:Extra
Source:
Tags:electronic instrumental english fa featured artist
BeatmapID:3800179
BeatmapSetID:1824906

[Difficulty]
HPDrainRate:6
CircleSize:4
OverallDifficulty:9
ApproachRate:9.3
SliderMultiplier:1.8
SliderTickRate:1

[Events]
//Background and Video events
0,0,"darkneyextra.jpg",0,0
//Break Periods
2,40369,42615
2,81769,87415
//Storyboard Layer 0 (Background)
//Storyboard Layer 1 (Fail)
//Storyboard Layer 2 (Pass)
//Storyboard Layer 3 (Foreground)
//Storyboard Layer 4 (Overlay)
//Storyboard Sound Samples

[TimingPoints]
1569,400,4,2,0,100,1,0
7969,-100,4,2,0,70,0,0
14369,-100,4,2,0,75,0,0
27169,-125,4,2,0,75,0,0
43169,-58.8235294117647,4,2,0,80,0,0
43569,-45.4545454545455,4,2,0,80,0,0
43769,-83.3333333333333,4,2,0,80,0,0
44169,-45.4545454545455,4,2,0,80,0,0
44369,-83.3333333333333,4,2,0,80,0,0
44769,-45.4545454545455,4,2,0,80,0,0
44969,-83.3333333333333,4,2,0,80,0,0
45369,-45.4545454545455,4,2,0,80,0,0
45569,-83.3333333333333,4,2,0,80,0,0
45969,-45.4545454545455,4,2,0,80,0,0
46169,-83.3333333333333,4,2,0,80,0,0
46369,-47.6190476190476,4,2,0,80,0,0
46769,-45.4545454545455,4,2,0,80,0,0
46969,-83.3333333333333,4,2,0,80,0,0
47369,-45.4545454545455,4,2,0,80,0,0
47569,-83.3333333333333,4,2,0,80,0,0
48169,-43.4782608695652,4,2,0,80,0,0
48369,-83.3333333333333,4,2,0,80,0,0
48769,-43.4782608695652,4,2,0,80,0,0
48969,-58.8235294117647,4,2,0,80,0,0
49769,-100,4,2,0,80,0,0
49969,-45.4545454545455,4,2,0,80,0,0
50169,-83.3333333333333,4,2,0,80,0,0
50569,-45.4545454545455,4,2,0,80,0,0
50769,-83.3333333333333,4,2,0,80,0,0
51169,-45.4545454545455,4,2,0,80,0,0
51369,-83.3333333333333,4,2,0,80,0,0
51769,-45.4545454545455,4,2,0,80,0,0
51969,-83.3333333333333,4,2,0,80,0,0
52569,-55.5555555555556,4,2,0,80,0,0
52769,-40,4,2,0,80,0,0
52969,-100,4,2,0,80,0,0
53369,-55.5555555555556,4,2,0,80,0,0
54369,-83.3333333333333,4,2,0,80,0,0
55969,-142.857142857143,4,2,0,80,0,0
56369,-100,4,2,0,80,0,0
58969,-62.5,4,2,0,80,0,0
62369,-45.4545454545455,4,2,0,80,0,0
62769,-45.4545454545455,4,2,0,80,0,0
62969,-83.3333333333333,4,2,0,80,0,0
63369,-45.4545454545455,4,2,0,80,0,0
63569,-83.3333333333333,4,2,0,80,0,0
63969,-45.4545454545455,4,2,0,80,0,0
64169,-83.3333333333333,4,2,0,80,0,0
64569,-45.4545454545455,4,2,0,80,0,0
64769,-83.3333333333333,4,2,0,80,0,0
65169,-50,4,2,0,80,0,0
67969,-100,4,2,0,80,0,0
68769,-76.9230769230769,4,2,0,75,0,0
81569,-76.9230769230769,4,2,0,70,0,0
87969,-100,4,2,0,75,0,0
94369,-58.8235294117647,4,2,0,80,0,0
94769,-250,4,2,0,80,0,0
95169,-83.3333333333333,4,2,0,80,0,0
95369,-83.3333333333333,4,2,0,80,0,0
96769,-62.5,4,2,0,80,0,0
97169,-142.857142857143,4,2,0,80,0,0
97569,-45.4545454545455,4,2,0,80,0,0
97769,-50,4,2,0,80,0,0
97969,-45.4545454545455,4,2,0,80,0,0
98169,-83.3333333333333,4,2,0,80,0,0
98369,-45.4545454545455,4,2,0,80,0,0
98569,-83.3333333333333,4,2,0,80,0,0
98769,-45.4545454545455,4,2,0,80,0,0
98969,-83.3333333333333,4,2,0,80,0,0
99169,-66.6666666666667,4,2,0,80,0,0
99569,-111.111111111111,4,2,0,80,0,0
100769,-76.923076923077,4,2,0,80,0,0
101169,-50,4,2,0,80,0,0
101769,-90.9090909090909,4,2,0,80,0,0
102169,-50,4,2,0,80,0,0
102969,-111.111111111111,4,2,0,80,0,0
103369,-50,4,2,0,80,0,0
104169,-41.6666666666667,4,2,0,80,0,0
104369,-33.3333333333333,4,2,0,80,0,0
104569,-55.5555555555556,4,2,0,80,0,0
104769,-55.5555555555556,4,2,0,80,0,0
104969,-100,4,2,0,80,0,0
105169,-55.5555555555556,4,2,0,80,0,0
105369,-100,4,2,0,80,0,0
110369,-142.857142857143,4,2,0,80,0,0
110769,-47.6190476190476,4,2,0,80,0,0
111169,-100,4,2,0,80,0,0
111569,-47.6190476190476,4,2,0,80,0,0
112369,-83.3333333333333,4,2,0,80,0,0
113969,-50,4,2,0,80,0,0
114169,-125,4,2,0,80,0,0
114569,-50,4,2,0,80,0,0
114769,-125,4,2,0,80,0,0
115169,-50,4,2,0,80,0,0
115369,-125,4,2,0,80,0,0
115769,-50,4,2,0,80,0,0
115969,-125,4,2,0,80,0,0
116369,-50,4,2,0,80,0,0
116569,-125,4,2,0,80,0,0
116769,-71.4285714285714,4,2,0,80,0,0
119069,-50,4,2,0,80,0,0
119969,-76.9230769230769,4,2,0,80,0,0
139169,-66.6666666666667,4,2,0,80,0,0
142369,-76.9230769230769,4,2,0,80,0,0
144769,-76.9230769230769,4,2,0,75,0,0
145569,-76.9230769230769,4,2,0,75,0,1
156569,-90.9090909090909,4,2,0,75,0,1
158369,-76.9230769230769,4,2,0,75,0,1
169369,-100,4,2,0,75,0,0

[Colours]
Combo1 : 210,208,208
Combo2 : 177,200,233
Combo3 : 18,124,255
Combo4 : 225,189,240

[HitObjects]
6,343,14369,6,0,P|62:334|117:321,1,90,2|2,3:2|0:0,0:0:0:0:
126,248,14769,2,0,P|217:270|322:289,1,180,2|8,0:0|0:0,0:0:0:0:
512,299,15569,6,0,P|456:290|401:277,1,90,2|2,0:0|0:0,0:0:0:0:
392,204,15969,2,0,P|301:226|196:245,1,180,2|2,0:0|0:0,0:0:0:0:
61,190,16769,5,8,0:0:0:0:
61,190,17569,6,0,P|71:106|153:90,2,180,2|0|8,3:2|0:0|0:0,0:0:0:0:
381,97,18769,2,0,P|409:64|398:22,1,90,2|2,0:0|0:0,0:0:0:0:
258,0,19169,6,0,P|270:93|282:198,1,180,2|2,0:0|0:0,0:0:0:0:
234,360,19969,1,10,0:2:0:0:
224,368,20369,2,0,P|205:323|180:265,1,90,0|2,0:0|0:0,0:0:0:0:
450,228,20769,6,0,L|438:259,2,22.5,0|0|0,3:3|0:0|0:0,0:0:0:0:
279,178,21169,2,0,L|267:209,2,22.5,2|0|0,0:0|0:0|0:0,0:0:0:0:
512,0,21569,2,0,B|449:-10|426:21|426:29|427:35|401:77|336:63,1,180,8|2,0:0|0:0,0:0:0:0:
277,13,22169,1,2,0:0:0:0:
201,68,22369,6,0,B|154:79|128:37|128:32|129:23|106:-7|43:2,2,180,2|2|8,0:0|0:0|0:0,0:0:0:0:
206,61,23569,1,2,0:0:0:0:
35,185,23769,6,0,P|52:230|84:262,1,90,2|0,0:0|3:3,0:0:0:0:
189,281,24169,2,0,P|179:227|8:65,1,270,0|8,0:0|0:0,0:0:0:0:
38,75,25369,6,0,B|64:29|132:-21|241:49|161:135|243:147|339:134|341:45,2,360,2|2|0,0:0|0:0|0:0,0:0:0:0:
38,75,27169,5,6,3:2:0:0:
0,254,27569,1,2,3:2:0:0:
176,297,27969,1,2,3:2:0:0:
220,119,28369,1,2,3:2:0:0:
220,119,28769,5,2,3:2:0:0:
182,298,29169,1,2,3:2:0:0:
358,341,29569,1,2,3:2:0:0:
402,164,29969,1,2,3:2:0:0:
262,15,30369,5,2,3:2:0:0:
308,185,30769,1,2,3:2:0:0:
358,341,31169,1,2,3:2:0:0:
351,351,31569,1,2,3:2:0:0:
152,330,31969,6,0,P|152:302|197:279,1,72,2|2,3:2|3:2,0:0:0:0:
72,178,32369,2,0,P|91:197|139:182,1,72,2|2,3:2|3:2,0:0:0:0:
236,200,32769,1,2,3:2:0:0:
66,277,32969,1,2,3:2:0:0:
190,120,33169,2,0,P|181:84|172:50,1,72,2|2,3:2|3:2,0:0:0:0:
90,18,33569,5,2,3:2:0:0:
193,136,33969,1,2,3:2:0:0:
339,85,34369,1,2,3:2:0:0:
473,188,34769,1,2,3:2:0:0:
473,188,35169,5,2,3:2:0:0:
370,306,35569,1,2,3:2:0:0:
224,255,35969,1,2,3:2:0:0:
90,358,36369,1,2,3:2:0:0:
89,235,36769,5,2,3:2:0:0:
224,363,36969,1,0,3:0:0:0:
0,313,37169,5,2,3:2:0:0:
238,243,37369,1,0,3:0:0:0:
90,89,37569,5,2,3:2:0:0:
227,374,37769,1,0,3:0:0:0:
252,95,37969,5,2,3:2:0:0:
0,201,38169,1,0,3:0:0:0:
46,17,38369,5,0,3:0:0:0:
75,34,38469,1,0,3:0:0:0:
111,51,38569,1,0,3:0:0:0:
125,87,38669,1,0,3:0:0:0:
153,115,38769,1,0,3:0:0:0:
165,152,38869,1,0,3:0:0:0:
153,189,38969,1,0,3:0:0:0:
183,214,39069,1,0,3:0:0:0:
210,242,39169,5,0,3:0:0:0:
235,243,39269,1,0,3:0:0:0:
253,262,39369,1,0,3:0:0:0:
278,266,39469,1,0,3:0:0:0:
317,259,39569,1,0,3:0:0:0:
334,259,39669,1,0,3:0:0:0:
347,269,39769,1,0,3:0:0:0:
363,261,39869,1,0,3:0:0:0:
374,248,39969,5,0,1:0:0:0:
391,170,40169,1,0,1:0:0:0:
167,359,43169,6,0,B|233:376|266:323|263:316|259:309|288:247|355:264,1,229.500004377365,0|0,1:0|0:0,0:0:0:0:
328,347,43569,6,0,P|266:315|217:300,1,99.0000030212403,2|0,2:0|0:0,0:0:0:0:
216,225,43769,2,0,P|187:239|149:268,1,53.9999983520508,2|0,2:0|0:0,0:0:0:0:
81,220,43969,1,8,0:0:0:0:
225,38,44169,6,0,P|228:107|241:158,1,99.0000030212403,2|0,2:0|0:0,0:0:0:0:
169,197,44369,2,0,P|195:215|239:233,1,53.9999983520508,2|0,2:0|0:0,0:0:0:0:
238,305,44569,1,2,0:0:0:0:
0,277,44769,6,0,P|58:239|93:207,1,99.0000030212403,2|0,1:2|0:0,0:0:0:0:
168,251,44969,2,0,P|170:218|163:169,1,53.9999983520508,2|0,2:0|0:0,0:0:0:0:
234,136,45169,1,2,2:0:0:0:
65,56,45369,6,0,P|123:93|158:126,1,99.0000030212403,2|0,0:0|0:0,0:0:0:0:
233,82,45569,2,0,P|235:114|228:164,1,53.9999983520508,10|0,0:2|0:0,0:0:0:0:
299,197,45769,1,2,2:0:0:0:
160,363,45969,6,0,P|218:325|253:293,1,99.0000030212403,2|0,2:0|0:0,0:0:0:0:
328,337,46169,2,0,P|330:304|323:255,1,53.9999983520508,2|0,0:0|0:0,0:0:0:0:
401,232,46369,6,0,B|389:177|389:177|382:172|382:172|369:116,1,94.499997116089,0|0,1:2|0:0,0:0:0:0:
338,76,46569,2,0,B|348:58|346:28|346:28|356:59|388:84,1,94.499997116089
490,190,46769,6,0,P|428:222|379:237,1,99.0000030212403,0|0,1:0|0:0,0:0:0:0:
375,309,46969,2,0,P|346:295|308:266,1,53.9999983520508,2|0,0:0|0:0,0:0:0:0:
248,320,47169,1,10,0:2:0:0:
158,101,47369,6,0,P|220:133|269:148,1,99.0000030212403,2|0,0:0|0:0,0:0:0:0:
272,228,47569,2,0,P|301:214|339:185,1,53.9999983520508,2|0,0:0|0:0,0:0:0:0:
400,231,47769,1,2,0:0:0:0:
512,69,47969,6,0,P|471:86|442:69,1,53.9999983520508,2|0,1:2|0:0,0:0:0:0:
401,33,48169,2,0,B|387:6|401:-18|401:-18|412:4|401:38,1,103.500001974106,2|0,0:0|0:0,0:0:0:0:
332,74,48369,2,0,P|305:69|287:50,1,53.9999983520508,2|0,0:0|0:0,0:0:0:0:
315,158,48569,6,0,P|274:175|245:158,1,53.9999983520508,2|0,0:0|1:0,0:0:0:0:
197,118,48769,2,0,B|185:90|201:66|201:66|210:90|196:123,1,103.500001974106,8|0,0:0|0:0,0:0:0:0:
120,158,48969,2,0,P|101:156|79:138,2,38.2500007295609,2|0|0,0:0|0:0|0:0,0:0:0:0:
188,203,49169,1,0,3:0:0:0:
181,241,49269,1,0,3:0:0:0:
119,285,49369,1,0,3:0:0:0:
115,309,49469,1,0,3:0:0:0:
166,360,49569,6,0,L|291:347,1,76.5000014591217,0|0,1:0|0:0,0:0:0:0:
323,349,49769,2,0,P|337:346|321:346,1,45
380,200,49969,6,0,P|336:210|345:282,1,99.0000030212403,2|0,0:2|0:0,0:0:0:0:
406,308,50169,2,0,P|428:293|438:269,1,53.9999983520508,2|0,0:2|0:0,0:0:0:0:
433,37,50369,1,10,0:2:0:0:
438,29,50569,6,0,P|482:21|502:90,1,99.0000030212403,2|0,0:2|0:0,0:0:0:0:
456,137,50769,2,0,P|429:132|410:113,1,53.9999983520508,2|0,0:2|0:0,0:0:0:0:
189,78,50969,1,2,0:2:0:0:
183,70,51169,6,0,P|205:28|252:29,1,99.0000030212403,2|0,1:2|0:0,0:0:0:0:
279,120,51369,2,0,P|259:138|233:142,1,53.9999983520508,2|0,0:2|0:0,0:0:0:0:
78,242,51569,1,2,0:2:0:0:
73,249,51769,6,0,P|61:294|96:325,1,99.0000030212403,2|0,0:2|0:0,0:0:0:0:
177,277,51969,2,0,P|175:250|158:229,1,53.9999983520508,10|0,0:2|0:0,0:0:0:0:
32,136,52169,1,2,0:2:0:0:
37,152,52369,6,0,L|103:146,1,53.9999983520508,4|0,0:3|0:0,0:0:0:0:
195,136,52569,2,0,L|299:124,1,80.9999975280763,8|0,0:3|0:0,0:0:0:0:
380,111,52769,2,0,B|470:98|470:98|454:67,1,112.5,0|0,1:0|0:0,0:0:0:0:
333,0,52969,6,0,L|327:53,1,45,2|0,0:0|0:0,0:0:0:0:
317,192,53169,2,0,L|311:245,1,45,2|0,0:0|0:0,0:0:0:0:
302,344,53369,2,0,B|309:362|299:384|299:384|293:353|302:338,1,80.9999975280763,2|0,3:0|0:0,0:0:0:0:
441,344,53569,6,0,P|408:321|395:283,1,80.9999975280763,8|0,0:0|0:0,0:0:0:0:
317,192,53769,2,0,P|304:229|271:252,1,80.9999975280763,2|0,0:0|0:0,0:0:0:0:
192,361,53969,6,0,P|179:323|146:300,1,80.9999975280763,2|0,0:0|0:0,0:0:0:0:
56,317,54169,2,0,B|37:311|16:324|16:324|35:335|61:316,1,80.9999975280763,2|0,3:0|0:0,0:0:0:0:
75,232,54369,5,0,1:3:0:0:
119,212,54469,1,0,3:0:0:0:
146,171,54569,1,0,3:0:0:0:
124,130,54669,1,0,3:0:0:0:
90,94,54769,5,0,3:0:0:0:
147,119,54869,1,0,3:0:0:0:
192,101,54969,1,0,3:0:0:0:
205,79,55069,1,0,3:0:0:0:
208,67,55169,1,8,0:0:0:0:
200,60,55369,5,2,0:0:0:0:
219,148,55469,1,2,0:0:0:0:
302,178,55569,1,0,1:0:0:0:
380,138,55669,1,0,1:0:0:0:
381,52,55769,1,0,1:0:0:0:
379,42,55869,1,0,0:0:0:0:
377,30,55969,6,0,L|369:-7,1,31.4999990386963,0|0,1:0|0:0,0:0:0:0:
408,210,56169,2,0,L|400:173,1,31.4999990386963,0|0,1:0|0:0,0:0:0:0:
419,308,56369,5,2,0:0:0:0:
422,321,56569,2,0,L|377:313,1,45,2|0,0:0|0:0,0:0:0:0:
79,224,56769,1,10,0:0:0:0:
51,311,56969,5,2,0:0:0:0:
48,324,57169,2,0,L|92:316,1,45,2|0,0:0|0:0,0:0:0:0:
292,132,57369,1,2,0:0:0:0:
320,219,57569,5,0,1:0:0:0:
323,232,57769,2,0,L|278:224,1,45,2|0,0:0|0:0,0:0:0:0:
180,54,57969,1,2,0:0:0:0:
152,141,58169,5,2,0:0:0:0:
149,154,58369,2,0,L|193:146,1,45,10|0,0:2|0:0,0:0:0:0:
403,89,58569,1,2,0:0:0:0:
403,89,58769,5,2,0:0:0:0:
403,89,58969,2,0,B|382:78|384:95|406:112|417:97|412:81|412:81|410:78|380:78|374:77|398:103|403:89|403:89,1,72,2|0,0:0|0:0,0:0:0:0:
341,151,59169,6,0,B|331:163|331:163|372:199|372:199|435:192|435:192|432:174,3,144,0|2|2|2,1:3|0:3|0:0|0:3,0:0:0:0:
267,217,59969,1,8,0:0:0:0:
470,273,60169,1,0,0:0:0:0:
359,265,60369,1,0,1:0:0:0:
356,274,60469,1,0,1:0:0:0:
352,286,60569,1,8,0:0:0:0:
167,357,60769,6,0,P|175:309|182:283,1,72,0|0,1:0|0:0,0:0:0:0:
108,251,60969,1,0,0:0:0:0:
101,262,61069,2,0,P|79:277|57:286,2,36
100,177,61269,2,0,P|82:173|65:167,2,36
156,117,61469,2,0,P|150:99|147:82,1,36
179,201,61569,1,8,0:0:0:0:
177,211,61769,5,2,0:0:0:0:
249,238,61869,1,2,0:0:0:0:
314,193,61969,1,2,0:0:0:0:
304,117,62069,1,2,0:0:0:0:
292,117,62169,1,2,0:0:0:0:
279,118,62269,1,2,0:0:0:0:
263,120,62369,6,0,P|234:69|268:33,1,99.0000030212403,0|0,1:0|0:0,0:0:0:0:
346,0,62569,2,0,P|365:48|385:107,1,99.0000030212403,2|0,2:3|0:0,0:0:0:0:
497,110,62769,6,0,P|482:157|439:168,1,99.0000030212403,2|0,0:0|0:0,0:0:0:0:
363,215,62969,2,0,P|327:198|295:185,1,53.9999983520508,2|0,0:0|0:0,0:0:0:0:
490,194,63169,1,10,0:2:0:0:
414,300,63369,6,0,P|370:322|331:300,1,99.0000030212403,2|0,0:0|0:0,0:0:0:0:
253,278,63569,2,0,P|239:240|226:208,1,53.9999983520508,2|0,0:0|0:0,0:0:0:0:
349,354,63769,1,2,0:0:0:0:
239,383,63969,6,0,P|191:368|180:325,1,99.0000030212403,2|0,1:2|0:0,0:0:0:0:
134,248,64169,2,0,P|151:212|164:180,1,53.9999983520508,2|0,0:0|0:0,0:0:0:0:
154,375,64369,1,2,0:0:0:0:
55,312,64569,6,0,P|32:268|54:229,1,99.0000030212403,2|0,0:0|0:0,0:0:0:0:
76,142,64769,2,0,P|113:128|145:115,1,53.9999983520508,10|0,0:2|0:0,0:0:0:0:
0,246,64969,1,2,0:0:0:0:
29,6,65169,6,0,P|64:36|127:30,1,90,4|0,3:0|0:0,0:0:0:0:
256,0,65369,2,0,P|217:26|207:88,1,90,8|0,0:3|0:0,0:0:0:0:
213,162,65569,5,0,1:0:0:0:
247,172,65669,1,0,3:0:0:0:
273,147,65769,1,0,3:0:0:0:
310,148,65869,1,0,3:0:0:0:
326,120,65969,1,0,3:0:0:0:
358,133,66069,1,0,3:0:0:0:
374,164,66169,1,0,3:0:0:0:
407,170,66269,1,0,3:0:0:0:
435,195,66369,5,8,0:0:0:0:
405,214,66469,1,0,3:0:0:0:
397,249,66569,1,0,3:0:0:0:
362,267,66669,1,0,3:0:0:0:
348,300,66769,1,0,3:0:0:0:
312,305,66869,1,0,3:0:0:0:
305,350,66969,1,0,3:0:0:0:
353,351,67069,1,0,3:0:0:0:
373,320,67169,5,0,1:0:0:0:
322,303,67269,1,0,3:0:0:0:
280,320,67369,1,0,3:0:0:0:
226,323,67469,1,0,3:0:0:0:
196,288,67569,1,0,3:0:0:0:
140,290,67669,1,0,3:0:0:0:
125,243,67769,1,0,3:0:0:0:
97,209,67869,1,0,3:0:0:0:
101,162,67969,6,0,P|84:131|54:124,1,45,8|0,0:0|3:0,0:0:0:0:
54,46,68169,2,0,P|20:58|-6:90,1,45,0|0,3:0|3:0,0:0:0:0:
191,199,68369,5,0,1:0:0:0:
231,179,68469,1,0,1:0:0:0:
246,136,68569,1,8,0:0:0:0:
144,35,68769,6,0,P|202:54|243:-28,1,116.999994644165,4|0,1:0|0:0,0:0:0:0:
391,121,69169,2,0,P|337:105|321:52,1,116.999994644165,2|0,0:0|0:0,0:0:0:0:
512,205,69569,2,0,P|427:229|347:265,1,175.499991966248,8|0,0:0|0:0,0:0:0:0:
364,346,69969,2,0,P|394:372|457:323,1,116.999994644165,2|0,0:0|0:0,0:0:0:0:
454,119,70369,5,0,1:0:0:0:
448,136,70769,2,0,P|394:148|322:171,1,116.999994644165,2|0,0:0|0:0,0:0:0:0:
207,344,71169,2,0,P|123:313|21:290,1,175.499991966248,8|0,0:0|0:0,0:0:0:0:
18,208,71569,2,0,P|68:179|125:166,1,116.999994644165,2|0,0:0|0:0,0:0:0:0:
325,0,71969,5,0,1:0:0:0:
340,9,72369,2,0,P|349:67|308:121,1,116.999994644165,2|0,0:0|0:0,0:0:0:0:
94,8,72769,2,0,P|159:66|214:134,1,175.499991966248,8|0,0:0|0:0,0:0:0:0:
297,128,73169,2,0,P|325:186|347:249,1,116.999994644165,2|0,0:0|0:0,0:0:0:0:
101,184,73569,5,2,1:2:0:0:
27,247,73769,1,2,0:2:0:0:
96,317,73969,1,2,0:2:0:0:
168,250,74169,1,2,0:2:0:0:
433,332,74369,5,10,0:2:0:0:
509,274,74569,1,2,0:2:0:0:
448,201,74769,1,2,0:2:0:0:
366,258,74969,1,2,0:2:0:0:
282,328,75169,6,0,P|266:241|248:155,1,175.499991966248,0|0,1:0|0:0,0:0:0:0:
192,75,75569,2,0,P|146:96|172:162,1,116.999994644165,2|0,0:0|0:0,0:0:0:0:
483,272,75969,1,8,0:0:0:0:
479,282,76369,2,0,P|426:265|353:257,1,116.999994644165,2|0,0:0|0:0,0:0:0:0:
0,269,76769,6,0,P|87:260|169:230,1,175.499991966248,0|0,1:0|0:0,0:0:0:0:
138,121,77169,2,0,P|82:122|60:173,1,116.999994644165,2|0,0:0|0:0,0:0:0:0:
140,345,77569,1,8,0:0:0:0:
157,348,77969,2,0,P|209:322|264:302,1,116.999994644165,2|0,0:0|0:0,0:0:0:0:
504,168,78369,6,0,P|417:155|381:71,1,175.499991966248,0|0,1:0|0:0,0:0:0:0:
283,107,78769,2,0,P|293:171|242:210,1,116.999994644165,2|0,0:0|0:0,0:0:0:0:
4,56,79169,1,8,0:0:0:0:
8,70,79569,2,0,P|100:40|146:29,1,116.999994644165,2|0,0:0|0:0,0:0:0:0:
419,269,79969,5,2,1:2:0:0:
297,326,80169,1,2,0:2:0:0:
259,205,80369,1,2,0:2:0:0:
374,166,80569,1,2,0:2:0:0:
373,178,80669,1,0,1:0:0:0:
372,192,80769,1,10,0:2:0:0:
189,113,80969,2,0,L|177:179,1,58.4999973220826
359,60,81169,1,2,1:2:0:0:
358,73,81269,1,2,1:2:0:0:
221,360,81569,5,4,0:0:0:0:
153,276,87969,6,0,L|256:258,1,90,2|2,3:2|0:0,0:0:0:0:
291,362,88369,2,0,P|287:381|285:400,2,22.5,2|0|0,0:0|0:0|0:0,0:0:0:0:
247,268,88569,1,0,0:0:0:0:
406,244,88769,2,0,B|340:254|331:212|332:208|334:203|309:160|255:171,1,180,8|2,0:0|0:0,0:0:0:0:
402,155,89369,1,2,0:0:0:0:
234,174,89569,6,0,P|183:185|111:199,1,90,2|2,0:0|0:0,0:0:0:0:
0,0,89969,2,0,P|45:62|110:63,1,135,2|0,0:0|0:0,0:0:0:0:
184,101,90369,2,0,P|213:72|222:22,1,90,8|0,0:0|0:0,0:0:0:0:
305,108,90769,1,2,0:0:0:0:
110,58,90969,1,2,0:0:0:0:
135,291,91169,5,2,1:2:0:0:
147,287,91569,1,0,1:0:0:0:
160,280,91969,1,8,1:2:0:0:
172,273,92369,1,2,1:2:0:0:
189,264,92769,5,0,1:0:0:0:
153,376,92969,1,0,1:0:0:0:
31,331,93169,1,0,1:0:0:0:
304,275,93369,1,0,1:0:0:0:
82,244,93569,1,0,1:0:0:0:
80,227,93669,1,0,1:0:0:0:
77,210,93769,1,0,1:0:0:0:
75,193,93869,1,0,1:0:0:0:
73,177,93969,1,4,1:0:0:0:
71,165,94369,6,0,B|186:149|186:149|194:142|194:142|313:124,1,229.500004377365,0|0,1:0|0:0,0:0:0:0:
139,25,94769,2,0,P|121:46|119:74,1,54,2|0,0:0|1:0,0:0:0:0:
389,206,95169,2,0,P|407:185|410:155,1,53.9999983520508,8|0,0:0|0:0,0:0:0:0:
305,13,95369,2,0,P|277:7|250:20,1,53.9999983520508,2|0,0:0|0:0,0:0:0:0:
193,184,95669,2,0,P|202:210|226:227,1,53.9999983520508,2|0,0:0|0:0,0:0:0:0:
209,235,95969,6,0,P|188:218|179:192,1,53.9999983520508,0|0,1:0|0:0,0:0:0:0:
253,4,96268,2,0,P|277:-5|304:0,1,53.9999983520508,2|0,0:0|0:0,0:0:0:0:
431,174,96569,2,0,P|426:200|409:220,1,53.9999983520508,2|0,0:0|0:0,0:0:0:0:
331,196,96769,1,8,0:0:0:0:
325,189,96869,2,0,P|331:153|375:116,1,72
512,205,97169,2,0,P|505:239|486:265,1,62.9999980773926,2|2,0:0|0:3,0:0:0:0:
411,324,97569,6,0,P|361:315|301:311,1,99.0000030212403,0|0,1:0|0:0,0:0:0:0:
191,301,97769,2,0,B|193:329|184:347|184:347|195:331|237:318,1,90,2|0,0:0|0:0,0:0:0:0:
87,238,97969,2,0,P|135:226|176:200,1,99.0000030212403,0|0,3:3|0:0,0:0:0:0:
236,148,98169,2,0,P|250:125|262:101,1,53.9999983520508,2|0,0:0|0:0,0:0:0:0:
326,185,98369,2,0,P|277:173|236:147,1,99.0000030212403,10|0,0:2|0:0,0:0:0:0:
176,94,98569,2,0,P|161:71|149:47,1,53.9999983520508,0|0,3:3|0:0,0:0:0:0:
0,144,98769,2,0,P|74:119|107:89,1,99.0000030212403,2|0,0:0|0:0,0:0:0:0:
149,47,98969,2,0,P|170:12|181:-12,1,53.9999983520508,2|0,0:0|0:0,0:0:0:0:
434,170,99169,6,0,B|450:187|450:187|406:198|387:229|387:229|363:209|316:209|316:209|330:175,1,202.500007724762,0|0,1:0|0:0,0:0:0:0:
370,111,99569,2,0,B|385:81|357:57|357:57|340:92|370:110,1,121.499996292114,0|0,0:0|1:0,0:0:0:0:
404,312,99969,1,8,0:0:0:0:
405,321,100169,5,2,3:0:0:0:
348,337,100269,1,0,3:0:0:0:
276,320,100369,5,0,3:0:0:0:
249,327,100469,1,0,3:0:0:0:
172,318,100569,5,2,3:0:0:0:
159,324,100669,1,0,3:0:0:0:
84,301,100769,6,0,B|66:277|66:277|90:247,1,58.4999973220826,0|0,1:0|0:0,0:0:0:0:
163,192,100969,2,0,B|181:216|181:216|154:245,1,58.4999973220826,2|0,0:0|0:0,0:0:0:0:
8,202,101169,6,0,P|36:169|75:98,1,90,0|0,3:0|0:0,0:0:0:0:
164,100,101369,2,0,P|178:55|185:9,1,90,0|0,3:0|0:0,0:0:0:0:
36,28,101569,1,8,0:0:0:0:
34,41,101769,6,0,P|67:41|65:0,1,49.5000015106202,0|0,3:0|0:0,0:0:0:0:
139,134,101969,2,0,P|160:123|163:99,1,49.5000015106202,2|0,3:0|0:0,0:0:0:0:
316,54,102169,2,0,P|288:87|249:158,1,90,0|0,3:0|0:0,0:0:0:0:
218,252,102369,2,0,P|213:296|214:341,1,90,0|0,1:0|0:0,0:0:0:0:
421,146,102569,6,0,P|389:175|330:214,1,90,0|0,3:0|0:0,0:0:0:0:
218,252,102769,2,0,P|173:259|128:259,1,90,0|0,3:0|0:0,0:0:0:0:
0,213,102969,6,0,P|22:227|59:242,1,40.4999987640381,2|0,3:0|0:0,0:0:0:0:
332,384,103169,1,8,0:0:0:0:
341,382,103369,6,0,P|317:327|307:281,1,90,2|0,2:0|0:0,0:0:0:0:
305,84,103569,6,0,B|287:39|287:39|276:100,1,90,6|0,2:3|0:0,0:0:0:0:
218,252,103769,2,0,B|198:295|198:295|249:258,1,90,10|0,3:3|0:0,0:0:0:0:
456,205,103969,1,0,1:2:0:0:
451,212,104169,2,0,B|453:243|475:262|475:262|451:251|421:267,1,107.999996704102,0|0,3:2|0:0,0:0:0:0:
350,202,104369,2,0,B|288:185|288:185|282:179|282:179|165:148,1,135.000005149842,2|0,3:2|0:0,0:0:0:0:
105,162,104569,2,0,B|85:125|85:125|129:107,1,80.9999975280763,0|0,3:2|0:0,0:0:0:0:
205,0,104769,6,0,L|216:119,1,80.9999975280763,8|0,3:2|0:0,0:0:0:0:
221,163,104969,2,0,L|228:231,1,45,0|0,3:2|0:0,0:0:0:0:
342,282,105169,6,0,L|353:163,1,80.9999975280763,0|0,3:2|0:0,0:0:0:0:
358,119,105369,2,0,L|365:51,1,45,0|0,3:2|0:0,0:0:0:0:
471,167,105569,5,0,1:0:0:0:
469,182,105769,2,0,P|456:203|436:213,1,45,0|0,3:0|3:0,0:0:0:0:
451,318,105969,1,2,3:3:0:0:
394,343,106069,1,0,3:0:0:0:
349,325,106169,1,0,3:0:0:0:
336,303,106269,1,0,3:0:0:0:
333,291,106369,1,8,0:0:0:0:
329,277,106569,5,2,0:0:0:0:
277,356,106669,1,2,0:0:0:0:
191,327,106769,1,2,3:0:0:0:
187,236,106869,1,0,3:0:0:0:
275,209,106969,1,0,3:0:0:0:
273,218,107069,1,0,3:0:0:0:
270,226,107169,5,0,1:0:0:0:
171,355,107369,1,0,1:0:0:0:
83,270,107569,5,2,0:0:0:0:
83,284,107769,2,0,L|14:269,1,45,2|0,0:0|0:0,0:0:0:0:
426,156,107969,1,10,0:0:0:0:
361,229,108169,5,2,0:0:0:0:
361,243,108369,2,0,L|430:228,1,45,2|0,0:0|0:0,0:0:0:0:
81,92,108569,1,2,0:0:0:0:
138,178,108769,5,2,1:2:0:0:
138,192,108969,2,0,L|69:177,1,45,2|0,0:0|0:0,0:0:0:0:
376,67,109169,1,2,0:0:0:0:
302,150,109369,5,2,0:0:0:0:
304,163,109569,2,0,L|373:148,1,45,10|0,0:0|0:0,0:0:0:0:
149,16,109769,1,2,0:0:0:0:
222,99,109969,5,2,0:0:0:0:
217,111,110169,2,0,L|170:102,1,45,0|0,3:0|0:0,0:0:0:0:
4,180,110369,6,0,B|45:170|45:170|56:175|56:175|115:161,1,94.499997116089,0|0,1:0|0:0,0:0:0:0:
68,86,110769,2,0,B|51:171|51:171|54:186|54:186|34:293,1,188.999994232178,2|2,3:1|0:0,0:0:0:0:
127,379,111169,1,10,2:0:0:0:
118,384,111369,2,0,L|107:310,1,45,2|0,0:0|0:0,0:0:0:0:
255,226,111569,1,0,1:0:0:0:
251,236,111669,2,0,B|307:225|337:263|336:271|333:278|367:314|428:289,1,188.999994232178,0|0,1:0|0:0,0:0:0:0:
390,201,111969,6,0,B|334:208|323:256|328:261|334:267|326:315|272:334,1,188.999994232178,2|2,1:2|0:0,0:0:0:0:
191,304,112369,1,2,0:0:0:0:
299,148,112569,1,0,1:0:0:0:
295,130,112669,1,0,1:0:0:0:
291,113,112769,1,8,0:0:0:0:
475,228,112969,1,2,0:0:0:0:
310,269,113169,1,0,3:0:0:0:
321,248,113269,1,0,3:0:0:0:
341,252,113369,1,0,3:0:0:0:
350,275,113469,1,0,3:0:0:0:
326,287,113569,5,0,1:0:0:0:
331,266,113769,1,0,3:0:0:0:
462,136,113969,2,0,P|416:122|375:91,1,90,2|0,0:0|0:0,0:0:0:0:
322,44,114169,2,0,P|307:10|301:-11,1,36,2|0,0:0|0:0,0:0:0:0:
150,42,114369,1,10,0:0:0:0:
163,48,114569,6,0,P|173:94|167:145,1,90,2|0,0:0|0:0,0:0:0:0:
153,215,114769,2,0,P|131:244|115:260,1,36,2|0,0:0|0:0,0:0:0:0:
421,264,114969,1,2,0:0:0:0:
418,250,115169,6,0,P|369:251|322:270,1,90,2|0,1:2|0:0,0:0:0:0:
259,303,115369,2,0,P|235:331|224:350,1,36,2|0,0:0|0:0,0:0:0:0:
80,130,115569,1,2,0:0:0:0:
83,120,115769,6,0,P|131:121|178:140,1,90,2|0,0:0|0:0,0:0:0:0:
242,173,115969,2,0,P|265:201|276:220,1,36,10|0,0:2|0:0,0:0:0:0:
479,13,116169,1,2,0:0:0:0:
478,0,116369,2,0,P|429:1|392:20,1,90,2|0,0:0|0:0,0:0:0:0:
319,53,116569,2,0,P|295:81|284:100,1,36,2|0,0:0|0:0,0:0:0:0:
94,17,116769,6,0,B|91:31|91:31|225:20,1,125.999996154785,0|2,1:0|0:0,0:0:0:0:
505,170,117169,2,0,B|514:183|514:183|416:175|320:169,1,188.999994232178,2|0,0:0|0:0,0:0:0:0:
263,205,117569,2,0,L|116:192,1,125.999996154785,10|0,0:2|0:0,0:0:0:0:
0,301,117969,2,0,B|-9:315|-9:315|89:306|185:300,1,188.999994232178,2|0,0:0|0:0,0:0:0:0:
268,339,118369,5,0,1:0:0:0:
266,353,118469,1,0,0:0:0:0:
309,359,118569,1,0,3:0:0:0:
348,339,118669,1,0,3:0:0:0:
367,299,118769,1,2,3:0:0:0:
392,262,118869,1,0,3:0:0:0:
438,241,118969,1,0,3:0:0:0:
489,256,119069,1,0,0:0:0:0:
489,268,119169,5,8,0:0:0:0:
282,289,119569,1,0,1:0:0:0:
243,229,119669,1,0,1:0:0:0:
292,175,119769,1,8,0:0:0:0:
219,123,119869,1,0,0:0:0:0:
290,69,119969,5,6,1:2:0:0:
293,84,120369,2,0,P|342:100|383:18,1,116.999994644165,2|0,0:0|0:0,0:0:0:0:
512,205,120769,2,0,P|427:229|347:265,1,175.499991966248,8|0,0:0|0:0,0:0:0:0:
364,346,121169,2,0,P|394:372|457:323,1,116.999994644165,2|0,0:0|0:0,0:0:0:0:
445,129,121569,5,0,1:0:0:0:
462,123,121969,2,0,P|468:83|478:-8,1,116.999994644165,2|0,0:0|0:0,0:0:0:0:
291,194,122369,2,0,P|207:163|105:140,1,175.499991966248,8|0,0:0|0:0,0:0:0:0:
107,65,122769,2,0,P|34:84|-12:116,1,116.999994644165,2|0,0:0|0:0,0:0:0:0:
351,0,123169,5,0,1:0:0:0:
338,9,123569,2,0,P|347:67|360:123,1,116.999994644165,2|0,0:0|0:0,0:0:0:0:
512,384,123969,2,0,P|396:337|332:338,1,175.499991966248,8|0,0:0|0:0,0:0:0:0:
263,287,124369,2,0,P|201:303|140:333,1,116.999994644165,2|0,0:0|0:0,0:0:0:0:
99,120,124769,5,2,1:2:0:0:
25,183,124969,1,2,0:2:0:0:
94,253,125169,1,2,0:2:0:0:
166,186,125369,1,2,0:2:0:0:
418,36,125569,5,10,0:2:0:0:
494,94,125769,1,2,0:2:0:0:
433,167,125969,1,2,0:2:0:0:
351,110,126169,1,2,0:2:0:0:
305,363,126369,6,0,P|289:276|271:190,1,175.499991966248,0|0,1:0|0:0,0:0:0:0:
202,107,126769,2,0,P|156:128|182:194,1,116.999994644165,2|0,0:0|0:0,0:0:0:0:
475,277,127169,1,8,0:0:0:0:
471,287,127569,2,0,P|418:270|345:262,1,116.999994644165,2|0,0:0|0:0,0:0:0:0:
202,107,127969,6,0,P|116:137|28:145,1,175.499991966248,0|0,1:0|0:0,0:0:0:0:
46,64,128369,2,0,P|104:56|165:35,1,116.999994644165,2|0,0:0|0:0,0:0:0:0:
432,0,128769,1,8,0:0:0:0:
445,0,129169,2,0,P|428:67|420:125,1,116.999994644165,2|0,0:0|0:0,0:0:0:0:
296,384,129569,6,0,P|280:304|253:203,1,175.499991966248,0|0,1:0|0:0,0:0:0:0:
155,220,129969,2,0,P|145:284|196:323,1,116.999994644165,2|0,0:0|0:0,0:0:0:0:
475,220,130369,1,8,0:0:0:0:
471,234,130769,2,0,P|379:204|333:193,1,116.999994644165,2|0,0:0|0:0,0:0:0:0:
145,0,131169,5,2,1:2:0:0:
5,50,131369,1,2,0:2:0:0:
55,179,131569,1,2,0:2:0:0:
195,128,131769,1,2,0:2:0:0:
349,79,131969,5,10,0:2:0:0:
489,129,132169,1,2,0:2:0:0:
439,258,132369,1,2,1:2:0:0:
305,217,132569,1,10,1:2:0:0:
40,304,132769,5,2,1:2:0:0:
86,325,132869,1,0,0:0:0:0:
127,309,132969,1,0,0:0:0:0:
139,285,133069,1,0,0:0:0:0:
127,273,133169,1,0,0:0:0:0:
116,276,133269,1,0,0:0:0:0:
112,284,133369,1,0,0:0:0:0:
65,218,133569,5,8,0:0:0:0:
111,292,133769,5,0,0:0:0:0:
151,325,133869,1,0,0:0:0:0:
201,308,133969,1,2,0:0:0:0:
219,258,134069,1,0,0:0:0:0:
236,240,134169,1,0,0:0:0:0:
255,240,134269,1,0,0:0:0:0:
263,247,134369,5,2,1:2:0:0:
277,297,134469,1,0,0:0:0:0:
231,322,134569,1,0,0:0:0:0:
183,300,134669,1,0,0:0:0:0:
162,251,134769,1,2,0:0:0:0:
171,199,134869,1,0,0:0:0:0:
190,182,134969,1,0,0:0:0:0:
202,175,135069,1,0,0:0:0:0:
182,177,135169,5,10,0:2:0:0:
147,173,135269,1,0,0:0:0:0:
109,136,135369,1,0,0:0:0:0:
106,83,135469,1,0,0:0:0:0:
135,39,135569,1,2,0:0:0:0:
135,39,135969,5,2,1:2:0:0:
141,77,136069,1,0,0:0:0:0:
119,57,136169,1,0,0:0:0:0:
164,41,136269,1,0,0:0:0:0:
201,82,136369,5,2,0:0:0:0:
201,82,136469,1,0,0:0:0:0:
179,55,136569,1,0,0:0:0:0:
223,38,136669,1,0,0:0:0:0:
258,84,136769,5,10,0:2:0:0:
213,69,136869,1,0,0:0:0:0:
254,37,136969,1,0,0:0:0:0:
300,50,137069,1,0,0:0:0:0:
301,60,137169,5,2,0:0:0:0:
303,70,137269,1,0,0:0:0:0:
305,81,137369,1,0,0:0:0:0:
307,92,137469,1,0,0:0:0:0:
310,104,137569,6,0,P|336:101|370:72,2,58.4999973220826,2|0|0,1:2|0:0|0:0,0:0:0:0:
173,85,137869,2,0,P|152:64|144:36,2,58.4999973220826,2|0|0,0:0|0:0|0:0,0:0:0:0:
261,13,138169,1,2,0:0:0:0:
390,255,138369,5,10,0:2:0:0:
392,263,138469,1,0,0:0:0:0:
393,271,138569,1,0,0:0:0:0:
395,278,138669,1,2,0:0:0:0:
397,285,138769,1,0,0:0:0:0:
372,320,138869,1,0,0:0:0:0:
319,327,138969,1,2,0:0:0:0:
285,286,139069,1,0,0:0:0:0:
303,235,139169,6,0,P|347:191|366:182,1,67.5000025749208,2|0,1:2|0:0,0:0:0:0:
440,68,139369,2,0,P|501:56|548:64,1,67.5000025749208,2|0,0:0|0:0,0:0:0:0:
512,185,139569,6,0,P|478:182|446:173,1,67.5000025749208,2|0,0:0|0:0,0:0:0:0:
303,91,139770,2,0,P|275:71|254:44,1,67.5000025749208,2|0,0:0|0:0,0:0:0:0:
132,146,139969,6,0,P|161:162|186:185,1,67.5000025749208,10|0,0:2|0:0,0:0:0:0:
291,322,140169,2,0,P|306:351|313:384,1,67.5000025749208,2|0,0:0|0:0,0:0:0:0:
146,356,140369,6,0,P|160:325|182:300,1,67.5000025749208,2|0,0:0|0:0,0:0:0:0:
289,215,140569,2,0,P|318:198|350:188,1,67.5000025749208,2|0,0:0|0:0,0:0:0:0:
466,375,140769,5,2,1:2:0:0:
474,369,140969,6,0,L|461:302,1,67.5000025749208,2|0,0:0|0:0,0:0:0:0:
442,113,141169,2,0,P|434:76|429:46,1,67.5000025749208,2|0,0:0|0:0,0:0:0:0:
491,222,141369,6,0,P|454:215|424:209,1,67.5000025749208,2|0,0:0|0:0,0:0:0:0:
335,186,141569,2,0,P|297:178|267:172,1,67.5000025749208,10|0,0:2|0:0,0:0:0:0:
103,191,141769,6,0,P|137:184|169:178,1,67.5000025749208,2|0,0:0|0:0,0:0:0:0:
442,113,141968,2,0,P|475:106|508:100,1,67.5000025749208,2|0,0:0|0:0,0:0:0:0:
385,0,142169,2,0,L|372:67,1,67.5000025749208,2|0,0:0|0:0,0:0:0:0:
320,270,142369,6,0,L|293:384,1,116.999994644165,2|0,1:2|0:0,0:0:0:0:
216,276,142769,1,2,0:0:0:0:
490,214,142969,1,2,0:0:0:0:
495,224,143169,2,0,P|475:276|420:282,1,116.999994644165,10|2,0:2|0:0,0:0:0:0:
335,186,143569,1,2,0:0:0:0:
216,276,143769,1,2,0:0:0:0:
60,186,143969,6,0,B|93:147|150:166|150:175|151:183|189:208|235:162,1,175.499991966248,2|0,1:2|0:0,0:0:0:0:
259,78,144369,2,0,P|238:25|183:14,1,116.999994644165,2|0,0:0|0:0,0:0:0:0:
176,20,144669,1,0,1:0:0:0:
174,30,144769,1,10,0:2:0:0:
222,172,144969,1,0,0:0:0:0:
361,89,145169,1,0,1:0:0:0:
360,77,145269,1,0,1:0:0:0:
469,23,145569,6,0,P|451:75|439:151,1,116.999994644165,6|2,1:2|0:0,0:0:0:0:
400,345,145969,2,0,P|373:238|346:167,1,175.499991966248,2|0,0:0|0:0,0:0:0:0:
268,170,146369,2,0,P|229:230|264:270,1,116.999994644165,10|0,0:2|0:0,0:0:0:0:
479,259,146769,1,2,0:0:0:0:
298,341,146969,1,2,0:0:0:0:
512,105,147169,6,0,P|424:99|341:71,1,175.499991966248,2|0,1:2|0:0,0:0:0:0:
255,80,147569,2,0,P|199:35|171:-3,1,116.999994644165,2|0,0:0|0:0,0:0:0:0:
39,306,147969,1,10,0:2:0:0:
44,318,148369,2,0,P|94:308|186:280,1,116.999994644165,2|2,0:0|0:0,0:0:0:0:
318,185,148769,5,2,1:2:0:0:
199,377,148969,1,2,0:0:0:0:
139,137,149169,2,0,P|85:152|63:205,1,116.999994644165
298,384,149569,2,0,P|309:300|396:266,1,175.499991966248,10|0,0:2|0:0,0:0:0:0:
318,185,149969,2,0,P|289:134|321:77,1,116.999994644165,2|2,0:0|0:0,0:0:0:0:
511,40,150369,6,0,P|442:29|303:-7,1,175.499991966248,2|0,1:2|0:0,0:0:0:0:
324,2,150769,1,2,0:0:0:0:
102,102,150969,1,0,0:0:0:0:
97,85,151069,1,0,1:0:0:0:
94,67,151169,1,10,0:2:0:0:
206,36,151369,1,2,0:0:0:0:
210,25,151769,1,0,0:0:0:0:
128,257,151969,6,0,P|72:244|-14:229,1,116.999994644165,6|2,1:2|0:0,0:0:0:0:
266,333,152369,2,0,P|246:239|225:129,1,175.499991966248,2|0,0:0|0:0,0:0:0:0:
380,35,152769,2,0,P|365:91|354:149,1,116.999994644165,10|0,0:2|0:0,0:0:0:0:
452,128,153169,1,2,0:0:0:0:
270,87,153369,1,2,0:0:0:0:
471,265,153569,6,0,B|408:247|363:269|364:292|365:317|321:360|251:327,1,233.999989288331,2|2,1:2|0:0,0:0:0:0:
441,353,154169,1,0,0:0:0:0:
330,208,154369,2,0,P|267:202|239:256,1,116.999994644165,10|0,0:2|0:0,0:0:0:0:
471,265,154769,1,2,0:0:0:0:
239,241,154969,1,2,0:0:0:0:
481,115,155169,6,0,P|468:42|457:-10,1,116.999994644165,2|2,1:2|0:0,0:0:0:0:
288,58,155569,1,2,0:0:0:0:
275,145,155769,1,2,0:0:0:0:
368,163,155969,1,10,0:2:0:0:
382,71,156169,1,2,0:0:0:0:
288,58,156569,6,0,P|299:155|311:271,1,198.000006042481,2|0,0:0|0:0,0:0:0:0:
309,254,157169,1,0,0:0:0:0:
129,199,157369,1,2,0:0:0:0:
113,204,157469,1,0,1:0:0:0:
101,207,157569,1,10,0:2:0:0:
223,163,157769,1,2,0:0:0:0:
215,280,157969,1,0,1:0:0:0:
217,260,158069,1,0,1:0:0:0:
43,23,158369,6,0,P|61:75|73:151,1,116.999994644165,6|2,1:2|0:0,0:0:0:0:
92,361,158769,2,0,P|119:254|146:183,1,175.499991966248,2|0,0:0|0:0,0:0:0:0:
217,260,159169,2,0,P|287:244|290:192,1,116.999994644165,10|0,0:2|0:0,0:0:0:0:
236,34,159569,1,2,0:0:0:0:
129,204,159769,1,2,0:0:0:0:
0,132,159969,6,0,P|87:126|170:98,1,175.499991966248,2|0,1:2|0:0,0:0:0:0:
256,125,160369,2,0,P|312:80|340:42,1,116.999994644165,2|0,0:0|0:0,0:0:0:0:
434,324,160769,1,10,0:2:0:0:
427,335,161169,2,0,P|406:265|397:205,1,116.999994644165,2|2,0:0|0:0,0:0:0:0:
338,44,161569,5,2,1:2:0:0:
512,230,161769,1,2,0:0:0:0:
224,221,161969,2,0,P|242:277|305:279,1,116.999994644165
435,62,162369,2,0,P|353:73|262:96,1,175.499991966248,10|0,0:2|0:0,0:0:0:0:
192,133,162769,2,0,P|125:116|64:108,1,116.999994644165,2|2,0:0|0:0,0:0:0:0:
10,354,163169,6,0,P|79:343|116:232,1,175.499991966248,2|0,1:2|0:0,0:0:0:0:
2,172,163569,2,0,P|-13:243|26:266,1,116.999994644165,2|0,0:0|0:0,0:0:0:0:
28,267,163869,1,0,1:0:0:0:
41,266,163969,1,10,0:2:0:0:
192,133,164169,1,2,0:0:0:0:
192,144,164569,1,0,0:0:0:0:
388,275,164769,6,0,P|444:262|530:247,1,116.999994644165,6|2,1:2|0:0,0:0:0:0:
264,338,165169,2,0,P|284:244|305:134,1,175.499991966248,2|0,0:0|0:0,0:0:0:0:
467,116,165569,2,0,P|444:162|371:167,1,116.999994644165,10|0,0:2|0:0,0:0:0:0:
174,27,165969,1,2,0:0:0:0:
375,82,166169,1,2,0:0:0:0:
273,246,166369,6,0,B|211:260|171:230|176:208|181:183|124:140|70:163,1,233.999989288331,2|2,1:2|0:0,0:0:0:0:
100,248,166969,1,0,0:0:0:0:
215,125,167169,2,0,P|270:121|301:168,1,116.999994644165,10|0,0:2|0:0,0:0:0:0:
358,273,167569,1,2,0:0:0:0:
253,329,167769,1,2,0:0:0:0:
86,140,167969,6,0,P|99:67|110:15,1,116.999994644165,2|2,1:2|0:0,0:0:0:0:
289,13,168369,1,2,0:0:0:0:
311,99,168569,1,2,0:0:0:0:
215,125,168769,1,10,0:2:0:0:
199,38,168969,1,2,0:0:0:0:
213,36,169369,6,0,P|225:131|239:230,1,180,2|0,0:0|0:0,0:0:0:0:
315,279,169969,1,0,0:0:0:0:
434,240,170169,1,2,0:0:0:0:
422,235,170269,1,0,1:0:0:0:
408,230,170369,1,10,0:2:0:0:
325,191,170569,1,2,0:0:0:0:
242,142,170769,1,8,0:0:0:0:
229,135,170869,1,8,0:0:0:0:
