osu file format v14

[General]
AudioFilename: audio.mp3
AudioLeadIn: 0
PreviewTime: 101390
Countdown: 1
SampleSet: Soft
StackLeniency: 0.7
Mode: 0
LetterboxInBreaks: 0
WidescreenStoryboard: 1

[Editor]
DistanceSpacing: 1.4
BeatDivisor: 4
GridSize: 32
TimelineZoom: 2

[Metadata]
Title:Cloud Material
TitleUnicode:Cloud Material
Artist:Darkney
ArtistUnicode:Darkney
Creator:Monstrata
Version:Normal
Source:
Tags:electronic chill bass dnb short version
BeatmapID:1560480
BeatmapSetID:739583

[Difficulty]
HPDrainRate:3
CircleSize:3.5
OverallDifficulty:4
ApproachRate:5
SliderMultiplier:1
SliderTickRate:1

[Events]
//Background and Video events
0,0,"123456.jpg",0,0
//Break Periods
2,3007,4273
2,5673,6940
2,8340,9607
2,13673,14940
2,16340,17607
2,19007,20273
2,80339,89607
//Storyboard Layer 0 (Background)
//Storyboard Layer 1 (Fail)
//Storyboard Layer 2 (Pass)
//Storyboard Layer 3 (Foreground)
//Storyboard Sound Samples

[TimingPoints]
1474,333.333333333333,4,2,1,75,1,0
2140,-100,4,2,1,45,0,0
2807,-100,4,2,1,25,0,0
24140,-100,4,2,1,55,0,0
45473,-100,4,3,1,75,0,0
56140,-100,4,2,1,45,0,0
58807,-100,4,2,1,75,0,0
90807,-100,4,2,1,55,0,0
101473,-100,4,3,1,75,0,0
112140,-100,4,2,1,65,0,0
122807,-100,4,2,1,75,0,0
133473,-100,4,2,1,45,0,0

[Colours]
Combo1 : 157,157,206
Combo2 : 255,174,94
Combo3 : 106,255,255
Combo4 : 255,255,151

[HitObjects]
210,169,2807,5,2,0:0:0:0:
279,146,5473,5,0,0:0:0:0:
302,215,8140,5,0,0:0:0:0:
233,238,10807,5,2,0:0:0:0:
233,238,12140,1,2,0:0:0:0:
139,108,13473,5,2,0:0:0:0:
340,75,16140,5,0,0:0:0:0:
373,276,18807,5,0,0:0:0:0:
172,309,21473,5,2,0:0:0:0:
172,309,22807,1,2,0:0:0:0:
356,231,23473,1,8,0:0:0:0:
196,110,24140,6,0,L|181:327,1,200,8|8,0:0|0:0,0:0:0:0:
280,290,25140,2,0,B|352:263|355:313|436:282,2,150,2|2|10,0:0|0:0|0:0,0:0:0:0:
211,217,26473,1,0,0:0:0:0:
258,128,26807,6,0,B|311:106|311:106|466:119,1,200,2|8,0:3|0:0,0:0:0:0:
479,214,27807,2,0,B|499:274|467:328|467:328|421:342,2,150,2|2|10,0:0|0:0|0:0,0:0:0:0:
395,159,29140,1,8,0:0:0:0:
314,218,29473,6,0,L|97:195,1,200,2|8,0:3|0:0,0:0:0:0:
72,106,30473,2,0,L|110:55,1,50,2|2,0:0|0:0,0:0:0:0:
201,56,30973,2,0,P|248:71|296:62,1,100,2|2,0:0|0:3,0:0:0:0:
341,40,31473,2,0,L|358:152,1,100,10|2,0:0|0:0,0:0:0:0:
270,192,32140,6,0,P|238:282|292:361,1,200,2|8,0:3|0:0,0:0:0:0:
378,309,33140,1,2,0:0:0:0:
477,318,33473,2,0,L|508:209,1,100,2|8,0:3|0:0,0:0:0:0:
473,182,33973,1,0,0:0:0:0:
473,182,34140,2,0,L|504:73,1,100,2|8,0:3|0:0,0:0:0:0:
410,39,34807,6,0,P|363:52|256:26,1,150,10|0,0:0|0:0,0:0:0:0:
220,50,35473,2,0,L|231:158,1,100,8|0,0:0|0:0,0:0:0:0:
169,229,36140,2,0,L|175:287,1,50,2|8,0:0|0:0,0:0:0:0:
311,337,36807,2,0,P|358:320|407:328,1,100,8|2,0:0|0:0,0:0:0:0:
475,254,37473,6,0,B|488:215|488:215|458:90,1,150,10|0,0:0|0:0,0:0:0:0:
420,80,38140,2,0,P|377:98|322:91,1,100,8|2,0:0|0:0,0:0:0:0:
230,54,38807,2,0,P|207:47|182:46,1,50,2|8,0:0|0:0,0:0:0:0:
65,140,39473,2,0,L|84:254,1,100,10|2,0:0|0:0,0:0:0:0:
170,285,40140,6,0,L|195:132,1,150,10|0,0:0|0:0,0:0:0:0:
240,157,40807,2,0,P|295:170|341:156,1,100,8|2,0:0|0:0,0:0:0:0:
422,115,41473,2,0,P|434:163|421:211,1,100,10|0,0:0|0:0,0:0:0:0:
334,261,42140,2,0,P|322:309|335:356,1,100,8|2,0:0|0:0,0:0:0:0:
234,359,42807,6,0,P|161:367|92:338,1,150,10|0,0:0|0:0,0:0:0:0:
81,290,43473,2,0,L|103:186,1,100,8|2,0:0|0:0,0:0:0:0:
167,117,44140,2,0,P|240:108|309:137,1,150,10|2,0:0|0:0,0:0:0:0:
321,186,44806,2,0,L|299:290,1,100,8|2,0:0|0:0,0:0:0:0:
400,285,45473,6,0,P|448:273|496:284,1,100,2|2,0:0|0:0,0:0:0:0:
473,186,46140,2,0,P|460:137|471:89,1,100,2|2,0:0|0:0,0:0:0:0:
373,113,46807,2,0,P|324:125|276:114,1,100,2|2,0:0|0:0,0:0:0:0:
300,212,47473,2,0,P|312:260|301:308,1,100,0|2,0:0|0:0,0:0:0:0:
258,334,47973,1,2,0:0:0:0:
258,334,48140,6,0,L|143:328,1,100,2|2,0:0|0:0,0:0:0:0:
91,253,48807,2,0,L|97:138,1,100,2|2,0:0|0:0,0:0:0:0:
172,86,49473,2,0,L|287:92,1,100,2|2,0:0|0:0,0:0:0:0:
339,167,50140,2,0,L|333:282,1,100,2|2,0:0|0:0,0:0:0:0:
301,305,50640,1,8,0:2:0:0:
301,305,50807,6,0,P|252:315|205:300,1,100,10|10,0:0|0:0,0:0:0:0:
115,344,51473,2,0,P|104:295|119:248,1,100,10|10,0:0|0:0,0:0:0:0:
76,158,52140,2,0,P|124:147|171:162,1,100,10|10,0:0|0:0,0:0:0:0:
262,119,52807,2,0,P|272:167|257:214,1,100,10|0,0:0|0:0,0:0:0:0:
286,254,53307,1,8,0:2:0:0:
286,254,53473,6,0,L|272:313,1,50,8|0,0:0|0:0,0:0:0:0:
293,349,53807,1,8,0:0:0:0:
392,337,54140,2,0,L|406:278,1,50,8|0,0:0|0:0,0:0:0:0:
385,242,54474,1,8,0:0:0:0:
313,172,54807,6,0,L|254:186,1,50,8|8,0:0|0:0,0:0:0:0:
224,213,55140,2,0,L|165:199,1,50,8|8,0:0|0:0,0:0:0:0:
127,187,55473,2,0,P|104:232|111:280,1,100,0|0,0:0|0:0,0:0:0:0:
200,327,56140,6,0,B|302:363|295:291|404:338,1,200,2|0,0:3|0:0,0:0:0:0:
457,144,57473,2,0,P|408:133|358:138,1,100,2|0,0:0|0:0,0:0:0:0:
265,101,58140,2,0,P|257:124|258:149,1,50,2|4,0:0|0:3,0:0:0:0:
223,185,58473,2,0,P|230:208|229:233,1,50,8|0,0:0|0:0,0:0:0:0:
214,281,58807,6,0,L|61:267,1,150,2|0,0:3|0:0,0:0:0:0:
19,288,59473,2,0,L|3:189,1,100,8|2,0:0|0:0,0:0:0:0:
68,113,60140,1,0,0:0:0:0:
67,113,60307,2,0,P|116:100|164:112,1,100,2|2,0:0|0:3,0:0:0:0:
194,151,60807,1,8,0:0:0:0:
284,108,61140,1,8,0:1:0:0:
365,165,61473,6,0,L|380:314,1,150,2|0,0:3|0:0,0:0:0:0:
387,364,62140,2,0,P|341:344|291:345,1,100,8|2,0:0|0:0,0:0:0:0:
204,294,62807,2,0,P|182:304|157:305,2,50,0|2|2,0:0|0:0|0:3,0:0:0:0:
248,204,63473,1,8,0:0:0:0:
292,114,63807,2,0,P|314:103|339:102,1,50,8|2,0:0|3:0,0:0:0:0:
387,116,64140,6,0,L|373:275,1,150,2|0,3:0|0:0,0:0:0:0:
388,313,64807,2,0,L|285:325,1,100,8|2,0:0|0:0,0:0:0:0:
248,295,65307,2,0,L|145:307,2,100,2|2|2,0:0|0:0|3:0,0:0:0:0:
269,249,66140,1,8,0:0:0:0:
191,186,66473,1,8,0:1:0:0:
231,93,66807,6,0,P|303:78|373:101,1,150,2|0,0:3|0:0,0:0:0:0:
419,82,67473,2,0,L|406:195,1,100,8|2,0:0|0:0,0:0:0:0:
325,238,68140,2,0,L|338:351,2,100,2|8|2,0:3|0:0|0:0,0:0:0:0:
212,72,69473,6,0,P|139:55|69:79,1,150,2|0,0:3|0:0,0:0:0:0:
37,117,70140,2,0,L|49:236,1,100,8|0,0:0|0:0,0:0:0:0:
78,255,70640,2,0,B|148:238|148:287|234:263,1,150,2|2,0:0|0:0,0:0:0:0:
302,202,71473,1,8,0:0:0:0:
390,248,71807,1,8,0:1:0:0:
475,198,72140,6,0,P|496:126|474:56,1,150,2|0,0:3|0:0,0:0:0:0:
429,34,72807,2,0,L|317:44,1,100,8|0,0:0|0:0,0:0:0:0:
304,86,73307,2,0,B|249:90|249:90|219:75|219:75|153:80,1,150,2|2,0:0|0:3,0:0:0:0:
105,165,74140,1,8,0:0:0:0:
163,245,74473,2,0,P|172:272|173:302,1,50,8|0,0:1|0:0,0:0:0:0:
150,338,74807,6,0,P|222:355|296:345,1,150,2|0,0:3|0:0,0:0:0:0:
332,311,75473,2,0,L|316:202,1,100,8|0,0:0|0:0,0:0:0:0:
308,162,75973,2,0,B|354:179|354:179|403:158|465:178,1,150,2|2,0:0|0:3,0:0:0:0:
504,260,76807,1,8,0:0:0:0:
439,336,77140,1,8,0:1:0:0:
342,306,77473,6,0,P|294:297|244:302,1,100,2|0,0:3|0:0,0:0:0:0:
201,276,77973,2,0,P|152:285|102:280,1,100,2|2,0:3|0:0,0:0:0:0:
58,257,78473,1,2,0:3:0:0:
23,162,78807,6,0,L|42:64,1,100,2|8,0:3|0:0,0:0:0:0:
79,30,79307,1,0,0:0:0:0:
79,30,79473,2,0,P|127:20|176:30,2,100,8|8|0,0:0|0:0|0:0,0:0:0:0:
201,84,90807,6,0,P|168:177|187:274,3,200,10|8|8|8,0:3|0:3|0:3|0:3,0:0:0:0:
381,225,93473,6,0,P|461:247|404:307,3,200,10|8|8|8,0:3|0:3|0:3|0:0,0:0:0:0:
225,218,96140,6,0,B|207:154|207:154|235:15,3,200,10|10|10|10,0:0|0:0|0:0|0:0,0:0:0:0:
424,81,98807,6,0,L|449:248,1,150,8|0,0:0|0:0,0:0:0:0:
453,278,99473,2,0,P|401:266|300:294,1,150,8|0,0:0|0:0,0:0:0:0:
268,317,100140,2,0,P|194:329|123:307,1,150,8|0,0:0|0:0,0:0:0:0:
106,260,100807,2,0,L|128:111,1,150,8|0,0:0|0:0,0:0:0:0:
161,73,101473,6,0,P|209:63|257:75,1,100,2|2,0:3|0:3,0:0:0:0:
346,29,102140,2,0,P|356:77|344:125,1,100,2|2,0:3|0:0,0:0:0:0:
390,213,102807,2,0,P|341:223|293:211,1,100,2|2,0:0|0:0,0:0:0:0:
205,257,103473,2,0,P|194:208|206:160,1,100,2|2,0:0|0:0,0:0:0:0:
226,114,103973,1,8,0:0:0:0:
226,114,104140,6,0,L|114:126,1,100,2|2,0:0|0:0,0:0:0:0:
81,213,104807,2,0,L|193:225,1,100,2|2,0:0|0:0,0:0:0:0:
239,304,105473,2,0,L|338:293,1,100,2|2,0:0|0:0,0:0:0:0:
373,199,106140,2,0,L|485:211,1,100,2|2,0:0|0:0,0:0:0:0:
510,176,106640,1,8,0:0:0:0:
510,176,106807,6,0,P|522:128|508:80,1,100,8|8,0:0|0:0,0:0:0:0:
420,34,107473,2,0,P|407:81|421:129,1,100,8|8,0:0|0:0,0:0:0:0:
347,197,108140,6,0,P|359:244|345:292,1,100,8|8,0:0|0:0,0:0:0:0:
257,339,108806,2,0,P|244:291|258:243,1,100,8|8,0:0|0:0,0:0:0:0:
237,197,109307,1,8,0:0:0:0:
237,197,109473,6,0,L|174:206,1,50,8|8,0:0|0:0,0:0:0:0:
145,176,109807,1,8,0:0:0:0:
173,80,110140,2,0,L|236:71,1,50,8|8,0:0|0:0,0:0:0:0:
265,101,110474,1,8,0:0:0:0:
364,108,110807,2,0,L|373:171,1,50,2|2,0:0|0:0,0:0:0:0:
411,187,111140,2,0,L|402:250,1,50,2|2,0:0|0:0,0:0:0:0:
394,285,111473,2,0,P|345:274|297:286,1,100,8|8,0:0|0:0,0:0:0:0:
209,333,112140,6,0,L|163:181,1,150,2|0,0:3|0:0,0:0:0:0:
151,140,112807,2,0,P|193:116|243:115,1,100,8|0,0:0|0:0,0:0:0:0:
336,149,113473,2,0,P|385:147|428:123,1,100,2|0,0:0|0:0,0:0:0:0:
358,50,114140,1,8,0:0:0:0:
262,78,114473,1,8,0:1:0:0:
171,34,114807,6,0,P|102:28|18:73,1,150,2|2,0:3|0:0,0:0:0:0:
9,106,115473,2,0,L|22:221,1,100,8|2,0:0|0:0,0:0:0:0:
108,251,116140,2,0,L|119:350,2,100,2|2|8,0:0|0:3|0:0,0:0:0:0:
196,203,117140,2,0,P|220:198|245:199,1,50,8|2,0:0|0:3,0:0:0:0:
284,227,117473,6,0,P|357:244|429:224,1,150,2|0,0:3|0:0,0:0:0:0:
461,185,118140,2,0,L|447:85,1,100,8|2,0:0|0:0,0:0:0:0:
360,36,118807,2,0,L|346:135,1,100,2|0,0:0|0:0,0:0:0:0:
249,111,119473,1,8,0:0:0:0:
170,173,119807,1,8,0:1:0:0:
70,163,120140,6,0,P|89:234|154:273,1,150,2|0,0:3|0:0,0:0:0:0:
201,279,120807,2,0,L|192:387,1,100,8|2,0:0|0:0,0:0:0:0:
292,371,121473,2,0,L|300:271,1,100,8|8,0:1|0:0,0:0:0:0:
385,218,122140,1,2,0:0:0:0:
272,50,122807,5,2,0:3:0:0:
272,50,122973,2,0,P|224:40|175:50,1,100,2|2,0:0|0:0,0:0:0:0:
142,87,123473,2,0,L|151:193,1,100,8|0,0:0|0:0,0:0:0:0:
248,207,124140,2,0,L|239:313,1,100,2|0,0:0|0:0,0:0:0:0:
272,344,124640,1,2,0:3:0:0:
272,344,124807,2,0,P|321:352|369:341,1,100,8|0,0:0|0:0,0:0:0:0:
450,282,125473,6,0,L|437:164,1,100,2|0,0:3|0:0,0:0:0:0:
434,132,125973,1,0,0:0:0:0:
434,131,126140,2,0,P|386:144|337:134,1,100,8|0,0:0|0:0,0:0:0:0:
249,87,126807,2,0,P|200:76|152:89,1,100,0|2,0:0|0:3,0:0:0:0:
112,119,127307,1,0,0:0:0:0:
112,119,127473,2,0,L|119:225,1,100,8|8,0:0|0:0,0:0:0:0:
216,240,128140,6,0,L|223:346,1,100,2|0,0:3|0:0,0:0:0:0:
179,365,128640,1,2,0:0:0:0:
178,365,128807,2,0,P|130:372|84:354,1,100,8|2,0:0|0:0,0:0:0:0:
46,262,129473,2,0,L|39:156,1,100,2|0,0:0|0:0,0:0:0:0:
83,137,129973,1,2,0:3:0:0:
83,137,130140,2,0,P|131:129|177:147,1,100,8|8,0:0|0:1,0:0:0:0:
259,205,130807,6,0,P|307:212|353:194,1,100,2|0,0:3|0:0,0:0:0:0:
388,159,131307,1,2,0:3:0:0:
388,159,131473,2,0,L|407:44,1,100,8|2,0:0|0:3,0:0:0:0:
496,100,132140,2,0,L|479:198,2,100,2|8|0,0:3|0:0|0:0,0:0:0:0:
300,59,133473,6,0,P|226:48|155:71,1,150,2|8,0:0|0:0,0:0:0:0:
111,161,134307,1,8,0:0:0:0:
183,227,134640,2,0,P|192:301|159:367,1,150,10|8,0:0|0:0,0:0:0:0:
59,367,135473,2,0,P|32:325|28:276,1,100,8|2,0:0|0:0,0:0:0:0:
89,196,136140,6,0,L|69:45,1,150,10|8,0:0|0:0,0:0:0:0:
164,18,136973,1,8,0:0:0:0:
238,82,137307,2,0,P|311:99|385:78,1,150,10|8,0:0|0:0,0:0:0:0:
472,120,138140,2,0,P|489:167|480:216,1,100,8|2,0:0|0:0,0:0:0:0:
412,289,138807,6,0,L|257:273,1,150,10|8,0:0|0:0,0:0:0:0:
201,194,139640,1,8,0:0:0:0:
280,133,139973,2,0,L|435:117,1,150,10|8,0:0|0:0,0:0:0:0:
390,24,140807,2,0,L|275:35,1,100,8|2,0:0|0:0,0:0:0:0:
204,83,141473,6,0,P|134:109|64:85,1,150,10|8,0:0|0:0,0:0:0:0:
22,176,142307,1,8,0:0:0:0:
111,221,142640,2,0,L|127:370,1,150,10|8,0:0|0:0,0:0:0:0:
220,334,143473,2,0,B|319:305|319:364|422:331,1,200,0|4,0:0|0:2,0:0:0:0:
