osu file format v14

[General]
AudioFilename: audio.mp3
AudioLeadIn: 0
PreviewTime: -1
Countdown: 1
SampleSet: None
StackLeniency: 0.7
Mode: 0
LetterboxInBreaks: 0
WidescreenStoryboard: 1

[Editor]
DistanceSpacing: 0.9
BeatDivisor: 4
GridSize: 8
TimelineZoom: 2.1

[Metadata]
Title:Taketori Hishou
TitleUnicode:Taketori Hishou
Artist:DarkPHOENIX
ArtistUnicode:DarkPHOENIX
Creator:Coodywoo
Version:might finish it lol
Source:
Tags:
BeatmapID:2024890
BeatmapSetID:958470

[Difficulty]
HPDrainRate:6
CircleSize:4
OverallDifficulty:8
ApproachRate:9
SliderMultiplier:1.4
SliderTickRate:1

[Events]
//Background and Video events
0,0,"disaster.png",0,0
//Break Periods
//Storyboard Layer 0 (Background)
//Storyboard Layer 1 (Fail)
//Storyboard Layer 2 (Pass)
//Storyboard Layer 3 (Foreground)
//Storyboard Sound Samples

[TimingPoints]
974,312.5,4,2,0,100,1,0
17224,-100,4,2,0,40,0,0
17536,-90.9090909090909,4,2,0,62,0,0
17849,-83.3333333333333,4,2,0,83,0,0
18161,-71.4285714285714,4,2,0,91,0,0
18474,-62.5,4,1,0,100,0,0
58474,-62.5,4,1,0,100,0,1
74099,-62.5,4,1,0,5,0,1
74255,-62.5,4,1,0,100,0,1
74724,-62.5,4,1,0,5,0,1
74880,-62.5,4,1,0,100,0,1
75349,-62.5,4,1,0,5,0,1
75505,-62.5,4,1,0,100,0,1
77536,-62.5,4,1,0,100,0,0

[HitObjects]
87,49,974,5,0,0:0:0:0:
98,124,1130,1,0,0:0:0:0:
158,73,1286,1,0,0:0:0:0:
173,148,1442,1,0,0:0:0:0:
247,169,1599,2,0,P|224:203|170:222,1,70
123,205,1911,2,0,P|127:243|160:286,1,70
210,307,2224,5,0,0:0:0:0:
286,317,2380,1,0,0:0:0:0:
251,248,2536,1,0,0:0:0:0:
327,255,2692,1,0,0:0:0:0:
392,296,2849,2,0,P|404:248|391:203,1,70
341,179,3161,2,0,L|382:91,1,70
444,92,3474,6,0,P|419:52|371:32,1,70
324,26,3786,1,0,0:0:0:0:
259,68,3942,1,0,0:0:0:0:
280,142,4099,1,0,0:0:0:0:
355,155,4255,1,0,0:0:0:0:
385,84,4411,1,0,0:0:0:0:
420,15,4567,6,0,P|455:59|415:155,1,140
383,199,5036,2,0,P|358:138|381:80,1,105
274,136,5349,2,0,P|329:99|390:111,1,105
318,15,5661,2,0,P|361:64|358:126,1,105,0|0,2:0|2:0,2:0:0:0:
438,53,5974,5,0,0:0:0:0:
470,122,6130,1,0,0:0:0:0:
464,198,6286,1,0,0:0:0:0:
405,247,6442,1,0,0:0:0:0:
333,275,6599,2,0,P|279:248|257:218,2,70
334,198,7067,1,0,0:0:0:0:
334,120,7224,5,0,0:0:0:0:
266,83,7380,1,0,0:0:0:0:
257,159,7536,1,0,0:0:0:0:
180,160,7692,1,0,0:0:0:0:
183,82,7849,2,0,P|124:106|115:136,2,70
171,158,8317,1,0,0:0:0:0:
103,195,8474,5,0,0:0:0:0:
162,244,8630,1,0,0:0:0:0:
234,269,8786,1,0,0:0:0:0:
310,262,8942,1,0,0:0:0:0:
284,188,9099,1,0,0:0:0:0:
349,147,9255,1,0,0:0:0:0:
388,80,9411,1,0,0:0:0:0:
330,28,9567,6,0,B|288:97|248:26|201:120,1,140
149,137,10036,1,0,0:0:0:0:
93,189,10192,1,0,0:0:0:0:
95,266,10349,1,0,0:0:0:0:
144,324,10505,1,0,0:0:0:0:
218,343,10661,1,0,0:0:0:0:
302,136,10974,5,0,0:0:0:0:
330,207,11130,1,0,0:0:0:0:
377,146,11286,1,0,0:0:0:0:
404,217,11442,1,0,0:0:0:0:
361,281,11599,1,0,0:0:0:0:
284,271,11755,1,0,0:0:0:0:
246,203,11911,1,0,0:0:0:0:
225,128,12067,1,0,0:0:0:0:
203,53,12224,6,0,L|126:85,1,70
88,156,12536,2,0,L|179:149,1,70
246,203,12849,2,0,L|174:220,1,70
110,255,13161,2,0,L|183:300,1,70
246,285,13474,5,0,0:0:0:0:
316,315,13630,1,0,0:0:0:0:
388,340,13786,2,0,P|380:276|357:250,1,70
341,204,14099,1,0,0:0:0:0:
264,202,14255,1,0,0:0:0:0:
195,166,14411,1,0,0:0:0:0:
182,90,14567,2,2,P|176:43|97:66,1,140
55,115,15036,2,0,L|-9:61,2,70
114,164,15505,1,0,0:0:0:0:
190,167,15661,1,0,0:0:0:0:
323,24,15974,5,0,0:0:0:0:
262,72,16130,1,0,0:0:0:0:
309,132,16286,1,0,0:0:0:0:
364,78,16442,1,0,0:0:0:0:
441,75,16599,1,0,0:0:0:0:
493,130,16755,1,0,0:0:0:0:
475,204,16911,1,0,0:0:0:0:
406,238,17067,1,0,0:0:0:0:
328,233,17224,6,2,L|295:160,1,70
257,244,17536,6,2,L|220:158,1,77.0000023498536
188,257,17849,6,2,L|148:158,1,83.9999974365235
123,280,18161,6,2,L|73:155,1,97.9999970092774
100,77,18474,6,0,P|140:42|229:65,1,112,4|0,0:0|3:0,0:0:0:0:
289,103,18786,1,2,0:0:0:0:
187,150,18942,1,0,3:0:0:0:
199,270,19099,2,0,P|102:200|101:184,1,112,8|0,0:0|3:0,0:0:0:0:
90,109,19411,1,2,3:0:0:0:
194,149,19567,1,0,3:3:0:0:
249,51,19724,6,0,L|323:158,1,112,2|0,0:0|0:0,0:0:0:0:
400,73,20036,1,0,0:0:0:0:
419,183,20192,1,0,0:0:0:0:
408,295,20349,2,0,P|345:264|327:220,2,112,8|8|8,3:0|0:0|3:0,0:0:0:0:
257,128,20974,6,0,P|113:143|105:149,1,112,4|0,1:0|1:0,1:0:0:0:
52,183,21286,1,0,0:0:0:0:
109,278,21442,1,0,0:0:0:0:
216,310,21599,2,0,L|204:168,1,112
268,105,21911,1,0,0:0:0:0:
367,156,22067,1,0,0:0:0:0:
357,262,22224,6,0,P|435:248|473:190,1,112
471,116,22536,1,0,0:0:0:0:
370,165,22692,1,0,0:0:0:0:
264,204,22849,2,0,L|296:87,2,112
199,112,23317,1,0,0:0:0:0:
98,60,23474,6,0,L|65:170,1,112
147,244,23786,2,0,L|179:118,1,112
192,24,24099,2,0,P|252:65|275:137,2,112
168,145,24567,1,0,0:0:0:0:
79,207,24724,2,0,P|55:126|74:69,1,112
244,209,25036,2,0,P|268:128|249:71,1,112
164,48,25349,1,0,0:0:0:0:
268,8,25505,1,0,0:0:0:0:
359,71,25661,1,0,0:0:0:0:
359,295,25974,6,0,B|351:229|308:240|292:160,1,112
233,112,26286,1,0,0:0:0:0:
186,216,26442,1,0,0:0:0:0:
122,309,26599,2,0,P|83:241|89:193,1,112
194,230,26911,2,0,P|192:167|157:112,1,112
69,72,27224,2,0,B|185:35,2,112
94,181,27692,1,0,0:0:0:0:
158,273,27849,1,0,0:0:0:0:
262,312,28005,1,0,0:0:0:0:
364,267,28161,5,8,0:0:0:0:
385,248,28239,1,8,0:0:0:0:
403,227,28317,1,8,0:0:0:0:
418,203,28395,1,8,0:0:0:0:
429,178,28474,2,0,P|447:100|445:57,1,112,4|0,0:0|0:0,0:0:0:0:
316,32,28786,1,0,0:0:0:0:
314,154,28942,1,0,0:0:0:0:
199,106,29099,1,0,0:0:0:0:
206,228,29255,2,0,P|150:204|99:155,1,112,0|8,0:0|0:0,0:0:0:0:
89,49,29567,5,0,0:0:0:0:
182,130,29724,2,0,L|255:31,2,112,0|0|8,0:0|0:0|0:0,0:0:0:0:
103,34,30192,1,0,0:0:0:0:
0,104,30349,2,0,P|39:173|107:210,1,112
177,144,30661,1,8,0:0:0:0:
395,36,30974,6,0,L|446:159,1,112,4|0,0:0|0:0,0:0:0:0:
462,259,31286,1,8,0:0:0:0:
380,173,31442,2,0,P|341:257|342:310,2,112
285,93,31911,1,8,0:0:0:0:
243,208,32067,1,0,0:0:0:0:
174,104,32224,2,0,P|111:172|96:203,1,112
38,293,32536,1,8,0:0:0:0:
160,291,32692,2,0,L|244:202,1,112
363,234,33005,1,0,0:0:0:0:
398,116,33161,1,8,0:0:0:0:
280,79,33317,1,0,0:0:0:0:
159,49,33474,6,0,P|175:153|208:172,1,112,4|0,0:0|0:0,0:0:0:0:
275,82,33786,1,8,0:0:0:0:
183,163,33942,1,0,0:0:0:0:
193,286,34099,2,0,P|121:249|94:211,2,112,0|0|8,0:0|0:0|0:0,0:0:0:0:
275,82,34724,5,0,0:0:0:0:
393,116,34880,1,0,0:0:0:0:
305,202,35036,1,8,0:0:0:0:
421,242,35192,1,0,0:0:0:0:
364,352,35349,2,0,L|246:304,1,112
166,229,35661,1,8,0:0:0:0:
181,106,35817,1,0,0:0:0:0:
281,33,35974,6,0,P|417:78|417:78,1,112
477,151,36286,1,8,0:0:0:0:
375,220,36442,1,0,0:0:0:0:
290,129,36599,2,0,P|238:103|155:107,1,112
102,190,36911,2,0,P|153:210|208:203,1,112,8|0,0:0|0:0,0:0:0:0:
273,140,37224,5,8,0:0:0:0:
298,102,37302,1,8,0:0:0:0:
342,93,37380,1,8,0:0:0:0:
385,105,37458,1,8,0:0:0:0:
406,143,37536,1,0,0:0:0:0:
396,186,37614,1,0,0:0:0:0:
369,221,37692,5,0,0:0:0:0:
376,265,37770,1,0,0:0:0:0:
408,297,37849,1,0,3:0:0:0:
452,292,37927,1,0,3:0:0:0:
486,263,38005,1,0,3:0:0:0:
499,220,38083,1,0,3:0:0:0:
488,176,38161,5,8,3:0:0:0:
458,142,38239,1,8,3:0:0:0:
414,131,38317,1,8,3:0:0:0:
373,149,38395,1,8,3:0:0:0:
334,172,38474,2,2,B|208:224|250:33|87:169|87:169,1,224,6|2,0:0|0:0,0:0:0:0:
36,143,38942,2,0,P|46:200|188:208,1,224
309,81,39567,1,0,0:0:0:0:
454,185,39880,5,0,0:0:0:0:
360,191,40036,2,0,P|288:196|239:166,1,112
168,151,40349,1,8,0:0:0:0:
333,82,40661,1,0,0:0:0:0:
416,51,40817,1,0,0:0:0:0:
406,140,40974,1,0,0:0:0:0:
247,223,41286,6,0,L|143:158,1,112
112,82,41599,1,0,0:0:0:0:
198,57,41755,1,0,0:0:0:0:
247,131,41911,1,0,0:0:0:0:
323,84,42067,1,0,0:0:0:0:
398,35,42224,2,0,P|428:105|409:148,1,112
377,215,42536,1,0,0:0:0:0:
197,210,42849,1,8,0:0:0:0:
25,260,43161,5,0,0:0:0:0:
66,180,43317,1,0,0:0:0:0:
125,112,43474,2,0,P|182:153|141:82,1,224
52,88,43942,1,0,0:0:0:0:
222,31,44255,1,0,0:0:0:0:
377,92,44567,1,0,0:0:0:0:
305,256,44880,5,0,0:0:0:0:
305,256,45036,1,0,0:0:0:0:
169,138,45349,1,8,0:0:0:0:
65,283,45661,5,0,0:0:0:0:
133,225,45817,1,0,0:0:0:0:
169,138,45974,1,0,0:0:0:0:
347,138,46286,2,0,L|228:137,1,112
342,213,46599,1,0,0:0:0:0:
413,266,46755,1,0,0:0:0:0:
357,336,46911,1,0,0:0:0:0:
284,283,47067,1,0,0:0:0:0:
157,240,47224,5,0,0:0:0:0:
177,220,47302,1,0,0:0:0:0:
157,199,47380,1,0,0:0:0:0:
179,181,47458,1,0,0:0:0:0:
158,162,47536,1,0,0:0:0:0:
178,143,47614,1,0,0:0:0:0:
158,122,47692,1,0,0:0:0:0:
179,104,47770,1,0,0:0:0:0:
160,82,47849,5,0,0:0:0:0:
202,34,47927,1,0,0:0:0:0:
260,7,48005,1,0,0:0:0:0:
323,5,48083,1,0,0:0:0:0:
382,28,48161,1,8,0:0:0:0:
428,72,48239,1,8,0:0:0:0:
453,131,48317,1,8,0:0:0:0:
452,194,48395,1,8,0:0:0:0:
429,252,48474,6,0,B|394:289|394:289|310:331,1,112,4|0,0:0|0:0,0:0:0:0:
277,192,48786,1,0,0:0:0:0:
172,269,48942,1,0,0:0:0:0:
172,135,49099,1,0,0:0:0:0:
287,189,49255,1,0,0:0:0:0:
373,162,49411,2,0,P|323:102|252:92,1,112
260,10,49724,6,0,P|207:50|212:120,1,112
264,170,50036,2,0,P|148:168|126:142,1,112
96,37,50349,1,8,0:0:0:0:
201,111,50505,1,0,0:0:0:0:
301,35,50661,1,0,0:0:0:0:
194,109,50817,1,0,0:0:0:0:
110,167,50974,6,0,B|190:281|225:145|318:251|315:266,1,224
417,301,51442,1,0,0:0:0:0:
426,177,51599,2,0,L|421:57,1,112,8|0,0:0|0:0,0:0:0:0:
318,47,51911,2,0,L|316:186,1,112
233,66,52224,1,0,0:0:0:0:
133,137,52380,1,0,0:0:0:0:
236,202,52536,1,0,0:0:0:0:
130,265,52692,1,0,0:0:0:0:
38,181,52849,2,0,P|54:75|82:63,1,112,8|0,0:0|0:0,0:0:0:0:
179,148,53161,5,0,0:0:0:0:
269,64,53317,1,0,0:0:0:0:
391,44,53474,2,0,P|385:134|340:158,1,112,4|0,0:0|0:0,0:0:0:0:
288,232,53786,1,0,0:0:0:0:
265,111,53942,1,0,0:0:0:0:
157,50,54099,1,8,0:0:0:0:
81,146,54255,1,0,0:0:0:0:
171,62,54411,1,2,0:0:0:0:
93,157,54567,1,0,0:0:0:0:
26,261,54724,6,0,P|106:272|179:248,2,112
102,161,55192,1,0,0:0:0:0:
267,310,55349,2,0,P|219:230|280:124,1,224,8|0,0:0|0:0,0:0:0:0:
377,53,55817,1,0,0:0:0:0:
423,167,55974,6,0,P|334:202|315:234,1,112
437,265,56286,1,0,0:0:0:0:
330,326,56442,1,0,0:0:0:0:
227,256,56599,1,8,0:0:0:0:
179,142,56755,1,0,0:0:0:0:
257,47,56911,1,0,0:0:0:0:
379,50,57067,1,0,0:0:0:0:
451,150,57224,5,0,0:0:0:0:
450,165,57302,1,0,0:0:0:0:
449,181,57380,1,0,0:0:0:0:
449,197,57458,1,0,0:0:0:0:
448,213,57536,1,0,0:0:0:0:
447,229,57614,1,0,0:0:0:0:
447,245,57692,1,0,0:0:0:0:
446,261,57770,1,0,0:0:0:0:
432,293,57849,5,8,0:0:0:0:
388,312,57927,1,8,0:0:0:0:
342,325,58005,1,8,0:0:0:0:
296,299,58083,1,8,0:0:0:0:
248,272,58161,5,8,0:0:0:0:
199,294,58239,1,8,0:0:0:0:
153,311,58317,1,8,0:0:0:0:
109,291,58395,1,8,0:0:0:0:
80,258,58474,6,0,P|45:197|52:125,1,112,4|0,0:0|0:0,0:0:0:0:
186,48,58786,2,0,P|209:98|206:153,1,112
83,22,59099,1,8,0:0:0:0:
119,194,59255,1,0,0:0:0:0:
292,236,59411,2,0,L|439:186,1,112
470,34,59724,5,0,0:0:0:0:
406,201,59880,1,0,0:0:0:0:
281,72,60036,1,0,0:0:0:0:
457,101,60192,1,0,0:0:0:0:
345,242,60349,1,8,0:0:0:0:
383,67,60505,1,0,0:0:0:0:
239,173,60661,1,0,0:0:0:0:
412,217,60817,1,0,0:0:0:0:
285,345,60974,6,0,L|126:317,1,112
79,174,61286,2,0,L|104:301,1,112
239,173,61599,1,8,0:0:0:0:
118,305,61755,1,0,0:0:0:0:
228,164,61911,1,8,0:0:0:0:
356,39,62067,2,2,P|424:111|379:258,1,224
277,104,62536,5,0,0:0:0:0:
133,210,62692,1,0,0:0:0:0:
290,296,62849,1,8,0:0:0:0:
129,217,63005,1,0,0:0:0:0:
265,101,63161,1,0,1:3:0:0:
468,215,63474,5,6,0:0:0:0:
340,340,63630,1,0,0:0:0:0:
216,210,63786,1,0,0:0:0:0:
347,88,63942,1,0,0:0:0:0:
166,90,64099,5,8,0:0:0:0:
48,224,64255,1,0,0:0:0:0:
181,342,64411,1,0,0:0:0:0:
315,223,64567,1,0,0:0:0:0:
219,70,64724,6,0,L|94:119,1,112
293,70,65036,2,0,L|418:119,1,112
407,299,65349,1,8,0:0:0:0:
110,292,65505,1,0,0:0:0:0:
252,136,65661,1,0,0:0:0:0:
416,303,65817,1,0,0:0:0:0:
235,302,65974,6,0,P|148:229|131:197,1,112
151,52,66286,2,0,L|220:152,1,112
358,38,66599,1,8,0:0:0:0:
364,216,66755,1,0,0:0:0:0:
254,74,66911,1,0,0:0:0:0:
76,53,67067,2,2,P|70:127|219:214,1,224
173,37,67536,5,0,0:0:0:0:
333,115,67692,1,0,0:0:0:0:
177,205,67849,1,8,0:0:0:0:
331,294,68005,2,0,L|330:173,1,112
73,83,68474,5,4,0:0:0:0:
250,64,68630,1,0,0:0:0:0:
163,220,68786,1,0,0:0:0:0:
134,43,68942,1,0,0:0:0:0:
41,197,69099,1,8,0:0:0:0:
211,142,69255,1,0,0:0:0:0:
342,20,69411,1,0,0:0:0:0:
177,91,69567,1,0,0:0:0:0:
352,130,69724,5,4,0:0:0:0:
506,220,69880,1,0,0:0:0:0:
346,300,70036,1,0,0:0:0:0:
413,134,70192,1,0,0:0:0:0:
495,293,70349,1,8,0:0:0:0:
323,241,70505,1,0,0:0:0:0:
475,147,70661,1,2,0:0:0:0:
435,321,70817,1,0,0:0:0:0:
254,324,70974,6,0,P|205:223|212:187,1,112,4|0,0:0|0:0,0:0:0:0:
207,48,71286,1,0,0:0:0:0:
377,101,71442,1,0,0:0:0:0:
277,251,71599,1,8,0:0:0:0:
213,83,71755,1,8,0:0:0:0:
369,169,71911,1,0,0:0:0:0:
372,49,72067,2,0,P|478:113|462:247,1,224,6|0,0:0|0:0,0:0:0:0:
342,126,72536,5,0,0:0:0:0:
418,298,72692,1,0,0:0:0:0:
305,187,72849,1,8,0:0:0:0:
121,300,73005,1,0,0:0:0:0:
172,116,73161,2,0,P|155:88|166:126,1,112
431,275,73630,5,0,0:0:0:0:
398,121,73786,1,0,0:0:0:0:
246,81,73942,2,0,P|229:53|240:91,1,112,8|0,0:0|0:0,0:0:0:0:
438,256,74255,5,0,0:0:0:0:
260,191,74411,1,0,0:0:0:0:
104,246,74567,1,0,0:0:0:0:
389,93,74724,1,0,0:0:0:0:
443,240,74880,5,0,0:0:0:0:
381,95,75036,1,0,0:0:0:0:
225,84,75192,2,0,P|202:60|221:95,1,112,8|0,0:0|0:0,0:0:0:0:
104,223,75505,1,0,0:0:0:0:
238,302,75661,1,0,0:0:0:0:
377,230,75817,1,0,0:0:0:0:
234,40,75974,5,4,0:0:0:0:
239,45,76130,1,4,0:0:0:0:
102,59,76442,2,0,P|139:144|172:150,1,112
219,73,76755,2,0,P|249:145|205:199,1,112
127,291,77067,2,0,B|277:204|285:343|459:261,1,336
389,48,77692,5,0,0:0:0:0:
440,65,77770,1,0,0:0:0:0:
466,113,77848,1,8,0:0:0:0:
451,166,77926,1,0,0:0:0:0:
404,194,78004,1,0,0:0:0:0:
357,163,78083,1,0,3:3:0:0:
341,110,78161,5,12,3:3:0:0:
296,78,78239,1,0,0:0:0:0:
241,81,78317,1,0,0:0:0:0:
200,118,78395,1,0,0:0:0:0:
188,173,78474,2,0,P|265:153|292:87,1,112,4|0,0:0|0:0,0:0:0:0:
243,37,78786,1,0,0:0:0:0:
148,71,78942,1,0,0:0:0:0:
91,154,79099,6,0,L|104:270,1,112,8|0,0:0|0:0,0:0:0:0:
192,312,79411,2,0,L|175:187,2,112
292,298,79880,1,0,0:0:0:0:
385,261,80036,1,0,0:0:0:0:
446,181,80192,1,0,0:0:0:0:
425,81,80349,2,0,B|377:46|377:46|288:58,2,112,8|0|8,0:0|0:0|3:3,0:0:0:0:
142,69,80974,6,0,P|117:125|139:178,1,112
219,133,81286,2,0,P|203:227|185:241,1,112
123,313,81599,1,8,0:0:0:0:
58,235,81755,1,0,0:0:0:0:
53,134,81911,1,0,0:0:0:0:
98,44,82067,2,0,B|235:47|139:137|298:160|306:164,1,224
287,55,82536,1,0,0:0:0:0:
371,109,82692,1,0,0:0:0:0:
457,160,82849,5,8,0:0:0:0:
431,187,82927,1,0,0:0:0:0:
397,202,83005,1,0,0:0:0:0:
360,201,83083,1,0,0:0:0:0:
283,171,83161,5,4,3:3:0:0:
258,198,83239,1,0,0:0:0:0:
224,213,83317,1,0,0:0:0:0:
187,213,83395,1,0,0:0:0:0:
120,167,83474,6,0,B|107:53|107:53|47:152,1,224,6|0,0:0|0:0,0:0:0:0:
250,172,84099,1,8,0:0:0:0:
168,232,84256,1,0,0:0:0:0:
256,278,84411,1,0,0:0:0:0:
334,214,84567,2,0,B|339:171|386:141|386:141|316:120|285:51,1,224
187,50,85036,5,0,0:0:0:0:
230,140,85192,1,0,0:0:0:0:
129,148,85349,1,8,0:0:0:0:
97,52,85505,1,0,0:0:0:0:
33,129,85661,1,0,0:0:0:0:
150,292,85974,6,2,P|292:325|365:281,1,224
362,92,86599,2,2,P|220:59|147:103,1,224
255,191,87067,1,0,0:0:0:0:
366,255,87224,2,2,P|392:173|381:145,1,112
146,129,87536,2,2,P|120:211|130:239,1,112
309,103,87849,1,8,0:0:0:0:
190,192,88005,1,0,0:0:0:0:
336,255,88161,1,8,0:0:0:0:
432,77,88474,6,0,P|338:75|276:66,1,112,4|0,0:0|0:0,0:0:0:0:
220,61,88786,1,0,0:0:0:0:
128,102,88942,2,0,P|193:164|214:166,1,112,0|8,0:0|0:0,0:0:0:0:
299,118,89255,2,0,P|322:173|312:236,1,112
325,324,89567,2,0,P|261:274|208:216,2,112
401,257,90036,1,0,0:0:0:0:
402,156,90192,1,0,0:0:0:0:
341,74,90349,1,8,0:0:0:0:
241,62,90505,1,0,0:0:0:0:
149,104,90661,1,0,0:0:0:0:
32,268,90974,6,0,P|65:315|157:346,1,112
201,295,91286,1,0,0:0:0:0:
122,232,91442,1,0,0:0:0:0:
220,209,91599,1,8,0:0:0:0:
141,146,91755,1,0,0:0:0:0:
239,123,91911,1,0,0:0:0:0:
165,53,92067,2,0,P|268:26|347:100,1,224
390,191,92536,1,0,0:0:0:0:
325,268,92692,1,0,0:0:0:0:
278,177,92849,5,8,0:0:0:0:
262,143,92927,1,0,0:0:0:0:
235,117,93005,1,0,0:0:0:0:
201,104,93083,1,0,0:0:0:0:
144,187,93161,1,10,0:0:0:0:
109,174,93239,1,0,0:0:0:0:
82,148,93317,1,0,0:0:0:0:
67,115,93395,1,0,0:0:0:0:
162,33,93474,6,0,P|272:99|370:53,1,224,4|0,0:0|0:0,0:0:0:0:
473,231,94099,1,8,0:0:0:0:
376,258,94255,1,0,0:0:0:0:
276,276,94411,1,0,0:0:0:0:
176,260,94567,1,0,0:0:0:0:
105,186,94724,2,0,P|99:125|121:62,2,112
188,130,95192,1,0,0:0:0:0:
269,69,95349,2,0,B|287:148|262:188|262:189,1,112,8|0,0:0|0:0,0:0:0:0:
219,267,95661,1,0,0:0:0:0:
95,96,95974,5,0,0:0:0:0:
153,189,96130,1,0,0:0:0:0:
199,89,96286,2,0,L|245:228,1,112
446,136,96599,5,0,0:0:0:0:
388,229,96755,1,0,0:0:0:0:
342,129,96911,2,0,L|296:268,1,112
257,321,97224,2,0,P|128:276|126:89,1,336
155,67,97770,1,0,0:0:0:0:
201,75,97849,1,0,0:0:0:0:
342,126,98083,5,0,0:0:0:0:
449,211,98317,1,0,0:0:0:0:
167,197,98474,2,0,P|70:166|60:113,1,112,4|0,0:0|0:0,0:0:0:0:
241,39,98786,1,8,0:0:0:0:
132,119,98942,1,0,0:0:0:0:
244,191,99099,1,0,0:0:0:0:
342,124,99255,1,0,0:0:0:0:
231,34,99411,1,8,0:0:0:0:
423,219,99724,6,0,P|293:287|290:287,1,112
197,166,100036,1,0,0:0:0:0:
336,199,100192,1,0,0:0:0:0:
222,311,100349,1,0,0:0:0:0:
268,181,100505,1,0,0:0:0:0:
308,57,100661,1,0,0:0:0:0:
74,201,100974,5,0,0:0:0:0:
80,204,101130,1,0,0:0:0:0:
167,121,101286,2,0,P|187:164|197:246,1,112
294,286,101599,1,0,0:0:0:0:
299,291,101755,1,0,0:0:0:0:
368,137,101911,2,0,L|407:268,1,112
415,58,102224,6,0,P|326:49|276:76,1,112
210,213,102536,1,0,0:0:0:0:
302,60,102692,1,0,0:0:0:0:
230,220,102849,1,0,0:0:0:0:
278,51,103005,1,0,0:0:0:0:
259,221,103161,2,0,P|217:283|131:287,1,112
68,144,103786,5,0,0:0:0:0:
138,302,104099,2,0,P|237:252|253:209,1,112
166,91,104411,2,0,L|166:210,1,112
269,251,104724,5,0,0:0:0:0:
274,255,104880,1,0,0:0:0:0:
366,49,105036,1,0,0:0:0:0:
430,173,105192,1,0,0:0:0:0:
397,315,105349,2,0,L|345:177,1,112
345,51,105661,1,0,0:0:0:0:
412,182,105817,1,0,0:0:0:0:
367,316,105974,6,0,P|266:198|217:133,1,224
105,242,106442,1,0,0:0:0:0:
220,331,106599,1,0,0:0:0:0:
258,198,106755,1,0,0:0:0:0:
139,117,106911,2,0,L|201:249,1,112
230,331,107224,5,0,0:0:0:0:
240,335,107380,1,0,0:0:0:0:
412,251,107536,2,0,P|350:318|312:324,4,112
435,158,108317,1,0,0:0:0:0:
420,60,108474,6,0,B|354:56|326:127|326:127|265:120|228:162,1,224,0|8,0:0|0:0,0:0:0:0:
141,322,109099,1,0,0:0:0:0:
147,330,109255,1,0,0:0:0:0:
232,158,109411,1,8,0:0:0:0:
286,325,109567,1,0,0:0:0:0:
392,192,109724,6,0,P|414:117|387:80,1,112
392,192,110036,6,0,P|360:120|316:109,1,112
392,192,110349,6,0,P|321:157|280:177,1,112
219,305,110661,1,0,0:0:0:0:
327,240,110817,1,0,0:0:0:0:
293,108,110974,2,0,L|156:77,1,112
89,74,111286,1,0,0:0:0:0:
115,171,111442,1,0,0:0:0:0:
259,315,111755,1,0,0:0:0:0:
419,186,112067,2,0,P|417:113|384:211,1,336
