osu file format v14

[General]
AudioFilename: audio.mp3
AudioLeadIn: 0
PreviewTime: -1
Countdown: 0
SampleSet: Soft
StackLeniency: 0.7
Mode: 3
LetterboxInBreaks: 0
SpecialStyle: 0
WidescreenStoryboard: 0

[Editor]
DistanceSpacing: 0.8
BeatDivisor: 4
GridSize: 4
TimelineZoom: 1

[Metadata]
Title:Hiroari Shoots a Strange Bird
TitleUnicode:Hiroari Shoots a Strange Bird
Artist:Dark Phoenix
ArtistUnicode:Dark Phoenix
Creator:Enygmatique
Version:Normal
Source:
Tags:
BeatmapID:1830715
BeatmapSetID:876015

[Difficulty]
HPDrainRate:7
CircleSize:4
OverallDifficulty:7
ApproachRate:5
SliderMultiplier:1.4
SliderTickRate:1

[Events]
//Background and Video events
0,0,"1dZrtR2.jpg",0,0
//Break Periods
//Storyboard Layer 0 (Background)
//Storyboard Layer 1 (Fail)
//Storyboard Layer 2 (Pass)
//Storyboard Layer 3 (Foreground)
//Storyboard Sound Samples

[TimingPoints]
722,280.373831775701,4,1,1,60,1,0
5207,-100,4,1,1,70,0,0
14179,-100,4,1,1,60,0,0
18665,-100,4,1,1,70,0,0
27637,-100,4,2,1,50,0,0
29914,560.747663551402,4,2,1,40,1,0
29914,-54.054054054054,4,2,1,40,0,0
42496,-50,4,2,1,40,0,0
42777,-50,4,2,1,70,0,0
43337,280.373831775701,4,1,1,50,1,0
47822,-100,4,1,1,60,0,0
85393,-117.647058823529,4,2,1,30,0,0
85954,560.747663551402,4,2,1,30,1,0
86234,-66.6666666666667,4,2,1,30,0,0
99411,-62.5,4,2,1,30,0,0
103897,-52.6315789473684,4,2,1,40,0,0
103897,-54.054054054054,4,2,1,40,0,0
117355,280.373831775701,4,1,1,40,1,0
117355,-133.333333333333,4,1,1,40,0,0
121281,-133.333333333333,4,1,1,50,0,0
121421,-133.333333333333,4,1,1,55,0,0
121561,-133.333333333333,4,1,1,60,0,0
121701,-133.333333333333,4,1,1,65,0,0
121840,-100,4,1,1,70,0,1
142027,-100,4,1,1,55,0,1
144270,-100,4,1,1,70,0,1
153242,-100,4,1,1,70,0,1
157728,-100,4,1,1,60,0,0
162214,-100,4,1,1,70,0,0
188569,-100,4,1,1,60,0,0
188990,-100,4,1,1,50,0,0
189831,-100,4,1,1,70,0,0
190322,-100,4,2,1,5,0,0

[HitObjects]
64,192,722,5,0,0:0:0:0:
448,192,722,1,0,0:0:0:0:
320,192,792,1,0,0:0:0:0:
192,192,862,1,0,0:0:0:0:
320,192,932,1,0,0:0:0:0:
448,192,1002,1,0,0:0:0:0:
64,192,1002,1,0,0:0:0:0:
320,192,1072,1,0,0:0:0:0:
192,192,1142,1,0,0:0:0:0:
448,192,1142,1,0,0:0:0:0:
64,192,1212,1,0,0:0:0:0:
192,192,1282,1,0,0:0:0:0:
320,192,1352,1,0,0:0:0:0:
448,192,1422,1,0,0:0:0:0:
64,192,1422,1,0,0:0:0:0:
192,192,1493,1,0,0:0:0:0:
320,192,1563,1,0,0:0:0:0:
448,192,1563,1,0,0:0:0:0:
192,192,1633,1,0,0:0:0:0:
64,192,1703,1,0,0:0:0:0:
192,192,1773,1,0,0:0:0:0:
320,192,1843,1,0,0:0:0:0:
64,192,1843,1,0,0:0:0:0:
448,192,1913,1,0,0:0:0:0:
320,192,1983,1,0,0:0:0:0:
192,192,2053,1,0,0:0:0:0:
64,192,2123,1,0,0:0:0:0:
192,192,2193,1,0,0:0:0:0:
320,192,2264,1,0,0:0:0:0:
448,192,2264,1,0,0:0:0:0:
192,192,2334,1,0,0:0:0:0:
320,192,2404,1,0,0:0:0:0:
64,192,2474,1,0,0:0:0:0:
192,192,2544,1,0,0:0:0:0:
448,192,2614,1,0,0:0:0:0:
320,192,2684,1,0,0:0:0:0:
64,192,2684,1,0,0:0:0:0:
192,192,2754,1,0,0:0:0:0:
448,192,2824,1,0,0:0:0:0:
320,192,2894,1,0,0:0:0:0:
192,192,2964,1,0,0:0:0:0:
448,192,2964,1,0,0:0:0:0:
64,192,3105,1,0,0:0:0:0:
320,192,3105,1,0,0:0:0:0:
192,192,3245,1,0,0:0:0:0:
448,192,3245,1,0,0:0:0:0:
64,192,3385,1,0,0:0:0:0:
320,192,3385,1,0,0:0:0:0:
192,192,3455,1,0,0:0:0:0:
320,192,3525,1,0,0:0:0:0:
448,192,3595,1,0,0:0:0:0:
320,192,3665,1,0,0:0:0:0:
192,192,3736,1,0,0:0:0:0:
64,192,3806,1,0,0:0:0:0:
448,192,3806,1,0,0:0:0:0:
320,192,3876,1,0,0:0:0:0:
192,192,3946,1,0,0:0:0:0:
64,192,4016,1,0,0:0:0:0:
320,192,4086,1,0,0:0:0:0:
448,192,4086,1,0,0:0:0:0:
192,192,4156,1,0,0:0:0:0:
64,192,4226,1,0,0:0:0:0:
192,192,4296,1,0,0:0:0:0:
320,192,4366,1,0,0:0:0:0:
448,192,4436,1,0,0:0:0:0:
64,192,4507,1,0,0:0:0:0:
192,192,4507,1,0,0:0:0:0:
320,192,4577,1,0,0:0:0:0:
448,192,4647,1,0,0:0:0:0:
192,192,4717,1,0,0:0:0:0:
320,192,4787,1,0,0:0:0:0:
64,192,4857,1,0,0:0:0:0:
192,192,4927,1,0,0:0:0:0:
448,192,4927,1,0,0:0:0:0:
320,192,5067,1,0,0:0:0:0:
448,192,5067,1,0,0:0:0:0:
192,192,5137,1,0,0:0:0:0:
64,192,5207,1,0,0:0:0:0:
192,192,5278,1,0,0:0:0:0:
448,192,5278,1,0,0:0:0:0:
320,192,5348,1,0,0:0:0:0:
192,192,5418,1,0,0:0:0:0:
64,192,5488,1,0,0:0:0:0:
320,192,5558,1,0,0:0:0:0:
448,192,5628,1,0,0:0:0:0:
192,192,5698,1,0,0:0:0:0:
64,192,5768,1,0,0:0:0:0:
320,192,5838,1,0,0:0:0:0:
192,192,5908,1,0,0:0:0:0:
448,192,5979,1,0,0:0:0:0:
320,192,6049,1,0,0:0:0:0:
64,192,6119,1,0,0:0:0:0:
192,192,6189,1,0,0:0:0:0:
448,192,6189,1,0,0:0:0:0:
320,192,6259,1,0,0:0:0:0:
192,192,6329,1,0,0:0:0:0:
64,192,6399,1,0,0:0:0:0:
448,192,6469,1,0,0:0:0:0:
320,192,6539,1,0,0:0:0:0:
192,192,6609,1,0,0:0:0:0:
448,192,6609,1,0,0:0:0:0:
64,192,6679,1,0,0:0:0:0:
448,192,6750,1,0,0:0:0:0:
192,192,6820,1,0,0:0:0:0:
320,192,6890,1,0,0:0:0:0:
64,192,6960,1,0,0:0:0:0:
192,192,7030,1,0,0:0:0:0:
448,192,7100,1,0,0:0:0:0:
320,192,7170,1,0,0:0:0:0:
192,192,7170,1,0,0:0:0:0:
64,192,7240,1,0,0:0:0:0:
320,192,7310,1,0,0:0:0:0:
192,192,7380,1,0,0:0:0:0:
448,192,7450,1,0,0:0:0:0:
320,192,7521,1,0,0:0:0:0:
64,192,7591,1,0,0:0:0:0:
192,192,7661,1,0,0:0:0:0:
64,192,7731,1,0,0:0:0:0:
448,192,7731,1,0,0:0:0:0:
320,192,7801,1,0,0:0:0:0:
448,192,7871,1,0,0:0:0:0:
192,192,7941,1,0,0:0:0:0:
320,192,8011,1,0,0:0:0:0:
64,192,8081,1,0,0:0:0:0:
192,192,8151,1,0,0:0:0:0:
448,192,8222,1,0,0:0:0:0:
320,192,8292,1,0,0:0:0:0:
64,192,8292,1,0,0:0:0:0:
192,192,8362,1,0,0:0:0:0:
320,192,8432,1,0,0:0:0:0:
448,192,8502,1,0,0:0:0:0:
64,192,8572,1,0,0:0:0:0:
320,192,8642,1,0,0:0:0:0:
192,192,8712,1,0,0:0:0:0:
448,192,8782,1,0,0:0:0:0:
320,192,8852,1,0,0:0:0:0:
64,192,8852,1,0,0:0:0:0:
192,192,8922,1,0,0:0:0:0:
64,192,8993,1,0,0:0:0:0:
320,192,9063,1,0,0:0:0:0:
192,192,9133,1,0,0:0:0:0:
448,192,9203,1,0,0:0:0:0:
320,192,9273,1,0,0:0:0:0:
64,192,9343,1,0,0:0:0:0:
192,192,9413,1,0,0:0:0:0:
448,192,9413,1,0,0:0:0:0:
64,192,9483,1,0,0:0:0:0:
320,192,9553,1,0,0:0:0:0:
192,192,9623,1,0,0:0:0:0:
448,192,9693,1,0,0:0:0:0:
64,192,9693,1,0,0:0:0:0:
320,192,9834,1,0,0:0:0:0:
448,192,9974,1,0,0:0:0:0:
192,192,9974,1,0,0:0:0:0:
448,192,10114,1,0,0:0:0:0:
320,192,10254,1,0,0:0:0:0:
64,192,10254,1,0,0:0:0:0:
192,192,10394,1,0,0:0:0:0:
64,192,10535,1,0,0:0:0:0:
448,192,10535,1,0,0:0:0:0:
320,192,10675,1,0,0:0:0:0:
192,192,10815,1,0,0:0:0:0:
448,192,10815,1,0,0:0:0:0:
64,192,10955,1,0,0:0:0:0:
64,192,11095,1,0,0:0:0:0:
320,192,11095,1,0,0:0:0:0:
64,192,11236,1,0,0:0:0:0:
192,192,11376,1,0,0:0:0:0:
448,192,11376,1,0,0:0:0:0:
320,192,11516,1,0,0:0:0:0:
448,192,11656,1,0,0:0:0:0:
64,192,11656,1,0,0:0:0:0:
320,192,11796,1,0,0:0:0:0:
192,192,11936,1,0,0:0:0:0:
448,192,11936,1,0,0:0:0:0:
192,192,12077,1,0,0:0:0:0:
192,192,12217,1,0,0:0:0:0:
320,192,12217,1,0,0:0:0:0:
64,192,12217,1,0,0:0:0:0:
192,192,12357,1,0,0:0:0:0:
320,192,12357,1,0,0:0:0:0:
448,192,12497,1,0,0:0:0:0:
64,192,12497,1,0,0:0:0:0:
448,192,12637,1,0,0:0:0:0:
320,192,12778,1,0,0:0:0:0:
64,192,12778,1,0,0:0:0:0:
192,192,12918,1,0,0:0:0:0:
64,192,13058,1,0,0:0:0:0:
320,192,13058,1,0,0:0:0:0:
448,192,13198,1,0,0:0:0:0:
448,192,13338,1,0,0:0:0:0:
192,192,13338,1,0,0:0:0:0:
448,192,13479,1,0,0:0:0:0:
320,192,13619,1,0,0:0:0:0:
64,192,13619,1,0,0:0:0:0:
192,192,13759,1,0,0:0:0:0:
64,192,13899,1,0,0:0:0:0:
320,192,13899,1,0,0:0:0:0:
192,192,14039,1,0,0:0:0:0:
448,192,14039,1,0,0:0:0:0:
64,192,14179,1,0,0:0:0:0:
320,192,14179,1,0,0:0:0:0:
192,192,14320,1,0,0:0:0:0:
192,192,14460,1,0,0:0:0:0:
448,192,14460,1,0,0:0:0:0:
192,192,14600,1,0,0:0:0:0:
320,192,14740,1,0,0:0:0:0:
192,192,14740,1,0,0:0:0:0:
64,192,14810,1,0,0:0:0:0:
448,192,14880,1,0,0:0:0:0:
320,192,14880,1,0,0:0:0:0:
64,192,14950,1,0,0:0:0:0:
192,192,15021,1,0,0:0:0:0:
320,192,15021,1,0,0:0:0:0:
448,192,15091,1,0,0:0:0:0:
320,192,15161,1,0,0:0:0:0:
64,192,15161,1,0,0:0:0:0:
192,192,15301,1,0,0:0:0:0:
448,192,15301,1,0,0:0:0:0:
192,192,15441,1,0,0:0:0:0:
320,192,15581,1,0,0:0:0:0:
64,192,15581,1,0,0:0:0:0:
448,192,15722,1,0,0:0:0:0:
192,192,15722,1,0,0:0:0:0:
320,192,15862,1,0,0:0:0:0:
448,192,15862,1,0,0:0:0:0:
64,192,15932,1,0,0:0:0:0:
192,192,16002,1,0,0:0:0:0:
320,192,16072,1,0,0:0:0:0:
192,192,16142,1,0,0:0:0:0:
448,192,16142,1,0,0:0:0:0:
448,192,16282,1,0,0:0:0:0:
448,192,16422,1,0,0:0:0:0:
192,192,16422,1,0,0:0:0:0:
320,192,16563,1,0,0:0:0:0:
320,192,16703,1,0,0:0:0:0:
64,192,16703,1,0,0:0:0:0:
192,192,16843,1,0,0:0:0:0:
64,192,16983,1,0,0:0:0:0:
320,192,16983,1,0,0:0:0:0:
448,192,17123,1,0,0:0:0:0:
320,192,17193,1,0,0:0:0:0:
192,192,17264,1,0,0:0:0:0:
448,192,17264,1,0,0:0:0:0:
320,192,17404,1,0,0:0:0:0:
320,192,17544,1,0,0:0:0:0:
64,192,17544,1,0,0:0:0:0:
320,192,17684,1,0,0:0:0:0:
192,192,17684,1,0,0:0:0:0:
192,192,17824,1,0,0:0:0:0:
64,192,17824,1,0,0:0:0:0:
320,192,17964,1,0,0:0:0:0:
448,192,18035,1,0,0:0:0:0:
320,192,18105,1,0,0:0:0:0:
64,192,18105,1,0,0:0:0:0:
448,192,18175,1,0,0:0:0:0:
320,192,18245,1,0,0:0:0:0:
192,192,18385,1,0,0:0:0:0:
448,192,18385,1,0,0:0:0:0:
320,192,18455,1,0,0:0:0:0:
64,192,18525,1,0,0:0:0:0:
192,192,18595,1,0,0:0:0:0:
320,192,18665,1,0,0:0:0:0:
448,192,18665,1,0,0:0:0:0:
192,192,18736,1,0,0:0:0:0:
64,192,18806,1,0,0:0:0:0:
192,192,18876,1,0,0:0:0:0:
448,192,18946,1,0,0:0:0:0:
64,192,18946,1,0,0:0:0:0:
448,192,19086,1,0,0:0:0:0:
320,192,19226,1,0,0:0:0:0:
64,192,19226,1,0,0:0:0:0:
192,192,19366,1,0,0:0:0:0:
64,192,19507,1,0,0:0:0:0:
448,192,19507,1,0,0:0:0:0:
192,192,19647,1,0,0:0:0:0:
320,192,19717,1,0,0:0:0:0:
192,192,19787,1,0,0:0:0:0:
448,192,19787,1,0,0:0:0:0:
64,192,19927,1,0,0:0:0:0:
64,192,20067,1,0,0:0:0:0:
192,192,20067,1,0,0:0:0:0:
64,192,20207,1,0,0:0:0:0:
192,192,20348,1,0,0:0:0:0:
448,192,20348,1,0,0:0:0:0:
320,192,20488,1,0,0:0:0:0:
448,192,20628,1,0,0:0:0:0:
64,192,20628,1,0,0:0:0:0:
320,192,20768,1,0,0:0:0:0:
448,192,20908,1,0,0:0:0:0:
192,192,20908,1,0,0:0:0:0:
320,192,21049,1,0,0:0:0:0:
448,192,21189,1,0,0:0:0:0:
64,192,21189,1,0,0:0:0:0:
448,192,21329,1,0,0:0:0:0:
320,192,21469,1,0,0:0:0:0:
192,192,21469,1,0,0:0:0:0:
320,192,21609,1,0,0:0:0:0:
192,192,21750,1,0,0:0:0:0:
448,192,21750,1,0,0:0:0:0:
64,192,21890,1,0,0:0:0:0:
320,192,22030,1,0,0:0:0:0:
448,192,22030,1,0,0:0:0:0:
192,192,22170,1,0,0:0:0:0:
192,192,22310,1,0,0:0:0:0:
448,192,22310,1,0,0:0:0:0:
192,192,22450,1,0,0:0:0:0:
448,192,22591,1,0,0:0:0:0:
64,192,22591,1,0,0:0:0:0:
448,192,22731,1,0,0:0:0:0:
320,192,22871,1,0,0:0:0:0:
192,192,22871,1,0,0:0:0:0:
320,192,23011,1,0,0:0:0:0:
320,192,23151,1,0,0:0:0:0:
64,192,23151,1,0,0:0:0:0:
192,192,23292,1,0,0:0:0:0:
192,192,23432,1,0,0:0:0:0:
320,192,23432,1,0,0:0:0:0:
192,192,23572,1,0,0:0:0:0:
448,192,23572,1,0,0:0:0:0:
320,192,23712,1,0,0:0:0:0:
64,192,23782,1,0,0:0:0:0:
192,192,23852,1,0,0:0:0:0:
448,192,23922,1,0,0:0:0:0:
64,192,23993,1,0,0:0:0:0:
320,192,23993,1,0,0:0:0:0:
448,192,24063,1,0,0:0:0:0:
192,192,24133,1,0,0:0:0:0:
448,192,24273,1,0,0:0:0:0:
64,192,24273,1,0,0:0:0:0:
320,192,24413,1,0,0:0:0:0:
320,192,24553,1,0,0:0:0:0:
448,192,24553,1,0,0:0:0:0:
192,192,24693,1,0,0:0:0:0:
64,192,24834,1,0,0:0:0:0:
320,192,24834,1,0,0:0:0:0:
320,192,24974,1,0,0:0:0:0:
448,192,24974,1,0,0:0:0:0:
64,192,25114,1,0,0:0:0:0:
192,192,25184,1,0,0:0:0:0:
320,192,25254,1,0,0:0:0:0:
448,192,25254,1,0,0:0:0:0:
192,192,25324,1,0,0:0:0:0:
64,192,25394,1,0,0:0:0:0:
448,192,25394,1,0,0:0:0:0:
320,192,25535,1,0,0:0:0:0:
320,192,25675,1,0,0:0:0:0:
192,192,25675,1,0,0:0:0:0:
448,192,25815,1,0,0:0:0:0:
320,192,25955,1,0,0:0:0:0:
64,192,25955,1,0,0:0:0:0:
192,192,26095,1,0,0:0:0:0:
448,192,26165,1,0,0:0:0:0:
64,192,26236,1,0,0:0:0:0:
320,192,26236,1,0,0:0:0:0:
448,192,26306,1,0,0:0:0:0:
192,192,26376,1,0,0:0:0:0:
320,192,26446,1,0,0:0:0:0:
448,192,26516,1,0,0:0:0:0:
64,192,26516,1,0,0:0:0:0:
320,192,26656,1,0,0:0:0:0:
192,192,26796,1,0,0:0:0:0:
448,192,26796,1,0,0:0:0:0:
64,192,26936,1,0,0:0:0:0:
320,192,26936,1,0,0:0:0:0:
192,192,27077,1,0,0:0:0:0:
448,192,27077,1,0,0:0:0:0:
320,192,27217,1,0,0:0:0:0:
448,192,27357,1,0,0:0:0:0:
64,192,27357,1,0,0:0:0:0:
320,192,27497,1,0,0:0:0:0:
448,192,27637,1,0,0:0:0:0:
64,192,27637,1,0,0:0:0:0:
192,192,27707,1,0,0:0:0:0:
320,192,27778,1,0,0:0:0:0:
64,192,27848,1,0,0:0:0:0:
192,192,27918,1,0,0:0:0:0:
448,192,27988,5,0,0:0:0:0:
320,192,28058,1,0,0:0:0:0:
64,192,28128,1,0,0:0:0:0:
192,192,28198,1,0,0:0:0:0:
320,192,28198,1,0,0:0:0:0:
448,192,28268,1,0,0:0:0:0:
320,192,28338,1,0,0:0:0:0:
192,192,28408,1,0,0:0:0:0:
320,192,28479,1,0,0:0:0:0:
64,192,28479,1,0,0:0:0:0:
448,192,28549,1,0,0:0:0:0:
64,192,28619,1,0,0:0:0:0:
192,192,28689,1,0,0:0:0:0:
320,192,28759,1,0,0:0:0:0:
448,192,28759,1,0,0:0:0:0:
64,192,28829,1,0,0:0:0:0:
448,192,28899,1,0,0:0:0:0:
192,192,28899,1,0,0:0:0:0:
64,192,29179,5,0,0:0:0:0:
192,192,29179,1,0,0:0:0:0:
192,192,29320,1,0,0:0:0:0:
448,192,29390,128,0,29530:0:0:0:0:
320,192,29530,128,0,29670:0:0:0:0:
192,192,29670,128,0,29810:0:0:0:0:
64,192,29810,128,0,29880:0:0:0:0:
448,192,29914,1,0,0:0:0:0:
320,192,29914,128,0,30474:0:0:0:0:
192,192,30194,1,0,0:0:0:0:
448,192,30474,1,0,0:0:0:0:
64,192,30474,1,0,0:0:0:0:
192,192,30474,128,0,31035:0:0:0:0:
64,192,30755,1,0,0:0:0:0:
320,192,31035,128,0,31315:0:0:0:0:
448,192,31035,1,0,0:0:0:0:
448,192,31315,1,0,0:0:0:0:
64,192,31315,128,0,31596:0:0:0:0:
320,192,31596,1,0,0:0:0:0:
192,192,31596,128,0,31876:0:0:0:0:
64,192,31876,1,0,0:0:0:0:
320,192,31876,128,0,32156:0:0:0:0:
448,192,32156,1,0,0:0:0:0:
192,192,32156,128,0,32437:0:0:0:0:
320,192,32437,128,0,32717:0:0:0:0:
192,192,32717,1,0,0:0:0:0:
64,192,32717,128,0,33839:0:0:0:0:
192,192,32998,1,0,0:0:0:0:
320,192,33138,1,0,0:0:0:0:
448,192,33278,1,0,0:0:0:0:
192,192,33278,1,0,0:0:0:0:
448,192,33558,1,0,0:0:0:0:
320,192,33839,1,0,0:0:0:0:
192,192,33839,128,0,34399:0:0:0:0:
448,192,34119,1,0,0:0:0:0:
448,192,34399,1,0,0:0:0:0:
320,192,34399,128,0,34960:0:0:0:0:
64,192,34399,1,0,0:0:0:0:
448,192,34680,1,0,0:0:0:0:
64,192,34960,1,0,0:0:0:0:
192,192,34960,128,0,35241:0:0:0:0:
320,192,35241,128,0,35521:0:0:0:0:
448,192,35241,1,0,0:0:0:0:
64,192,35381,1,0,0:0:0:0:
448,192,35521,1,0,0:0:0:0:
192,192,35521,128,0,36082:0:0:0:0:
448,192,35801,1,0,0:0:0:0:
64,192,36082,1,0,0:0:0:0:
320,192,36082,128,0,36362:0:0:0:0:
64,192,36362,128,0,36642:0:0:0:0:
448,192,36362,1,0,0:0:0:0:
320,192,36642,1,0,0:0:0:0:
192,192,36642,128,0,38605:0:0:0:0:
448,192,36923,1,0,0:0:0:0:
64,192,37203,1,0,0:0:0:0:
448,192,37484,1,0,0:0:0:0:
320,192,37624,1,0,0:0:0:0:
64,192,37730,1,0,0:0:0:0:
448,192,37730,1,0,0:0:0:0:
320,192,38044,1,0,0:0:0:0:
64,192,38325,1,0,0:0:0:0:
448,192,38325,1,0,0:0:0:0:
448,192,38605,1,0,0:0:0:0:
448,192,38885,128,0,39306:0:0:0:0:
320,192,38885,1,0,0:0:0:0:
192,192,38885,1,0,0:0:0:0:
64,192,39166,1,0,0:0:0:0:
320,192,39306,128,0,39867:0:0:0:0:
192,192,39446,1,0,0:0:0:0:
64,192,39727,1,0,0:0:0:0:
192,192,39867,128,0,40007:0:0:0:0:
448,192,39867,1,0,0:0:0:0:
64,192,40007,128,0,40848:0:0:0:0:
448,192,40007,1,0,0:0:0:0:
320,192,40287,1,0,0:0:0:0:
192,192,40568,1,0,0:0:0:0:
448,192,40568,1,0,0:0:0:0:
320,192,40848,1,0,0:0:0:0:
448,192,40848,128,0,41128:0:0:0:0:
320,192,41128,1,0,0:0:0:0:
192,192,41128,128,0,41689:0:0:0:0:
64,192,41409,1,0,0:0:0:0:
448,192,41689,1,0,0:0:0:0:
320,192,41689,128,0,42110:0:0:0:0:
64,192,41689,1,0,0:0:0:0:
192,192,41970,1,0,0:0:0:0:
448,192,42110,128,0,42250:0:0:0:0:
64,192,42110,1,0,0:0:0:0:
64,192,42250,1,0,0:0:0:0:
192,192,42250,1,0,0:0:0:0:
320,192,42390,1,0,0:0:0:0:
64,192,42530,1,0,0:0:0:0:
192,192,42600,1,0,0:0:0:0:
320,192,42671,1,0,0:0:0:0:
448,192,42741,1,0,0:0:0:0:
320,192,42811,1,0,0:0:0:0:
192,192,42811,1,0,0:0:0:0:
64,192,42951,1,0,0:0:0:0:
192,192,42951,1,0,0:0:0:0:
320,192,43161,1,0,0:0:0:0:
448,192,43161,1,0,0:0:0:0:
64,192,43337,1,0,0:0:0:0:
192,192,43337,1,0,0:0:0:0:
320,192,43477,1,0,0:0:0:0:
448,192,43477,1,0,0:0:0:0:
64,192,43477,1,0,0:0:0:0:
320,192,43617,1,0,0:0:0:0:
192,192,43757,1,0,0:0:0:0:
448,192,43757,1,0,0:0:0:0:
64,192,43897,1,0,0:0:0:0:
320,192,43897,1,0,0:0:0:0:
192,192,44037,1,0,0:0:0:0:
64,192,44178,1,0,0:0:0:0:
448,192,44178,1,0,0:0:0:0:
320,192,44178,1,0,0:0:0:0:
448,192,44318,1,0,0:0:0:0:
192,192,44318,1,0,0:0:0:0:
320,192,44458,1,0,0:0:0:0:
64,192,44458,1,0,0:0:0:0:
192,192,44598,1,0,0:0:0:0:
64,192,44738,1,0,0:0:0:0:
448,192,44738,1,0,0:0:0:0:
192,192,44879,1,0,0:0:0:0:
448,192,44879,1,0,0:0:0:0:
320,192,45019,1,0,0:0:0:0:
64,192,45019,1,0,0:0:0:0:
448,192,45159,1,0,0:0:0:0:
64,192,45159,1,0,0:0:0:0:
192,192,45299,1,0,0:0:0:0:
320,192,45299,1,0,0:0:0:0:
192,192,45439,1,0,0:0:0:0:
448,192,45439,1,0,0:0:0:0:
320,192,45579,1,0,0:0:0:0:
64,192,45579,1,0,0:0:0:0:
448,192,45720,1,0,0:0:0:0:
448,192,45860,1,0,0:0:0:0:
192,192,45860,1,0,0:0:0:0:
320,192,46000,1,0,0:0:0:0:
64,192,46000,1,0,0:0:0:0:
192,192,46140,1,0,0:0:0:0:
448,192,46140,1,0,0:0:0:0:
320,192,46210,1,0,0:0:0:0:
64,192,46280,1,0,0:0:0:0:
320,192,46351,1,0,0:0:0:0:
192,192,46421,1,0,0:0:0:0:
448,192,46421,1,0,0:0:0:0:
64,192,46561,1,0,0:0:0:0:
320,192,46561,1,0,0:0:0:0:
192,192,46701,1,0,0:0:0:0:
320,192,46701,1,0,0:0:0:0:
320,192,46841,1,0,0:0:0:0:
448,192,46841,1,0,0:0:0:0:
192,192,46981,1,0,0:0:0:0:
64,192,46981,1,0,0:0:0:0:
320,192,47122,1,0,0:0:0:0:
448,192,47122,1,0,0:0:0:0:
64,192,47192,1,0,0:0:0:0:
448,192,47262,1,0,0:0:0:0:
192,192,47262,1,0,0:0:0:0:
320,192,47332,1,0,0:0:0:0:
192,192,47402,1,0,0:0:0:0:
320,192,47472,1,0,0:0:0:0:
448,192,47472,1,0,0:0:0:0:
64,192,47542,1,0,0:0:0:0:
192,192,47612,1,0,0:0:0:0:
448,192,47682,1,0,0:0:0:0:
320,192,47752,1,0,0:0:0:0:
192,192,47822,1,0,0:0:0:0:
64,192,47822,1,0,0:0:0:0:
320,192,47893,1,0,0:0:0:0:
448,192,47963,1,0,0:0:0:0:
320,192,48033,1,0,0:0:0:0:
192,192,48103,1,0,0:0:0:0:
64,192,48103,1,0,0:0:0:0:
320,192,48243,1,0,0:0:0:0:
448,192,48313,1,0,0:0:0:0:
192,192,48383,1,0,0:0:0:0:
64,192,48383,1,0,0:0:0:0:
320,192,48453,1,0,0:0:0:0:
448,192,48523,1,0,0:0:0:0:
320,192,48594,1,0,0:0:0:0:
192,192,48664,1,0,0:0:0:0:
64,192,48664,1,0,0:0:0:0:
448,192,48734,1,0,0:0:0:0:
320,192,48804,1,0,0:0:0:0:
64,192,48874,1,0,0:0:0:0:
448,192,48944,1,0,0:0:0:0:
320,192,48944,1,0,0:0:0:0:
64,192,49014,1,0,0:0:0:0:
192,192,49084,1,0,0:0:0:0:
64,192,49154,1,0,0:0:0:0:
448,192,49224,1,0,0:0:0:0:
320,192,49224,1,0,0:0:0:0:
192,192,49294,1,0,0:0:0:0:
64,192,49365,1,0,0:0:0:0:
192,192,49435,1,0,0:0:0:0:
448,192,49505,1,0,0:0:0:0:
320,192,49505,1,0,0:0:0:0:
64,192,49575,1,0,0:0:0:0:
192,192,49645,1,0,0:0:0:0:
448,192,49715,1,0,0:0:0:0:
320,192,49785,1,0,0:0:0:0:
192,192,49785,1,0,0:0:0:0:
64,192,49855,1,0,0:0:0:0:
448,192,49925,1,0,0:0:0:0:
64,192,49995,1,0,0:0:0:0:
320,192,50065,1,0,0:0:0:0:
192,192,50065,1,0,0:0:0:0:
448,192,50136,1,0,0:0:0:0:
64,192,50206,1,0,0:0:0:0:
448,192,50276,1,0,0:0:0:0:
320,192,50346,1,0,0:0:0:0:
192,192,50346,1,0,0:0:0:0:
64,192,50416,1,0,0:0:0:0:
320,192,50486,1,0,0:0:0:0:
448,192,50556,1,0,0:0:0:0:
192,192,50626,1,0,0:0:0:0:
64,192,50626,1,0,0:0:0:0:
320,192,50696,1,0,0:0:0:0:
448,192,50766,1,0,0:0:0:0:
64,192,50837,1,0,0:0:0:0:
320,192,50907,1,0,0:0:0:0:
192,192,50907,1,0,0:0:0:0:
448,192,50977,1,0,0:0:0:0:
64,192,51047,1,0,0:0:0:0:
192,192,51117,1,0,0:0:0:0:
448,192,51187,1,0,0:0:0:0:
320,192,51187,1,0,0:0:0:0:
64,192,51257,1,0,0:0:0:0:
192,192,51327,1,0,0:0:0:0:
448,192,51397,1,0,0:0:0:0:
320,192,51467,1,0,0:0:0:0:
192,192,51467,1,0,0:0:0:0:
64,192,51537,1,0,0:0:0:0:
448,192,51608,1,0,0:0:0:0:
320,192,51678,1,0,0:0:0:0:
192,192,51748,1,0,0:0:0:0:
64,192,51748,1,0,0:0:0:0:
448,192,51818,1,0,0:0:0:0:
320,192,51888,1,0,0:0:0:0:
64,192,51958,1,0,0:0:0:0:
320,192,52028,1,0,0:0:0:0:
192,192,52028,1,0,0:0:0:0:
448,192,52098,1,0,0:0:0:0:
64,192,52168,1,0,0:0:0:0:
192,192,52238,1,0,0:0:0:0:
448,192,52308,1,0,0:0:0:0:
320,192,52308,1,0,0:0:0:0:
64,192,52379,1,0,0:0:0:0:
192,192,52449,1,0,0:0:0:0:
64,192,52519,1,0,0:0:0:0:
448,192,52589,1,0,0:0:0:0:
320,192,52589,1,0,0:0:0:0:
192,192,52659,1,0,0:0:0:0:
64,192,52729,1,0,0:0:0:0:
192,192,52799,1,0,0:0:0:0:
448,192,52869,1,0,0:0:0:0:
320,192,52869,1,0,0:0:0:0:
192,192,52939,1,0,0:0:0:0:
448,192,53009,1,0,0:0:0:0:
64,192,53079,1,0,0:0:0:0:
320,192,53150,1,0,0:0:0:0:
192,192,53150,1,0,0:0:0:0:
448,192,53220,1,0,0:0:0:0:
64,192,53290,1,0,0:0:0:0:
320,192,53360,1,0,0:0:0:0:
192,192,53430,1,0,0:0:0:0:
64,192,53430,1,0,0:0:0:0:
320,192,53500,1,0,0:0:0:0:
448,192,53570,1,0,0:0:0:0:
64,192,53640,1,0,0:0:0:0:
320,192,53710,1,0,0:0:0:0:
192,192,53710,1,0,0:0:0:0:
448,192,53780,1,0,0:0:0:0:
192,192,53851,1,0,0:0:0:0:
64,192,53921,1,0,0:0:0:0:
320,192,53991,1,0,0:0:0:0:
192,192,53991,1,0,0:0:0:0:
64,192,54061,1,0,0:0:0:0:
448,192,54131,1,0,0:0:0:0:
320,192,54201,1,0,0:0:0:0:
192,192,54271,1,0,0:0:0:0:
64,192,54271,1,0,0:0:0:0:
320,192,54341,1,0,0:0:0:0:
448,192,54411,1,0,0:0:0:0:
64,192,54481,1,0,0:0:0:0:
320,192,54551,1,0,0:0:0:0:
192,192,54551,1,0,0:0:0:0:
448,192,54622,1,0,0:0:0:0:
64,192,54692,1,0,0:0:0:0:
192,192,54762,1,0,0:0:0:0:
448,192,54832,1,0,0:0:0:0:
320,192,54832,1,0,0:0:0:0:
64,192,54902,1,0,0:0:0:0:
448,192,54972,1,0,0:0:0:0:
64,192,55042,1,0,0:0:0:0:
320,192,55112,1,0,0:0:0:0:
192,192,55112,1,0,0:0:0:0:
448,192,55182,1,0,0:0:0:0:
192,192,55252,1,0,0:0:0:0:
320,192,55322,1,0,0:0:0:0:
192,192,55393,1,0,0:0:0:0:
64,192,55393,1,0,0:0:0:0:
448,192,55463,1,0,0:0:0:0:
320,192,55533,1,0,0:0:0:0:
192,192,55603,1,0,0:0:0:0:
448,192,55673,1,0,0:0:0:0:
320,192,55673,1,0,0:0:0:0:
64,192,55743,1,0,0:0:0:0:
192,192,55813,1,0,0:0:0:0:
320,192,55883,1,0,0:0:0:0:
64,192,55953,1,0,0:0:0:0:
192,192,55953,1,0,0:0:0:0:
448,192,56023,1,0,0:0:0:0:
64,192,56094,1,0,0:0:0:0:
192,192,56164,1,0,0:0:0:0:
448,192,56234,1,0,0:0:0:0:
320,192,56234,1,0,0:0:0:0:
192,192,56304,1,0,0:0:0:0:
64,192,56374,1,0,0:0:0:0:
320,192,56374,1,0,0:0:0:0:
448,192,56444,1,0,0:0:0:0:
320,192,56514,1,0,0:0:0:0:
192,192,56514,1,0,0:0:0:0:
64,192,56584,1,0,0:0:0:0:
192,192,56654,1,0,0:0:0:0:
448,192,56654,1,0,0:0:0:0:
320,192,56724,1,0,0:0:0:0:
64,192,56794,1,0,0:0:0:0:
192,192,56794,1,0,0:0:0:0:
320,192,56865,1,0,0:0:0:0:
448,192,56935,1,0,0:0:0:0:
320,192,57005,1,0,0:0:0:0:
64,192,57075,1,0,0:0:0:0:
192,192,57075,1,0,0:0:0:0:
320,192,57215,1,0,0:0:0:0:
448,192,57285,1,0,0:0:0:0:
64,192,57355,1,0,0:0:0:0:
192,192,57355,1,0,0:0:0:0:
320,192,57425,1,0,0:0:0:0:
448,192,57495,1,0,0:0:0:0:
320,192,57565,1,0,0:0:0:0:
64,192,57636,1,0,0:0:0:0:
192,192,57636,1,0,0:0:0:0:
448,192,57706,1,0,0:0:0:0:
320,192,57776,1,0,0:0:0:0:
64,192,57846,1,0,0:0:0:0:
320,192,57916,1,0,0:0:0:0:
448,192,57916,1,0,0:0:0:0:
64,192,57986,1,0,0:0:0:0:
192,192,58056,1,0,0:0:0:0:
64,192,58126,1,0,0:0:0:0:
320,192,58196,1,0,0:0:0:0:
448,192,58196,1,0,0:0:0:0:
192,192,58266,1,0,0:0:0:0:
64,192,58337,1,0,0:0:0:0:
192,192,58407,1,0,0:0:0:0:
320,192,58477,1,0,0:0:0:0:
448,192,58477,1,0,0:0:0:0:
64,192,58547,1,0,0:0:0:0:
192,192,58617,1,0,0:0:0:0:
448,192,58687,1,0,0:0:0:0:
192,192,58757,1,0,0:0:0:0:
320,192,58757,1,0,0:0:0:0:
64,192,58827,1,0,0:0:0:0:
448,192,58897,1,0,0:0:0:0:
64,192,58967,1,0,0:0:0:0:
192,192,59037,1,0,0:0:0:0:
320,192,59037,1,0,0:0:0:0:
448,192,59108,1,0,0:0:0:0:
64,192,59178,1,0,0:0:0:0:
448,192,59248,1,0,0:0:0:0:
192,192,59318,1,0,0:0:0:0:
320,192,59318,1,0,0:0:0:0:
64,192,59388,1,0,0:0:0:0:
320,192,59458,1,0,0:0:0:0:
448,192,59528,1,0,0:0:0:0:
64,192,59598,1,0,0:0:0:0:
192,192,59598,1,0,0:0:0:0:
320,192,59668,1,0,0:0:0:0:
448,192,59738,1,0,0:0:0:0:
64,192,59808,1,0,0:0:0:0:
192,192,59879,1,0,0:0:0:0:
320,192,59879,1,0,0:0:0:0:
448,192,59949,1,0,0:0:0:0:
64,192,60019,1,0,0:0:0:0:
192,192,60089,1,0,0:0:0:0:
320,192,60159,1,0,0:0:0:0:
448,192,60159,1,0,0:0:0:0:
64,192,60229,1,0,0:0:0:0:
192,192,60299,1,0,0:0:0:0:
448,192,60369,1,0,0:0:0:0:
192,192,60439,1,0,0:0:0:0:
320,192,60439,1,0,0:0:0:0:
64,192,60509,1,0,0:0:0:0:
448,192,60579,1,0,0:0:0:0:
320,192,60650,1,0,0:0:0:0:
64,192,60720,1,0,0:0:0:0:
192,192,60720,1,0,0:0:0:0:
448,192,60790,1,0,0:0:0:0:
320,192,60860,1,0,0:0:0:0:
64,192,60930,1,0,0:0:0:0:
192,192,61000,1,0,0:0:0:0:
320,192,61000,1,0,0:0:0:0:
448,192,61070,1,0,0:0:0:0:
64,192,61140,1,0,0:0:0:0:
192,192,61210,1,0,0:0:0:0:
448,192,61421,1,0,0:0:0:0:
320,192,61421,1,0,0:0:0:0:
64,192,61421,1,0,0:0:0:0:
448,192,61561,1,0,0:0:0:0:
320,192,61561,1,0,0:0:0:0:
320,192,61701,1,0,0:0:0:0:
192,192,61701,1,0,0:0:0:0:
64,192,61841,1,0,0:0:0:0:
448,192,61841,1,0,0:0:0:0:
192,192,61981,1,0,0:0:0:0:
320,192,62122,1,0,0:0:0:0:
448,192,62122,1,0,0:0:0:0:
64,192,62122,1,0,0:0:0:0:
320,192,62262,1,0,0:0:0:0:
448,192,62262,1,0,0:0:0:0:
192,192,62402,1,0,0:0:0:0:
64,192,62542,1,0,0:0:0:0:
192,192,62542,1,0,0:0:0:0:
448,192,62542,1,0,0:0:0:0:
64,192,62682,1,0,0:0:0:0:
320,192,62682,1,0,0:0:0:0:
320,192,62822,1,0,0:0:0:0:
192,192,62963,1,0,0:0:0:0:
64,192,63103,1,0,0:0:0:0:
320,192,63103,1,0,0:0:0:0:
192,192,63243,1,0,0:0:0:0:
64,192,63383,1,0,0:0:0:0:
320,192,63383,1,0,0:0:0:0:
192,192,63523,1,0,0:0:0:0:
448,192,63664,1,0,0:0:0:0:
320,192,63664,1,0,0:0:0:0:
64,192,63664,1,0,0:0:0:0:
448,192,63804,1,0,0:0:0:0:
320,192,63804,1,0,0:0:0:0:
192,192,63804,1,0,0:0:0:0:
320,192,63944,1,0,0:0:0:0:
192,192,64084,1,0,0:0:0:0:
448,192,64084,1,0,0:0:0:0:
64,192,64224,1,0,0:0:0:0:
320,192,64224,1,0,0:0:0:0:
192,192,64365,1,0,0:0:0:0:
448,192,64365,1,0,0:0:0:0:
192,192,64505,1,0,0:0:0:0:
64,192,64505,1,0,0:0:0:0:
448,192,64645,1,0,0:0:0:0:
320,192,64645,1,0,0:0:0:0:
320,192,64785,1,0,0:0:0:0:
448,192,64925,1,0,0:0:0:0:
192,192,64925,1,0,0:0:0:0:
320,192,65065,1,0,0:0:0:0:
64,192,65065,1,0,0:0:0:0:
192,192,65206,1,0,0:0:0:0:
448,192,65206,1,0,0:0:0:0:
64,192,65346,1,0,0:0:0:0:
192,192,65486,1,0,0:0:0:0:
448,192,65486,1,0,0:0:0:0:
320,192,65556,1,0,0:0:0:0:
448,192,65626,1,0,0:0:0:0:
64,192,65626,1,0,0:0:0:0:
320,192,65696,1,0,0:0:0:0:
192,192,65766,1,0,0:0:0:0:
448,192,65766,1,0,0:0:0:0:
64,192,65907,1,0,0:0:0:0:
192,192,66047,1,0,0:0:0:0:
320,192,66047,1,0,0:0:0:0:
192,192,66187,1,0,0:0:0:0:
320,192,66187,1,0,0:0:0:0:
64,192,66327,1,0,0:0:0:0:
448,192,66327,1,0,0:0:0:0:
320,192,66467,1,0,0:0:0:0:
448,192,66608,1,0,0:0:0:0:
192,192,66608,1,0,0:0:0:0:
320,192,66748,1,0,0:0:0:0:
192,192,66888,1,0,0:0:0:0:
448,192,66888,1,0,0:0:0:0:
64,192,67028,1,0,0:0:0:0:
192,192,67168,1,0,0:0:0:0:
320,192,67168,1,0,0:0:0:0:
192,192,67308,1,0,0:0:0:0:
320,192,67308,1,0,0:0:0:0:
64,192,67449,1,0,0:0:0:0:
320,192,67449,1,0,0:0:0:0:
448,192,67589,1,0,0:0:0:0:
320,192,67729,1,0,0:0:0:0:
192,192,67729,1,0,0:0:0:0:
448,192,67869,1,0,0:0:0:0:
64,192,68009,1,0,0:0:0:0:
320,192,68009,1,0,0:0:0:0:
192,192,68290,1,0,0:0:0:0:
64,192,68290,1,0,0:0:0:0:
192,192,68430,1,0,0:0:0:0:
64,192,68430,1,0,0:0:0:0:
320,192,68570,1,0,0:0:0:0:
448,192,68570,1,0,0:0:0:0:
320,192,68710,1,0,0:0:0:0:
448,192,68851,1,0,0:0:0:0:
64,192,68851,1,0,0:0:0:0:
320,192,68991,1,0,0:0:0:0:
192,192,69131,1,0,0:0:0:0:
64,192,69271,1,0,0:0:0:0:
192,192,69271,1,0,0:0:0:0:
448,192,69341,1,0,0:0:0:0:
192,192,69411,1,0,0:0:0:0:
320,192,69411,1,0,0:0:0:0:
64,192,69481,1,0,0:0:0:0:
320,192,69551,1,0,0:0:0:0:
448,192,69551,1,0,0:0:0:0:
64,192,69622,1,0,0:0:0:0:
192,192,69692,1,0,0:0:0:0:
320,192,69692,1,0,0:0:0:0:
448,192,69762,1,0,0:0:0:0:
64,192,69832,1,0,0:0:0:0:
192,192,69832,1,0,0:0:0:0:
320,192,69902,1,0,0:0:0:0:
192,192,69972,1,0,0:0:0:0:
448,192,69972,1,0,0:0:0:0:
320,192,70112,1,0,0:0:0:0:
192,192,70182,1,0,0:0:0:0:
64,192,70252,1,0,0:0:0:0:
320,192,70252,1,0,0:0:0:0:
192,192,70322,1,0,0:0:0:0:
320,192,70393,1,0,0:0:0:0:
448,192,70393,1,0,0:0:0:0:
192,192,70463,1,0,0:0:0:0:
64,192,70533,1,0,0:0:0:0:
320,192,70533,1,0,0:0:0:0:
192,192,70603,1,0,0:0:0:0:
320,192,70673,1,0,0:0:0:0:
448,192,70673,1,0,0:0:0:0:
192,192,70743,1,0,0:0:0:0:
64,192,70813,1,0,0:0:0:0:
320,192,70813,1,0,0:0:0:0:
192,192,70883,1,0,0:0:0:0:
320,192,70953,1,0,0:0:0:0:
448,192,70953,1,0,0:0:0:0:
64,192,71094,1,0,0:0:0:0:
192,192,71094,1,0,0:0:0:0:
320,192,71164,1,0,0:0:0:0:
448,192,71234,1,0,0:0:0:0:
64,192,71304,1,0,0:0:0:0:
192,192,71374,1,0,0:0:0:0:
320,192,71374,1,0,0:0:0:0:
64,192,71444,1,0,0:0:0:0:
448,192,71514,1,0,0:0:0:0:
320,192,71514,1,0,0:0:0:0:
192,192,71584,1,0,0:0:0:0:
64,192,71654,1,0,0:0:0:0:
448,192,71654,1,0,0:0:0:0:
192,192,71724,1,0,0:0:0:0:
320,192,71794,1,0,0:0:0:0:
448,192,71794,1,0,0:0:0:0:
192,192,71865,1,0,0:0:0:0:
64,192,71935,1,0,0:0:0:0:
320,192,71935,1,0,0:0:0:0:
192,192,72005,1,0,0:0:0:0:
320,192,72075,1,0,0:0:0:0:
64,192,72075,1,0,0:0:0:0:
192,192,72145,1,0,0:0:0:0:
320,192,72215,1,0,0:0:0:0:
448,192,72215,1,0,0:0:0:0:
192,192,72285,1,0,0:0:0:0:
64,192,72355,1,0,0:0:0:0:
320,192,72355,1,0,0:0:0:0:
192,192,72425,1,0,0:0:0:0:
448,192,72495,1,0,0:0:0:0:
320,192,72495,1,0,0:0:0:0:
192,192,72565,1,0,0:0:0:0:
64,192,72636,1,0,0:0:0:0:
320,192,72636,1,0,0:0:0:0:
192,192,72706,1,0,0:0:0:0:
320,192,72776,1,0,0:0:0:0:
448,192,72776,1,0,0:0:0:0:
192,192,72846,1,0,0:0:0:0:
64,192,72916,1,0,0:0:0:0:
320,192,72916,1,0,0:0:0:0:
192,192,72986,1,0,0:0:0:0:
448,192,73056,1,0,0:0:0:0:
320,192,73056,1,0,0:0:0:0:
192,192,73126,1,0,0:0:0:0:
64,192,73196,1,0,0:0:0:0:
320,192,73196,1,0,0:0:0:0:
448,192,73266,1,0,0:0:0:0:
192,192,73337,1,0,0:0:0:0:
320,192,73407,1,0,0:0:0:0:
448,192,73407,1,0,0:0:0:0:
192,192,73477,1,0,0:0:0:0:
64,192,73547,1,0,0:0:0:0:
448,192,73547,1,0,0:0:0:0:
320,192,73617,1,0,0:0:0:0:
320,192,73757,1,0,0:0:0:0:
192,192,73757,1,0,0:0:0:0:
320,192,73897,1,0,0:0:0:0:
192,192,73897,1,0,0:0:0:0:
448,192,74037,1,0,0:0:0:0:
64,192,74108,1,0,0:0:0:0:
320,192,74178,1,0,0:0:0:0:
448,192,74248,1,0,0:0:0:0:
192,192,74318,1,0,0:0:0:0:
448,192,74388,1,0,0:0:0:0:
64,192,74458,1,0,0:0:0:0:
320,192,74458,1,0,0:0:0:0:
448,192,74598,1,0,0:0:0:0:
320,192,74668,1,0,0:0:0:0:
192,192,74738,1,0,0:0:0:0:
64,192,74808,1,0,0:0:0:0:
320,192,74879,1,0,0:0:0:0:
192,192,75019,1,0,0:0:0:0:
448,192,75019,1,0,0:0:0:0:
192,192,75159,1,0,0:0:0:0:
64,192,75229,1,0,0:0:0:0:
320,192,75299,1,0,0:0:0:0:
448,192,75439,1,0,0:0:0:0:
192,192,75439,1,0,0:0:0:0:
192,192,75579,1,0,0:0:0:0:
64,192,75579,1,0,0:0:0:0:
192,192,75720,1,0,0:0:0:0:
320,192,75720,1,0,0:0:0:0:
192,192,75860,1,0,0:0:0:0:
448,192,75860,1,0,0:0:0:0:
320,192,76000,1,0,0:0:0:0:
64,192,76140,1,0,0:0:0:0:
448,192,76140,1,0,0:0:0:0:
64,192,76280,1,0,0:0:0:0:
320,192,76280,1,0,0:0:0:0:
192,192,76421,1,0,0:0:0:0:
448,192,76421,1,0,0:0:0:0:
320,192,76561,1,0,0:0:0:0:
192,192,76701,1,0,0:0:0:0:
448,192,76701,1,0,0:0:0:0:
64,192,76701,1,0,0:0:0:0:
320,192,76841,1,0,0:0:0:0:
64,192,76981,1,0,0:0:0:0:
192,192,76981,1,0,0:0:0:0:
320,192,77122,1,0,0:0:0:0:
448,192,77122,1,0,0:0:0:0:
448,192,77262,1,0,0:0:0:0:
192,192,77262,1,0,0:0:0:0:
448,192,77402,1,0,0:0:0:0:
192,192,77402,1,0,0:0:0:0:
64,192,77402,1,0,0:0:0:0:
320,192,77542,1,0,0:0:0:0:
192,192,77682,1,0,0:0:0:0:
448,192,77682,1,0,0:0:0:0:
64,192,77822,1,0,0:0:0:0:
320,192,77822,1,0,0:0:0:0:
192,192,77963,1,0,0:0:0:0:
448,192,77963,1,0,0:0:0:0:
320,192,78103,1,0,0:0:0:0:
192,192,78103,1,0,0:0:0:0:
64,192,78173,1,0,0:0:0:0:
320,192,78243,1,0,0:0:0:0:
448,192,78313,1,0,0:0:0:0:
64,192,78383,1,0,0:0:0:0:
192,192,78383,1,0,0:0:0:0:
448,192,78453,1,0,0:0:0:0:
192,192,78523,1,0,0:0:0:0:
320,192,78523,1,0,0:0:0:0:
64,192,78594,1,0,0:0:0:0:
320,192,78664,1,0,0:0:0:0:
448,192,78664,1,0,0:0:0:0:
192,192,78734,1,0,0:0:0:0:
64,192,78804,1,0,0:0:0:0:
320,192,78874,1,0,0:0:0:0:
448,192,78944,1,0,0:0:0:0:
192,192,78944,1,0,0:0:0:0:
64,192,79014,1,0,0:0:0:0:
192,192,79084,1,0,0:0:0:0:
448,192,79224,1,0,0:0:0:0:
320,192,79224,1,0,0:0:0:0:
192,192,79294,1,0,0:0:0:0:
64,192,79365,1,0,0:0:0:0:
320,192,79365,1,0,0:0:0:0:
192,192,79435,1,0,0:0:0:0:
320,192,79505,1,0,0:0:0:0:
448,192,79505,1,0,0:0:0:0:
192,192,79575,1,0,0:0:0:0:
64,192,79645,1,0,0:0:0:0:
320,192,79645,1,0,0:0:0:0:
192,192,79715,1,0,0:0:0:0:
448,192,79785,1,0,0:0:0:0:
320,192,79785,1,0,0:0:0:0:
192,192,79855,1,0,0:0:0:0:
64,192,79925,1,0,0:0:0:0:
320,192,79925,1,0,0:0:0:0:
448,192,79995,1,0,0:0:0:0:
192,192,80065,1,0,0:0:0:0:
320,192,80136,1,0,0:0:0:0:
448,192,80136,1,0,0:0:0:0:
192,192,80206,1,0,0:0:0:0:
64,192,80276,1,0,0:0:0:0:
448,192,80276,1,0,0:0:0:0:
320,192,80346,1,0,0:0:0:0:
320,192,80486,1,0,0:0:0:0:
192,192,80486,1,0,0:0:0:0:
320,192,80626,1,0,0:0:0:0:
192,192,80626,1,0,0:0:0:0:
448,192,80766,1,0,0:0:0:0:
64,192,80837,1,0,0:0:0:0:
320,192,80907,1,0,0:0:0:0:
448,192,80977,1,0,0:0:0:0:
192,192,81047,1,0,0:0:0:0:
448,192,81117,1,0,0:0:0:0:
64,192,81187,1,0,0:0:0:0:
320,192,81187,1,0,0:0:0:0:
448,192,81327,1,0,0:0:0:0:
320,192,81397,1,0,0:0:0:0:
192,192,81467,1,0,0:0:0:0:
64,192,81537,1,0,0:0:0:0:
320,192,81608,1,0,0:0:0:0:
192,192,81748,1,0,0:0:0:0:
448,192,81748,1,0,0:0:0:0:
192,192,81888,1,0,0:0:0:0:
64,192,81958,1,0,0:0:0:0:
320,192,82028,1,0,0:0:0:0:
448,192,82168,1,0,0:0:0:0:
192,192,82168,1,0,0:0:0:0:
192,192,82308,1,0,0:0:0:0:
64,192,82308,1,0,0:0:0:0:
192,192,82449,1,0,0:0:0:0:
320,192,82449,1,0,0:0:0:0:
192,192,82589,1,0,0:0:0:0:
448,192,82589,1,0,0:0:0:0:
320,192,82729,1,0,0:0:0:0:
64,192,82869,1,0,0:0:0:0:
448,192,82869,1,0,0:0:0:0:
64,192,83009,1,0,0:0:0:0:
320,192,83009,1,0,0:0:0:0:
192,192,83150,1,0,0:0:0:0:
448,192,83150,1,0,0:0:0:0:
320,192,83290,1,0,0:0:0:0:
192,192,83430,1,0,0:0:0:0:
448,192,83430,1,0,0:0:0:0:
64,192,83430,1,0,0:0:0:0:
320,192,83570,1,0,0:0:0:0:
64,192,85393,5,0,0:0:0:0:
192,192,85533,1,0,0:0:0:0:
320,192,85673,1,0,0:0:0:0:
448,192,85813,1,0,0:0:0:0:
192,192,85953,1,0,0:0:0:0:
320,192,85954,1,0,0:0:0:0:
64,192,86514,1,0,0:0:0:0:
192,192,86514,1,0,0:0:0:0:
448,192,86795,1,0,0:0:0:0:
192,192,87075,1,0,0:0:0:0:
320,192,87075,1,0,0:0:0:0:
448,192,87355,1,0,0:0:0:0:
192,192,87636,1,0,0:0:0:0:
320,192,87916,1,0,0:0:0:0:
192,192,88196,1,0,0:0:0:0:
448,192,88196,1,0,0:0:0:0:
320,192,88477,1,0,0:0:0:0:
192,192,88757,1,0,0:0:0:0:
192,192,89318,1,0,0:0:0:0:
320,192,89879,1,0,0:0:0:0:
448,192,89879,1,0,0:0:0:0:
192,192,90439,1,0,0:0:0:0:
320,192,90439,1,0,0:0:0:0:
64,192,91000,1,0,0:0:0:0:
192,192,91000,1,0,0:0:0:0:
320,192,91281,1,0,0:0:0:0:
192,192,91561,1,0,0:0:0:0:
320,192,91561,1,0,0:0:0:0:
320,192,91841,1,0,0:0:0:0:
192,192,92122,1,0,0:0:0:0:
320,192,92122,1,0,0:0:0:0:
64,192,92402,1,0,0:0:0:0:
192,192,92682,1,0,0:0:0:0:
448,192,92682,1,0,0:0:0:0:
320,192,93243,1,0,0:0:0:0:
320,192,93804,1,0,0:0:0:0:
320,192,94365,1,0,0:0:0:0:
192,192,94925,1,0,0:0:0:0:
320,192,94925,1,0,0:0:0:0:
320,192,95346,1,0,0:0:0:0:
448,192,95486,1,0,0:0:0:0:
192,192,95767,1,0,0:0:0:0:
320,192,96047,1,0,0:0:0:0:
448,192,96047,1,0,0:0:0:0:
192,192,96608,1,0,0:0:0:0:
192,192,97168,1,0,0:0:0:0:
448,192,97168,1,0,0:0:0:0:
192,192,97589,1,0,0:0:0:0:
320,192,97589,1,0,0:0:0:0:
448,192,97729,1,0,0:0:0:0:
320,192,98010,1,0,0:0:0:0:
192,192,98290,1,0,0:0:0:0:
448,192,98290,1,0,0:0:0:0:
320,192,98851,1,0,0:0:0:0:
192,192,98851,1,0,0:0:0:0:
192,192,99411,1,0,0:0:0:0:
448,192,99411,1,0,0:0:0:0:
64,192,99411,128,0,100533:0:0:0:0:
320,192,99832,1,0,0:0:0:0:
192,192,99972,1,0,0:0:0:0:
448,192,99972,1,0,0:0:0:0:
320,192,100253,1,0,0:0:0:0:
192,192,100533,128,0,101234:0:0:0:0:
448,192,100533,1,0,0:0:0:0:
320,192,100533,1,0,0:0:0:0:
320,192,100954,1,0,0:0:0:0:
448,192,101094,1,0,0:0:0:0:
64,192,101094,1,0,0:0:0:0:
192,192,101374,128,0,101654:0:0:0:0:
320,192,101374,1,0,0:0:0:0:
448,192,101374,1,0,0:0:0:0:
320,192,101654,128,0,103056:0:0:0:0:
64,192,101654,1,0,0:0:0:0:
448,192,101654,1,0,0:0:0:0:
192,192,101935,1,0,0:0:0:0:
64,192,102215,1,0,0:0:0:0:
192,192,103337,1,0,0:0:0:0:
64,192,103337,128,0,103897:0:0:0:0:
448,192,103897,1,0,0:0:0:0:
320,192,103897,128,0,104038:0:0:0:0:
448,192,104038,128,0,104178:0:0:0:0:
320,192,104178,128,0,104318:0:0:0:0:
192,192,104318,128,0,104458:0:0:0:0:
448,192,104458,1,0,0:0:0:0:
320,192,104739,1,0,0:0:0:0:
64,192,104739,1,0,0:0:0:0:
192,192,105019,1,0,0:0:0:0:
320,192,105019,1,0,0:0:0:0:
448,192,105019,128,0,105159:0:0:0:0:
320,192,105159,128,0,105299:0:0:0:0:
192,192,105299,128,0,105439:0:0:0:0:
64,192,105439,128,0,105580:0:0:0:0:
448,192,105580,1,0,0:0:0:0:
320,192,105860,1,0,0:0:0:0:
448,192,105860,1,0,0:0:0:0:
192,192,106000,1,0,0:0:0:0:
320,192,106140,1,0,0:0:0:0:
64,192,106140,128,0,106281:0:0:0:0:
192,192,106281,128,0,106421:0:0:0:0:
320,192,106421,128,0,106561:0:0:0:0:
448,192,106561,128,0,106701:0:0:0:0:
192,192,106701,1,0,0:0:0:0:
320,192,106701,1,0,0:0:0:0:
64,192,106841,1,0,0:0:0:0:
448,192,106982,1,0,0:0:0:0:
448,192,107122,1,0,0:0:0:0:
320,192,107262,1,0,0:0:0:0:
192,192,107262,1,0,0:0:0:0:
448,192,107402,1,0,0:0:0:0:
192,192,107542,1,0,0:0:0:0:
64,192,107682,1,0,0:0:0:0:
192,192,107823,1,0,0:0:0:0:
320,192,107823,1,0,0:0:0:0:
448,192,107823,128,0,107963:0:0:0:0:
320,192,107963,128,0,108103:0:0:0:0:
192,192,108103,128,0,108243:0:0:0:0:
320,192,108243,128,0,108383:0:0:0:0:
64,192,108383,1,0,0:0:0:0:
448,192,108383,1,0,0:0:0:0:
192,192,108524,1,0,0:0:0:0:
448,192,108524,128,0,108664:0:0:0:0:
320,192,108664,1,0,0:0:0:0:
64,192,108664,128,0,108804:0:0:0:0:
192,192,108804,1,0,0:0:0:0:
448,192,108804,128,0,108944:0:0:0:0:
64,192,108944,1,0,0:0:0:0:
320,192,108944,1,0,0:0:0:0:
448,192,109225,1,0,0:0:0:0:
448,192,109365,1,0,0:0:0:0:
320,192,109505,1,0,0:0:0:0:
64,192,109505,1,0,0:0:0:0:
448,192,109505,128,0,109645:0:0:0:0:
192,192,109645,1,0,0:0:0:0:
64,192,109645,128,0,109785:0:0:0:0:
320,192,109785,1,0,0:0:0:0:
448,192,109785,128,0,109925:0:0:0:0:
192,192,109925,1,0,0:0:0:0:
64,192,110066,1,0,0:0:0:0:
320,192,110066,1,0,0:0:0:0:
192,192,110346,1,0,0:0:0:0:
320,192,110626,1,0,0:0:0:0:
192,192,110626,1,0,0:0:0:0:
448,192,110907,1,0,0:0:0:0:
64,192,111187,1,0,0:0:0:0:
192,192,111187,1,0,0:0:0:0:
320,192,111468,1,0,0:0:0:0:
192,192,111748,1,0,0:0:0:0:
448,192,111748,1,0,0:0:0:0:
320,192,112028,1,0,0:0:0:0:
64,192,112168,1,0,0:0:0:0:
448,192,112309,128,0,112449:0:0:0:0:
320,192,112449,128,0,112589:0:0:0:0:
192,192,112589,128,0,112729:0:0:0:0:
64,192,112729,128,0,112869:0:0:0:0:
192,192,112869,1,0,0:0:0:0:
448,192,112869,1,0,0:0:0:0:
448,192,113290,1,0,0:0:0:0:
192,192,113430,1,0,0:0:0:0:
320,192,113430,1,0,0:0:0:0:
448,192,113570,1,0,0:0:0:0:
64,192,113711,1,0,0:0:0:0:
192,192,113851,1,0,0:0:0:0:
320,192,113991,1,0,0:0:0:0:
448,192,113991,1,0,0:0:0:0:
192,192,114131,1,0,0:0:0:0:
64,192,114271,1,0,0:0:0:0:
320,192,114411,1,0,0:0:0:0:
192,192,114552,1,0,0:0:0:0:
448,192,114552,1,0,0:0:0:0:
320,192,114692,1,0,0:0:0:0:
448,192,114832,1,0,0:0:0:0:
192,192,115112,1,0,0:0:0:0:
320,192,115112,1,0,0:0:0:0:
448,192,115253,1,0,0:0:0:0:
320,192,115393,1,0,0:0:0:0:
64,192,115533,1,0,0:0:0:0:
192,192,115673,1,0,0:0:0:0:
320,192,115673,1,0,0:0:0:0:
448,192,115813,1,0,0:0:0:0:
192,192,115954,1,0,0:0:0:0:
64,192,116094,1,0,0:0:0:0:
192,192,116234,1,0,0:0:0:0:
320,192,116234,1,0,0:0:0:0:
448,192,116374,1,0,0:0:0:0:
320,192,116514,1,0,0:0:0:0:
192,192,116795,1,0,0:0:0:0:
320,192,116795,1,0,0:0:0:0:
64,192,116935,1,0,0:0:0:0:
448,192,117075,128,0,117355:0:0:0:0:
192,192,117075,1,0,0:0:0:0:
320,192,117215,1,0,0:0:0:0:
64,192,117355,1,0,0:0:0:0:
192,192,117355,1,0,0:0:0:0:
