osu file format v14

[General]
AudioFilename: audio.mp3
AudioLeadIn: 0
PreviewTime: -1
Countdown: 1
SampleSet: None
StackLeniency: 0.7
Mode: 3
LetterboxInBreaks: 0
SpecialStyle: 0
WidescreenStoryboard: 0

[Editor]
Bookmarks: 123405,138405,157155,173405
DistanceSpacing: 1.2
BeatDivisor: 4
GridSize: 4
TimelineZoom: 1.8

[Metadata]
Title:The Primal Scene of Japan the Girl Saw
TitleUnicode:The Primal Scene of Japan the Girl Saw
Artist:Dark PHOENiX
ArtistUnicode:Dark PHOENiX
Creator:juankristal
Version:Stage 3: Release
Source:
Tags:
BeatmapID:1546412
BeatmapSetID:732983

[Difficulty]
HPDrainRate:8
CircleSize:4
OverallDifficulty:6
ApproachRate:5
SliderMultiplier:1.4
SliderTickRate:1

[Events]
//Background and Video events
0,0,"maxresdefault.jpg",0,0
//Break Periods
//Storyboard Layer 0 (Background)
//Storyboard Layer 1 (Fail)
//Storyboard Layer 2 (Pass)
//Storyboard Layer 3 (Foreground)
//Storyboard Sound Samples

[TimingPoints]
905,312.5,4,2,0,100,1,0
62155,-100,4,2,0,100,0,1
84655,-100,4,2,0,100,0,0
128405,-100,4,2,0,100,0,1
137155,-100,4,2,0,100,0,0
138405,-100,4,2,0,100,0,1
157155,-100,4,2,0,100,0,0

[HitObjects]
448,192,905,128,0,3405:0:0:0:0:
64,192,905,128,0,983:0:0:0:0:
64,192,1061,128,0,1217:0:0:0:0:
320,192,1217,128,0,1530:0:0:0:0:
192,192,1373,128,0,1530:0:0:0:0:
64,192,1530,128,0,1842:0:0:0:0:
320,192,1686,128,0,1842:0:0:0:0:
192,192,1842,128,0,2155:0:0:0:0:
64,192,1998,128,0,2155:0:0:0:0:
320,192,2311,128,0,2467:0:0:0:0:
192,192,2467,128,0,2623:0:0:0:0:
64,192,2623,128,0,2780:0:0:0:0:
320,192,2780,128,0,3092:0:0:0:0:
192,192,2936,128,0,3092:0:0:0:0:
64,192,3092,128,0,3248:0:0:0:0:
320,192,3248,128,0,3405:0:0:0:0:
192,192,3405,128,0,5905:0:0:0:0:
64,192,3405,128,0,3483:0:0:0:0:
64,192,3561,128,0,3717:0:0:0:0:
448,192,3717,128,0,4030:0:0:0:0:
320,192,3873,128,0,4030:0:0:0:0:
64,192,4030,128,0,4342:0:0:0:0:
448,192,4186,128,0,4342:0:0:0:0:
320,192,4342,128,0,4655:0:0:0:0:
64,192,4498,128,0,4655:0:0:0:0:
448,192,4811,128,0,4967:0:0:0:0:
64,192,4967,128,0,5123:0:0:0:0:
320,192,5123,128,0,5280:0:0:0:0:
448,192,5280,128,0,5592:0:0:0:0:
320,192,5436,128,0,5592:0:0:0:0:
64,192,5592,128,0,5748:0:0:0:0:
448,192,5748,128,0,5905:0:0:0:0:
320,192,5905,128,0,7155:0:0:0:0:
64,192,5905,128,0,5983:0:0:0:0:
64,192,6061,128,0,6217:0:0:0:0:
192,192,6217,128,0,6530:0:0:0:0:
448,192,6373,128,0,6530:0:0:0:0:
64,192,6530,128,0,6842:0:0:0:0:
448,192,6686,128,0,6842:0:0:0:0:
192,192,6842,128,0,7155:0:0:0:0:
64,192,6998,128,0,7155:0:0:0:0:
448,192,7155,128,0,7780:0:0:0:0:
64,192,7311,128,0,7467:0:0:0:0:
192,192,7467,128,0,7623:0:0:0:0:
64,192,7623,128,0,7780:0:0:0:0:
320,192,7780,128,0,8405:0:0:0:0:
192,192,7936,128,0,8092:0:0:0:0:
64,192,8092,128,0,8248:0:0:0:0:
448,192,8248,128,0,8405:0:0:0:0:
64,192,8405,128,0,10905:0:0:0:0:
192,192,8405,128,0,8483:0:0:0:0:
192,192,8561,128,0,8717:0:0:0:0:
448,192,8717,128,0,9030:0:0:0:0:
320,192,8873,128,0,9030:0:0:0:0:
192,192,9030,128,0,9342:0:0:0:0:
320,192,9186,128,0,9342:0:0:0:0:
448,192,9342,128,0,9655:0:0:0:0:
192,192,9498,128,0,9655:0:0:0:0:
320,192,9811,128,0,10123:0:0:0:0:
192,192,9967,128,0,10123:0:0:0:0:
448,192,10123,128,0,10436:0:0:0:0:
320,192,10280,128,0,10436:0:0:0:0:
192,192,10436,128,0,10514:0:0:0:0:
192,192,10592,128,0,10748:0:0:0:0:
448,192,10748,128,0,10826:0:0:0:0:
448,192,10905,1,0,0:0:0:0:
320,192,10905,128,0,10983:0:0:0:0:
320,192,11061,128,0,11217:0:0:0:0:
192,192,11217,128,0,11530:0:0:0:0:
448,192,11217,1,0,0:0:0:0:
64,192,11373,128,0,11530:0:0:0:0:
320,192,11530,128,0,11842:0:0:0:0:
192,192,11686,128,0,11842:0:0:0:0:
448,192,11842,128,0,12155:0:0:0:0:
64,192,11842,1,0,0:0:0:0:
64,192,11998,128,0,12155:0:0:0:0:
192,192,12311,128,0,12467:0:0:0:0:
320,192,12467,128,0,12780:0:0:0:0:
64,192,12467,1,0,0:0:0:0:
448,192,12623,128,0,12780:0:0:0:0:
192,192,12780,128,0,13092:0:0:0:0:
320,192,12936,128,0,13092:0:0:0:0:
64,192,13092,128,0,13405:0:0:0:0:
448,192,13092,1,0,0:0:0:0:
448,192,13248,128,0,13405:0:0:0:0:
320,192,13405,128,0,13483:0:0:0:0:
320,192,13561,128,0,13717:0:0:0:0:
192,192,13717,128,0,14030:0:0:0:0:
64,192,13717,1,0,0:0:0:0:
448,192,13873,128,0,14030:0:0:0:0:
64,192,14030,128,0,14342:0:0:0:0:
320,192,14186,128,0,14342:0:0:0:0:
448,192,14342,128,0,14655:0:0:0:0:
192,192,14342,1,0,0:0:0:0:
192,192,14498,128,0,14655:0:0:0:0:
448,192,14811,128,0,14967:0:0:0:0:
320,192,14967,128,0,15280:0:0:0:0:
192,192,14967,1,0,0:0:0:0:
64,192,15123,128,0,15280:0:0:0:0:
192,192,15280,128,0,15592:0:0:0:0:
448,192,15436,128,0,15592:0:0:0:0:
320,192,15592,128,0,15905:0:0:0:0:
64,192,15592,1,0,0:0:0:0:
192,192,15748,128,0,15905:0:0:0:0:
448,192,15905,128,0,15983:0:0:0:0:
448,192,16061,128,0,16217:0:0:0:0:
64,192,16217,128,0,16530:0:0:0:0:
192,192,16217,1,0,0:0:0:0:
448,192,16373,128,0,16530:0:0:0:0:
320,192,16530,128,0,16842:0:0:0:0:
192,192,16686,128,0,16842:0:0:0:0:
64,192,16842,128,0,17155:0:0:0:0:
448,192,16842,1,0,0:0:0:0:
320,192,16998,128,0,17155:0:0:0:0:
448,192,17155,128,0,17780:0:0:0:0:
192,192,17311,128,0,17467:0:0:0:0:
320,192,17467,128,0,17780:0:0:0:0:
64,192,17467,1,0,0:0:0:0:
192,192,17623,128,0,17780:0:0:0:0:
64,192,17780,128,0,18405:0:0:0:0:
192,192,17936,128,0,18092:0:0:0:0:
448,192,18092,1,0,0:0:0:0:
320,192,18092,128,0,18405:0:0:0:0:
448,192,18248,128,0,18405:0:0:0:0:
192,192,18405,128,0,18483:0:0:0:0:
192,192,18561,128,0,18717:0:0:0:0:
320,192,18717,128,0,19030:0:0:0:0:
64,192,18717,1,0,0:0:0:0:
192,192,18873,128,0,19030:0:0:0:0:
448,192,19030,128,0,19342:0:0:0:0:
192,192,19186,128,0,19342:0:0:0:0:
320,192,19342,128,0,19655:0:0:0:0:
64,192,19342,1,0,0:0:0:0:
448,192,19498,128,0,19655:0:0:0:0:
64,192,19655,1,0,0:0:0:0:
192,192,19733,1,0,0:0:0:0:
320,192,19811,1,0,0:0:0:0:
448,192,19811,128,0,19889:0:0:0:0:
448,192,19967,128,0,20045:0:0:0:0:
320,192,19967,1,0,0:0:0:0:
192,192,20123,128,0,20201:0:0:0:0:
64,192,20123,1,0,0:0:0:0:
320,192,20280,128,0,20358:0:0:0:0:
192,192,20280,1,0,0:0:0:0:
64,192,20436,128,0,20514:0:0:0:0:
448,192,20436,128,0,20514:0:0:0:0:
64,192,20592,128,0,20670:0:0:0:0:
448,192,20592,128,0,20670:0:0:0:0:
448,192,20748,128,0,20826:0:0:0:0:
64,192,20748,128,0,20826:0:0:0:0:
192,192,20905,128,0,21373:0:0:0:0:
320,192,20905,128,0,21295:0:0:0:0:
320,192,21373,128,0,22155:0:0:0:0:
64,192,21373,128,0,21451:0:0:0:0:
64,192,21530,128,0,21608:0:0:0:0:
64,192,21686,128,0,21764:0:0:0:0:
64,192,21842,128,0,21920:0:0:0:0:
448,192,21998,128,0,22076:0:0:0:0:
64,192,22155,128,0,22623:0:0:0:0:
192,192,22155,128,0,22233:0:0:0:0:
192,192,22311,128,0,22389:0:0:0:0:
192,192,22467,128,0,22545:0:0:0:0:
448,192,22623,128,0,23405:0:0:0:0:
320,192,22623,128,0,22701:0:0:0:0:
64,192,22780,128,0,22858:0:0:0:0:
64,192,22936,128,0,23014:0:0:0:0:
64,192,23092,128,0,23170:0:0:0:0:
64,192,23248,128,0,23326:0:0:0:0:
192,192,23405,128,0,23873:0:0:0:0:
320,192,23405,128,0,23483:0:0:0:0:
320,192,23561,128,0,23639:0:0:0:0:
320,192,23717,128,0,23795:0:0:0:0:
320,192,23873,128,0,24498:0:0:0:0:
64,192,23873,128,0,23951:0:0:0:0:
64,192,24030,128,0,24108:0:0:0:0:
64,192,24186,128,0,24264:0:0:0:0:
64,192,24342,128,0,24420:0:0:0:0:
448,192,24498,1,0,0:0:0:0:
192,192,24576,1,0,0:0:0:0:
320,192,24655,128,0,24967:0:0:0:0:
64,192,24655,128,0,24733:0:0:0:0:
64,192,24811,128,0,24889:0:0:0:0:
192,192,24967,128,0,25280:0:0:0:0:
448,192,24967,128,0,25045:0:0:0:0:
448,192,25123,128,0,25201:0:0:0:0:
64,192,25280,128,0,25905:0:0:0:0:
320,192,25280,128,0,25358:0:0:0:0:
320,192,25436,128,0,25514:0:0:0:0:
320,192,25592,128,0,25670:0:0:0:0:
320,192,25748,128,0,25826:0:0:0:0:
320,192,25905,128,0,26373:0:0:0:0:
192,192,25905,128,0,25983:0:0:0:0:
192,192,26061,128,0,26139:0:0:0:0:
192,192,26217,128,0,26295:0:0:0:0:
448,192,26373,128,0,27155:0:0:0:0:
64,192,26373,128,0,26451:0:0:0:0:
64,192,26530,128,0,26608:0:0:0:0:
320,192,26686,128,0,26764:0:0:0:0:
64,192,26842,128,0,27076:0:0:0:0:
320,192,26842,128,0,26920:0:0:0:0:
192,192,26998,128,0,27076:0:0:0:0:
64,192,27155,128,0,27623:0:0:0:0:
320,192,27155,128,0,27233:0:0:0:0:
320,192,27311,128,0,27389:0:0:0:0:
320,192,27467,128,0,27545:0:0:0:0:
448,192,27623,128,0,28405:0:0:0:0:
192,192,27623,128,0,27701:0:0:0:0:
192,192,27780,128,0,27858:0:0:0:0:
64,192,27936,128,0,28014:0:0:0:0:
192,192,28092,128,0,28326:0:0:0:0:
320,192,28092,128,0,28170:0:0:0:0:
320,192,28248,128,0,28326:0:0:0:0:
192,192,28405,128,0,28873:0:0:0:0:
64,192,28405,128,0,28483:0:0:0:0:
64,192,28561,128,0,28639:0:0:0:0:
64,192,28717,128,0,28795:0:0:0:0:
448,192,28873,128,0,29655:0:0:0:0:
320,192,28873,128,0,28951:0:0:0:0:
320,192,29030,128,0,29108:0:0:0:0:
64,192,29186,128,0,29264:0:0:0:0:
320,192,29342,128,0,29498:0:0:0:0:
64,192,29342,128,0,29420:0:0:0:0:
192,192,29498,128,0,29655:0:0:0:0:
320,192,29655,128,0,29967:0:0:0:0:
64,192,29655,1,0,0:0:0:0:
448,192,29811,128,0,30592:0:0:0:0:
192,192,29811,1,0,0:0:0:0:
192,192,29967,128,0,30592:0:0:0:0:
64,192,29967,1,0,0:0:0:0:
320,192,30123,128,0,30514:0:0:0:0:
64,192,30123,128,0,30514:0:0:0:0:
64,192,30592,128,0,30905:0:0:0:0:
320,192,30592,128,0,30905:0:0:0:0:
192,192,30905,128,0,31373:0:0:0:0:
448,192,30905,128,0,31139:0:0:0:0:
448,192,31217,128,0,31451:0:0:0:0:
320,192,31373,128,0,32155:0:0:0:0:
64,192,31373,128,0,31530:0:0:0:0:
448,192,31530,128,0,31686:0:0:0:0:
64,192,31686,128,0,31842:0:0:0:0:
448,192,31842,128,0,31920:0:0:0:0:
448,192,31998,128,0,32155:0:0:0:0:
192,192,32155,128,0,32623:0:0:0:0:
64,192,32155,128,0,32467:0:0:0:0:
448,192,32311,128,0,32467:0:0:0:0:
320,192,32467,128,0,32623:0:0:0:0:
448,192,32623,128,0,33405:0:0:0:0:
64,192,32623,128,0,32936:0:0:0:0:
192,192,32780,128,0,32936:0:0:0:0:
320,192,32936,128,0,33014:0:0:0:0:
320,192,33092,128,0,33405:0:0:0:0:
64,192,33405,128,0,33873:0:0:0:0:
192,192,33405,128,0,33483:0:0:0:0:
192,192,33561,128,0,33717:0:0:0:0:
448,192,33717,128,0,33951:0:0:0:0:
320,192,33873,128,0,34655:0:0:0:0:
448,192,34030,128,0,34186:0:0:0:0:
64,192,34186,128,0,34342:0:0:0:0:
192,192,34342,128,0,34498:0:0:0:0:
448,192,34498,128,0,34655:0:0:0:0:
192,192,34655,128,0,34967:0:0:0:0:
64,192,34655,128,0,34811:0:0:0:0:
320,192,34967,128,0,35280:0:0:0:0:
448,192,34967,128,0,35123:0:0:0:0:
192,192,35123,128,0,35280:0:0:0:0:
64,192,35280,128,0,35905:0:0:0:0:
448,192,35280,128,0,35358:0:0:0:0:
448,192,35436,128,0,35592:0:0:0:0:
192,192,35592,128,0,35670:0:0:0:0:
192,192,35748,128,0,35905:0:0:0:0:
320,192,35905,128,0,36373:0:0:0:0:
448,192,35905,128,0,35983:0:0:0:0:
448,192,36061,128,0,36217:0:0:0:0:
192,192,36217,128,0,36451:0:0:0:0:
448,192,36373,128,0,37155:0:0:0:0:
64,192,36373,128,0,36530:0:0:0:0:
192,192,36530,128,0,36686:0:0:0:0:
64,192,36686,128,0,36842:0:0:0:0:
320,192,36842,128,0,36998:0:0:0:0:
192,192,36998,128,0,37155:0:0:0:0:
64,192,37155,128,0,37623:0:0:0:0:
320,192,37155,128,0,37233:0:0:0:0:
320,192,37311,128,0,37467:0:0:0:0:
192,192,37467,128,0,37623:0:0:0:0:
448,192,37623,128,0,38405:0:0:0:0:
320,192,37623,128,0,37858:0:0:0:0:
320,192,37936,128,0,38092:0:0:0:0:
192,192,38092,128,0,38248:0:0:0:0:
320,192,38248,128,0,38405:0:0:0:0:
64,192,38405,128,0,38873:0:0:0:0:
192,192,38405,128,0,38483:0:0:0:0:
192,192,38561,128,0,38717:0:0:0:0:
320,192,38717,128,0,38951:0:0:0:0:
448,192,38873,128,0,39655:0:0:0:0:
192,192,38873,128,0,39030:0:0:0:0:
320,192,39030,128,0,39186:0:0:0:0:
192,192,39186,128,0,39342:0:0:0:0:
320,192,39342,128,0,39498:0:0:0:0:
64,192,39498,128,0,39655:0:0:0:0:
192,192,39655,128,0,39967:0:0:0:0:
320,192,39655,1,0,0:0:0:0:
320,192,39811,128,0,40123:0:0:0:0:
448,192,39811,1,0,0:0:0:0:
448,192,39967,128,0,40280:0:0:0:0:
64,192,39967,1,0,0:0:0:0:
64,192,40123,128,0,40436:0:0:0:0:
192,192,40123,1,0,0:0:0:0:
192,192,40280,128,0,40436:0:0:0:0:
320,192,40280,1,0,0:0:0:0:
320,192,40436,128,0,40905:0:0:0:0:
448,192,40436,128,0,40905:0:0:0:0:
64,192,40592,1,0,0:0:0:0:
192,192,40592,1,0,0:0:0:0:
64,192,40748,128,0,40826:0:0:0:0:
192,192,40748,128,0,40826:0:0:0:0:
64,192,40905,128,0,41530:0:0:0:0:
192,192,40905,128,0,41530:0:0:0:0:
320,192,41217,1,0,0:0:0:0:
448,192,41373,128,0,42155:0:0:0:0:
320,192,41373,128,0,41842:0:0:0:0:
192,192,41686,1,0,0:0:0:0:
64,192,41842,128,0,42155:0:0:0:0:
192,192,42155,128,0,42467:0:0:0:0:
320,192,42155,128,0,42623:0:0:0:0:
448,192,42467,128,0,42623:0:0:0:0:
192,192,42623,128,0,43092:0:0:0:0:
64,192,42623,128,0,43405:0:0:0:0:
320,192,42936,1,0,0:0:0:0:
448,192,43092,128,0,43405:0:0:0:0:
320,192,43405,128,0,43873:0:0:0:0:
192,192,43405,128,0,44655:0:0:0:0:
64,192,43717,128,0,43873:0:0:0:0:
448,192,43873,128,0,44655:0:0:0:0:
320,192,44186,1,0,0:0:0:0:
64,192,44342,128,0,44655:0:0:0:0:
320,192,44655,128,0,45123:0:0:0:0:
192,192,44811,128,0,44967:0:0:0:0:
64,192,44967,128,0,45123:0:0:0:0:
192,192,45123,128,0,45905:0:0:0:0:
448,192,45123,128,0,45436:0:0:0:0:
320,192,45280,128,0,45436:0:0:0:0:
64,192,45436,128,0,45748:0:0:0:0:
320,192,45592,128,0,45748:0:0:0:0:
448,192,45748,128,0,45905:0:0:0:0:
64,192,45905,128,0,46373:0:0:0:0:
320,192,45905,128,0,46217:0:0:0:0:
192,192,46217,128,0,46373:0:0:0:0:
448,192,46373,128,0,47155:0:0:0:0:
320,192,46373,128,0,46842:0:0:0:0:
64,192,46686,1,0,0:0:0:0:
192,192,46842,128,0,47155:0:0:0:0:
64,192,47155,128,0,47780:0:0:0:0:
320,192,47155,128,0,47623:0:0:0:0:
192,192,47467,128,0,47623:0:0:0:0:
448,192,47623,128,0,47780:0:0:0:0:
192,192,47780,128,0,48092:0:0:0:0:
320,192,47936,128,0,48092:0:0:0:0:
448,192,48092,128,0,48405:0:0:0:0:
192,192,48248,128,0,48405:0:0:0:0:
64,192,48405,1,0,0:0:0:0:
320,192,48405,1,0,0:0:0:0:
448,192,48483,1,0,0:0:0:0:
192,192,48561,1,0,0:0:0:0:
320,192,48639,1,0,0:0:0:0:
64,192,48717,1,0,0:0:0:0:
192,192,48795,1,0,0:0:0:0:
320,192,48873,1,0,0:0:0:0:
448,192,48873,1,0,0:0:0:0:
192,192,48951,1,0,0:0:0:0:
64,192,49030,1,0,0:0:0:0:
320,192,49108,1,0,0:0:0:0:
192,192,49186,1,0,0:0:0:0:
64,192,49264,1,0,0:0:0:0:
448,192,49342,1,0,0:0:0:0:
320,192,49342,1,0,0:0:0:0:
192,192,49420,1,0,0:0:0:0:
320,192,49498,1,0,0:0:0:0:
64,192,49576,1,0,0:0:0:0:
448,192,49655,1,0,0:0:0:0:
320,192,49733,1,0,0:0:0:0:
192,192,49811,1,0,0:0:0:0:
448,192,49811,1,0,0:0:0:0:
64,192,49889,1,0,0:0:0:0:
320,192,49967,1,0,0:0:0:0:
448,192,50045,1,0,0:0:0:0:
192,192,50123,1,0,0:0:0:0:
64,192,50201,1,0,0:0:0:0:
320,192,50280,1,0,0:0:0:0:
448,192,50280,1,0,0:0:0:0:
192,192,50358,1,0,0:0:0:0:
64,192,50436,1,0,0:0:0:0:
448,192,50514,1,0,0:0:0:0:
320,192,50592,1,0,0:0:0:0:
192,192,50592,1,0,0:0:0:0:
64,192,50670,1,0,0:0:0:0:
448,192,50748,128,0,50905:0:0:0:0:
192,192,50826,128,0,50905:0:0:0:0:
64,192,50905,128,0,51530:0:0:0:0:
320,192,50905,128,0,52155:0:0:0:0:
448,192,51217,1,0,0:0:0:0:
192,192,51530,128,0,51764:0:0:0:0:
448,192,51764,128,0,51998:0:0:0:0:
192,192,51998,128,0,52155:0:0:0:0:
64,192,52155,128,0,52780:0:0:0:0:
448,192,52155,128,0,53405:0:0:0:0:
192,192,52467,1,0,0:0:0:0:
320,192,52780,128,0,53014:0:0:0:0:
192,192,53014,128,0,53248:0:0:0:0:
320,192,53248,128,0,53405:0:0:0:0:
64,192,53405,128,0,53717:0:0:0:0:
192,192,53405,128,0,53639:0:0:0:0:
448,192,53717,128,0,54030:0:0:0:0:
192,192,53717,128,0,54030:0:0:0:0:
320,192,54030,128,0,54342:0:0:0:0:
64,192,54030,128,0,54342:0:0:0:0:
192,192,54342,128,0,54655:0:0:0:0:
448,192,54342,128,0,54655:0:0:0:0:
64,192,54655,128,0,55905:0:0:0:0:
320,192,54655,128,0,55905:0:0:0:0:
448,192,54967,1,0,0:0:0:0:
448,192,55280,1,0,0:0:0:0:
192,192,55592,1,0,0:0:0:0:
192,192,55905,128,0,56530:0:0:0:0:
448,192,55905,128,0,57076:0:0:0:0:
320,192,56217,1,0,0:0:0:0:
64,192,56530,128,0,56764:0:0:0:0:
192,192,56764,128,0,56998:0:0:0:0:
320,192,56998,128,0,57155:0:0:0:0:
448,192,57155,128,0,57780:0:0:0:0:
64,192,57155,128,0,58405:0:0:0:0:
192,192,57467,1,0,0:0:0:0:
192,192,57780,128,0,58014:0:0:0:0:
320,192,58014,128,0,58248:0:0:0:0:
448,192,58248,128,0,58326:0:0:0:0:
448,192,58405,128,0,58717:0:0:0:0:
320,192,58405,128,0,58717:0:0:0:0:
192,192,58717,128,0,59030:0:0:0:0:
64,192,58717,128,0,58951:0:0:0:0:
320,192,59030,128,0,59342:0:0:0:0:
64,192,59030,128,0,59342:0:0:0:0:
192,192,59342,128,0,59655:0:0:0:0:
448,192,59342,128,0,59576:0:0:0:0:
448,192,59655,128,0,60592:0:0:0:0:
64,192,59733,1,0,0:0:0:0:
320,192,59811,1,0,0:0:0:0:
64,192,59967,1,0,0:0:0:0:
64,192,60123,1,0,0:0:0:0:
320,192,60280,1,0,0:0:0:0:
320,192,60436,1,0,0:0:0:0:
64,192,60592,128,0,60748:0:0:0:0:
192,192,60748,128,0,60905:0:0:0:0:
448,192,60905,128,0,61139:0:0:0:0:
320,192,60905,1,0,0:0:0:0:
64,192,61061,128,0,61217:0:0:0:0:
192,192,61061,1,0,0:0:0:0:
448,192,61217,128,0,61530:0:0:0:0:
320,192,61217,1,0,0:0:0:0:
192,192,61373,128,0,61530:0:0:0:0:
64,192,61373,1,0,0:0:0:0:
320,192,61530,128,0,61842:0:0:0:0:
64,192,61530,1,0,0:0:0:0:
192,192,61686,128,0,61842:0:0:0:0:
448,192,61686,1,0,0:0:0:0:
448,192,61842,128,0,62155:0:0:0:0:
64,192,61842,1,0,0:0:0:0:
64,192,61998,128,0,62155:0:0:0:0:
192,192,62155,128,0,62467:0:0:0:0:
320,192,62155,128,0,62389:0:0:0:0:
448,192,62389,128,0,62701:0:0:0:0:
320,192,62623,128,0,62858:0:0:0:0:
192,192,62780,128,0,63092:0:0:0:0:
64,192,62780,128,0,62858:0:0:0:0:
448,192,63014,128,0,63326:0:0:0:0:
64,192,63014,128,0,63248:0:0:0:0:
320,192,63248,128,0,63561:0:0:0:0:
192,192,63405,128,0,63717:0:0:0:0:
64,192,63405,128,0,63639:0:0:0:0:
448,192,63639,128,0,63951:0:0:0:0:
192,192,63873,128,0,64108:0:0:0:0:
320,192,64030,128,0,64342:0:0:0:0:
64,192,64030,128,0,64108:0:0:0:0:
192,192,64264,128,0,64576:0:0:0:0:
448,192,64264,128,0,64498:0:0:0:0:
64,192,64498,128,0,64733:0:0:0:0:
448,192,64655,128,0,64967:0:0:0:0:
320,192,64655,128,0,64889:0:0:0:0:
192,192,64889,128,0,65201:0:0:0:0:
320,192,65123,128,0,65358:0:0:0:0:
64,192,65280,128,0,65592:0:0:0:0:
448,192,65280,128,0,65358:0:0:0:0:
192,192,65514,128,0,65826:0:0:0:0:
320,192,65514,128,0,65748:0:0:0:0:
448,192,65748,128,0,67155:0:0:0:0:
64,192,65748,128,0,65905:0:0:0:0:
320,192,65905,128,0,67155:0:0:0:0:
192,192,65905,128,0,67076:0:0:0:0:
64,192,66373,1,0,0:0:0:0:
64,192,66686,1,0,0:0:0:0:
64,192,67155,128,0,67467:0:0:0:0:
192,192,67155,128,0,67389:0:0:0:0:
320,192,67389,128,0,67701:0:0:0:0:
448,192,67623,128,0,67858:0:0:0:0:
192,192,67780,128,0,68092:0:0:0:0:
64,192,67780,128,0,67858:0:0:0:0:
64,192,68014,128,0,68326:0:0:0:0:
320,192,68014,128,0,68248:0:0:0:0:
448,192,68248,128,0,68483:0:0:0:0:
192,192,68405,128,0,68717:0:0:0:0:
320,192,68405,128,0,68639:0:0:0:0:
64,192,68639,128,0,68951:0:0:0:0:
448,192,68873,128,0,69108:0:0:0:0:
192,192,69030,128,0,69342:0:0:0:0:
320,192,69030,128,0,69108:0:0:0:0:
64,192,69264,128,0,69576:0:0:0:0:
448,192,69264,128,0,69498:0:0:0:0:
320,192,69498,128,0,69733:0:0:0:0:
448,192,69655,128,0,69967:0:0:0:0:
192,192,69655,128,0,69889:0:0:0:0:
64,192,69889,128,0,70201:0:0:0:0:
320,192,70123,128,0,70358:0:0:0:0:
448,192,70280,128,0,70592:0:0:0:0:
192,192,70280,128,0,70358:0:0:0:0:
64,192,70514,128,0,70826:0:0:0:0:
320,192,70514,128,0,70748:0:0:0:0:
192,192,70748,128,0,72155:0:0:0:0:
448,192,70905,128,0,72076:0:0:0:0:
64,192,70905,128,0,72155:0:0:0:0:
320,192,71373,1,0,0:0:0:0:
320,192,71686,1,0,0:0:0:0:
320,192,72155,128,0,72389:0:0:0:0:
448,192,72155,128,0,72467:0:0:0:0:
192,192,72389,128,0,72701:0:0:0:0:
320,192,72623,128,0,72858:0:0:0:0:
64,192,72780,128,0,73092:0:0:0:0:
448,192,72780,128,0,72858:0:0:0:0:
192,192,73014,128,0,73326:0:0:0:0:
448,192,73014,128,0,73248:0:0:0:0:
320,192,73248,128,0,73483:0:0:0:0:
448,192,73405,128,0,73717:0:0:0:0:
64,192,73405,128,0,73639:0:0:0:0:
192,192,73639,128,0,73951:0:0:0:0:
320,192,73873,128,0,74108:0:0:0:0:
64,192,74030,128,0,74342:0:0:0:0:
448,192,74030,128,0,74108:0:0:0:0:
192,192,74264,128,0,74576:0:0:0:0:
320,192,74264,128,0,74498:0:0:0:0:
448,192,74498,128,0,74733:0:0:0:0:
320,192,74655,128,0,74967:0:0:0:0:
64,192,74655,128,0,74889:0:0:0:0:
192,192,74889,128,0,75201:0:0:0:0:
448,192,75123,128,0,75358:0:0:0:0:
320,192,75280,128,0,75592:0:0:0:0:
64,192,75280,128,0,75358:0:0:0:0:
64,192,75514,128,0,75748:0:0:0:0:
448,192,75514,128,0,75826:0:0:0:0:
192,192,75748,128,0,77076:0:0:0:0:
64,192,75905,128,0,77155:0:0:0:0:
448,192,75905,128,0,77155:0:0:0:0:
320,192,76373,1,0,0:0:0:0:
320,192,76686,1,0,0:0:0:0:
192,192,77155,128,0,77467:0:0:0:0:
320,192,77155,128,0,77389:0:0:0:0:
448,192,77389,128,0,77701:0:0:0:0:
320,192,77623,128,0,77858:0:0:0:0:
64,192,77780,128,0,78092:0:0:0:0:
192,192,77780,128,0,77858:0:0:0:0:
448,192,78014,128,0,78326:0:0:0:0:
320,192,78014,128,0,78248:0:0:0:0:
64,192,78248,128,0,78483:0:0:0:0:
320,192,78405,128,0,78717:0:0:0:0:
192,192,78405,128,0,78639:0:0:0:0:
448,192,78639,128,0,78951:0:0:0:0:
192,192,78873,128,0,79108:0:0:0:0:
64,192,79030,128,0,79342:0:0:0:0:
320,192,79030,128,0,79108:0:0:0:0:
192,192,79264,128,0,79576:0:0:0:0:
448,192,79264,128,0,79498:0:0:0:0:
320,192,79498,128,0,79733:0:0:0:0:
448,192,79655,128,0,79967:0:0:0:0:
64,192,79655,128,0,79889:0:0:0:0:
192,192,79889,128,0,80201:0:0:0:0:
320,192,80123,128,0,80358:0:0:0:0:
64,192,80280,128,0,80592:0:0:0:0:
448,192,80280,128,0,80358:0:0:0:0:
192,192,80514,128,0,80826:0:0:0:0:
448,192,80514,128,0,80748:0:0:0:0:
64,192,80748,128,0,80905:0:0:0:0:
448,192,80905,128,0,82155:0:0:0:0:
320,192,80905,128,0,82155:0:0:0:0:
64,192,81061,1,0,0:0:0:0:
192,192,81061,1,0,0:0:0:0:
64,192,81373,1,0,0:0:0:0:
64,192,81530,1,0,0:0:0:0:
192,192,81842,1,0,0:0:0:0:
64,192,81842,1,0,0:0:0:0:
64,192,82155,128,0,83405:0:0:0:0:
192,192,82155,128,0,83405:0:0:0:0:
320,192,83405,1,0,0:0:0:0:
448,192,83405,1,0,0:0:0:0:
320,192,83561,1,0,0:0:0:0:
64,192,83717,1,0,0:0:0:0:
320,192,83873,1,0,0:0:0:0:
448,192,83873,1,0,0:0:0:0:
320,192,84030,1,0,0:0:0:0:
64,192,84186,1,0,0:0:0:0:
192,192,84342,1,0,0:0:0:0:
448,192,84342,1,0,0:0:0:0:
320,192,84498,128,0,84655:0:0:0:0:
192,192,84576,128,0,84655:0:0:0:0:
64,192,84655,1,0,0:0:0:0:
192,192,84811,128,0,84967:0:0:0:0:
320,192,84889,128,0,84967:0:0:0:0:
448,192,84967,1,0,0:0:0:0:
64,192,85123,128,0,85280:0:0:0:0:
192,192,85201,128,0,85280:0:0:0:0:
448,192,85280,128,0,85358:0:0:0:0:
448,192,85436,128,0,85592:0:0:0:0:
320,192,85592,128,0,85905:0:0:0:0:
192,192,85748,128,0,85905:0:0:0:0:
64,192,85905,128,0,86373:0:0:0:0:
448,192,85905,128,0,86373:0:0:0:0:
192,192,86373,128,0,86608:0:0:0:0:
320,192,86530,128,0,86842:0:0:0:0:
192,192,86686,128,0,86842:0:0:0:0:
64,192,86842,128,0,87155:0:0:0:0:
448,192,86998,128,0,87155:0:0:0:0:
320,192,87155,128,0,87623:0:0:0:0:
192,192,87155,128,0,87545:0:0:0:0:
192,192,87623,128,0,88092:0:0:0:0:
448,192,87623,128,0,88092:0:0:0:0:
320,192,88092,128,0,88405:0:0:0:0:
64,192,88092,128,0,88405:0:0:0:0:
448,192,88405,128,0,89342:0:0:0:0:
192,192,88405,128,0,89108:0:0:0:0:
192,192,89186,128,0,89342:0:0:0:0:
320,192,89264,128,0,89342:0:0:0:0:
64,192,89342,128,0,89655:0:0:0:0:
448,192,89498,128,0,89655:0:0:0:0:
320,192,89576,128,0,89655:0:0:0:0:
192,192,89655,1,0,0:0:0:0:
320,192,89811,128,0,89967:0:0:0:0:
448,192,89889,128,0,89967:0:0:0:0:
64,192,89967,1,0,0:0:0:0:
64,192,90123,128,0,90436:0:0:0:0:
192,192,90123,128,0,90436:0:0:0:0:
320,192,90436,128,0,90592:0:0:0:0:
448,192,90514,128,0,90592:0:0:0:0:
64,192,90592,1,0,0:0:0:0:
64,192,90748,128,0,91217:0:0:0:0:
192,192,90748,128,0,91061:0:0:0:0:
320,192,91061,128,0,91217:0:0:0:0:
448,192,91139,128,0,91217:0:0:0:0:
192,192,91217,128,0,91530:0:0:0:0:
64,192,91373,128,0,91530:0:0:0:0:
320,192,91530,128,0,91842:0:0:0:0:
192,192,91686,128,0,91842:0:0:0:0:
64,192,91842,128,0,92155:0:0:0:0:
320,192,91998,128,0,92155:0:0:0:0:
448,192,92155,128,0,92311:0:0:0:0:
192,192,92155,128,0,92311:0:0:0:0:
320,192,92311,128,0,92467:0:0:0:0:
192,192,92389,128,0,92467:0:0:0:0:
64,192,92467,128,0,92623:0:0:0:0:
192,192,92623,128,0,92780:0:0:0:0:
320,192,92780,128,0,92858:0:0:0:0:
320,192,92936,128,0,93092:0:0:0:0:
192,192,93092,128,0,93248:0:0:0:0:
448,192,93248,128,0,93873:0:0:0:0:
320,192,93248,128,0,93873:0:0:0:0:
192,192,93873,128,0,94030:0:0:0:0:
320,192,93951,128,0,94030:0:0:0:0:
64,192,94030,128,0,94655:0:0:0:0:
448,192,94030,128,0,94264:0:0:0:0:
448,192,94342,128,0,94498:0:0:0:0:
192,192,94498,128,0,94655:0:0:0:0:
320,192,94576,128,0,94655:0:0:0:0:
448,192,94655,128,0,95436:0:0:0:0:
64,192,94811,1,0,0:0:0:0:
320,192,94967,1,0,0:0:0:0:
64,192,95123,1,0,0:0:0:0:
64,192,95280,1,0,0:0:0:0:
320,192,95436,128,0,95592:0:0:0:0:
192,192,95592,128,0,95748:0:0:0:0:
320,192,95748,128,0,95905:0:0:0:0:
448,192,95905,128,0,96373:0:0:0:0:
64,192,95905,1,0,0:0:0:0:
320,192,96061,1,0,0:0:0:0:
320,192,96217,1,0,0:0:0:0:
192,192,96373,128,0,96608:0:0:0:0:
64,192,96373,1,0,0:0:0:0:
320,192,96530,128,0,96842:0:0:0:0:
192,192,96686,128,0,96842:0:0:0:0:
64,192,96842,128,0,97155:0:0:0:0:
448,192,96998,128,0,97155:0:0:0:0:
320,192,97155,128,0,97623:0:0:0:0:
192,192,97155,128,0,97545:0:0:0:0:
448,192,97311,1,0,0:0:0:0:
64,192,97467,1,0,0:0:0:0:
192,192,97623,128,0,98092:0:0:0:0:
448,192,97623,128,0,98092:0:0:0:0:
320,192,97780,1,0,0:0:0:0:
64,192,97936,1,0,0:0:0:0:
320,192,98092,128,0,98405:0:0:0:0:
192,192,98248,128,0,98405:0:0:0:0:
64,192,98405,128,0,99655:0:0:0:0:
448,192,98405,128,0,99655:0:0:0:0:
320,192,98561,1,0,0:0:0:0:
192,192,98717,1,0,0:0:0:0:
192,192,98873,1,0,0:0:0:0:
320,192,99030,1,0,0:0:0:0:
192,192,99186,1,0,0:0:0:0:
320,192,99342,1,0,0:0:0:0:
192,192,99498,1,0,0:0:0:0:
320,192,99655,128,0,99811:0:0:0:0:
192,192,99733,128,0,99889:0:0:0:0:
64,192,99811,128,0,99967:0:0:0:0:
448,192,99889,1,0,0:0:0:0:
320,192,99967,128,0,100123:0:0:0:0:
448,192,100045,128,0,100201:0:0:0:0:
192,192,100123,128,0,100280:0:0:0:0:
320,192,100201,1,0,0:0:0:0:
64,192,100280,128,0,100514:0:0:0:0:
320,192,100358,128,0,100514:0:0:0:0:
448,192,100436,128,0,100514:0:0:0:0:
192,192,100514,1,0,0:0:0:0:
320,192,100592,128,0,100748:0:0:0:0:
192,192,100670,128,0,100748:0:0:0:0:
448,192,100748,128,0,100905:0:0:0:0:
64,192,100826,128,0,100905:0:0:0:0:
192,192,100905,128,0,101061:0:0:0:0:
320,192,100983,1,0,0:0:0:0:
448,192,101061,128,0,101217:0:0:0:0:
320,192,101139,128,0,101295:0:0:0:0:
192,192,101217,128,0,101295:0:0:0:0:
64,192,101295,128,0,101451:0:0:0:0:
448,192,101373,128,0,101451:0:0:0:0:
320,192,101451,128,0,101608:0:0:0:0:
192,192,101530,128,0,101686:0:0:0:0:
448,192,101608,128,0,101764:0:0:0:0:
320,192,101686,128,0,101764:0:0:0:0:
64,192,101764,128,0,101920:0:0:0:0:
192,192,101842,128,0,101920:0:0:0:0:
448,192,101920,128,0,102076:0:0:0:0:
320,192,101998,128,0,102076:0:0:0:0:
192,192,102076,128,0,102155:0:0:0:0:
448,192,102155,128,0,104655:0:0:0:0:
64,192,102155,1,0,0:0:0:0:
64,192,102311,1,0,0:0:0:0:
192,192,102623,1,0,0:0:0:0:
192,192,102780,1,0,0:0:0:0:
320,192,102780,1,0,0:0:0:0:
192,192,103092,1,0,0:0:0:0:
64,192,103092,1,0,0:0:0:0:
64,192,103248,1,0,0:0:0:0:
192,192,103561,1,0,0:0:0:0:
192,192,103717,1,0,0:0:0:0:
320,192,103717,1,0,0:0:0:0:
320,192,104030,1,0,0:0:0:0:
64,192,104030,1,0,0:0:0:0:
64,192,104342,1,0,0:0:0:0:
320,192,104342,1,0,0:0:0:0:
192,192,104498,1,0,0:0:0:0:
320,192,104576,1,0,0:0:0:0:
64,192,104655,128,0,105280:0:0:0:0:
192,192,104655,128,0,104967:0:0:0:0:
448,192,104967,1,0,0:0:0:0:
192,192,105280,128,0,105514:0:0:0:0:
320,192,105514,128,0,105748:0:0:0:0:
448,192,105748,128,0,105826:0:0:0:0:
448,192,105905,128,0,106530:0:0:0:0:
192,192,105905,128,0,106217:0:0:0:0:
64,192,106217,1,0,0:0:0:0:
320,192,106530,128,0,106764:0:0:0:0:
192,192,106764,128,0,106998:0:0:0:0:
64,192,106998,128,0,107076:0:0:0:0:
64,192,107155,128,0,107467:0:0:0:0:
320,192,107155,128,0,107467:0:0:0:0:
448,192,107467,128,0,107780:0:0:0:0:
192,192,107467,128,0,107780:0:0:0:0:
320,192,107780,128,0,108092:0:0:0:0:
64,192,107780,128,0,108092:0:0:0:0:
192,192,108092,128,0,108405:0:0:0:0:
448,192,108092,128,0,108405:0:0:0:0:
64,192,108405,128,0,109655:0:0:0:0:
320,192,108405,128,0,108717:0:0:0:0:
448,192,108717,1,0,0:0:0:0:
192,192,109030,1,0,0:0:0:0:
320,192,109342,1,0,0:0:0:0:
192,192,109655,128,0,110280:0:0:0:0:
320,192,109655,128,0,109967:0:0:0:0:
448,192,109967,1,0,0:0:0:0:
64,192,110280,128,0,110514:0:0:0:0:
320,192,110514,128,0,110748:0:0:0:0:
448,192,110748,128,0,110826:0:0:0:0:
448,192,110905,128,0,111530:0:0:0:0:
64,192,110905,128,0,111217:0:0:0:0:
192,192,111217,1,0,0:0:0:0:
320,192,111530,128,0,111764:0:0:0:0:
192,192,111764,128,0,111998:0:0:0:0:
448,192,111998,128,0,112076:0:0:0:0:
448,192,112155,128,0,112467:0:0:0:0:
320,192,112155,128,0,112467:0:0:0:0:
64,192,112467,128,0,112780:0:0:0:0:
192,192,112467,128,0,112780:0:0:0:0:
320,192,112780,128,0,113092:0:0:0:0:
448,192,112780,128,0,113014:0:0:0:0:
448,192,113092,128,0,113405:0:0:0:0:
64,192,113092,128,0,113405:0:0:0:0:
192,192,113405,128,0,114342:0:0:0:0:
320,192,113405,1,0,0:0:0:0:
448,192,113561,1,0,0:0:0:0:
320,192,113717,1,0,0:0:0:0:
448,192,113873,1,0,0:0:0:0:
64,192,114030,1,0,0:0:0:0:
448,192,114186,1,0,0:0:0:0:
448,192,114342,128,0,114498:0:0:0:0:
64,192,114342,1,0,0:0:0:0:
320,192,114498,128,0,114655:0:0:0:0:
64,192,114498,1,0,0:0:0:0:
448,192,114655,128,0,115280:0:0:0:0:
192,192,114655,128,0,114967:0:0:0:0:
320,192,114811,128,0,114967:0:0:0:0:
64,192,114967,128,0,115280:0:0:0:0:
192,192,115123,128,0,115280:0:0:0:0:
320,192,115280,128,0,115905:0:0:0:0:
448,192,115436,128,0,115748:0:0:0:0:
192,192,115592,128,0,115748:0:0:0:0:
64,192,115748,128,0,115905:0:0:0:0:
448,192,115905,1,0,0:0:0:0:
192,192,115983,1,0,0:0:0:0:
64,192,116061,1,0,0:0:0:0:
320,192,116139,1,0,0:0:0:0:
192,192,116217,1,0,0:0:0:0:
64,192,116295,1,0,0:0:0:0:
320,192,116373,1,0,0:0:0:0:
448,192,116373,1,0,0:0:0:0:
192,192,116451,1,0,0:0:0:0:
320,192,116530,1,0,0:0:0:0:
192,192,116608,1,0,0:0:0:0:
64,192,116686,1,0,0:0:0:0:
320,192,116764,1,0,0:0:0:0:
448,192,116842,1,0,0:0:0:0:
192,192,116842,1,0,0:0:0:0:
64,192,116920,1,0,0:0:0:0:
448,192,116998,1,0,0:0:0:0:
64,192,117076,1,0,0:0:0:0:
192,192,117155,1,0,0:0:0:0:
448,192,117233,1,0,0:0:0:0:
192,192,117311,1,0,0:0:0:0:
64,192,117311,1,0,0:0:0:0:
320,192,117389,1,0,0:0:0:0:
192,192,117467,1,0,0:0:0:0:
320,192,117545,1,0,0:0:0:0:
64,192,117623,1,0,0:0:0:0:
192,192,117701,1,0,0:0:0:0:
320,192,117780,1,0,0:0:0:0:
448,192,117780,1,0,0:0:0:0:
64,192,117858,1,0,0:0:0:0:
448,192,117936,1,0,0:0:0:0:
192,192,118014,1,0,0:0:0:0:
448,192,118092,1,0,0:0:0:0:
64,192,118092,1,0,0:0:0:0:
192,192,118170,1,0,0:0:0:0:
320,192,118248,1,0,0:0:0:0:
64,192,118326,1,0,0:0:0:0:
320,192,118405,128,0,118561:0:0:0:0:
448,192,118405,128,0,118639:0:0:0:0:
192,192,118405,1,0,0:0:0:0:
192,192,118639,128,0,118873:0:0:0:0:
64,192,118873,128,0,119030:0:0:0:0:
320,192,119030,128,0,119264:0:0:0:0:
448,192,119030,128,0,119264:0:0:0:0:
192,192,119264,128,0,119498:0:0:0:0:
64,192,119264,128,0,119498:0:0:0:0:
448,192,119498,128,0,119655:0:0:0:0:
320,192,119655,128,0,119889:0:0:0:0:
192,192,119655,1,0,0:0:0:0:
64,192,119655,128,0,119811:0:0:0:0:
448,192,119889,128,0,120123:0:0:0:0:
64,192,120123,128,0,120280:0:0:0:0:
192,192,120280,128,0,120514:0:0:0:0:
320,192,120280,128,0,120514:0:0:0:0:
64,192,120514,128,0,120748:0:0:0:0:
448,192,120514,128,0,120748:0:0:0:0:
320,192,120748,128,0,120905:0:0:0:0:
192,192,120905,128,0,121139:0:0:0:0:
448,192,120905,128,0,121061:0:0:0:0:
64,192,120905,1,0,0:0:0:0:
320,192,121139,128,0,121373:0:0:0:0:
192,192,121373,128,0,121530:0:0:0:0:
320,192,121530,128,0,121764:0:0:0:0:
448,192,121530,128,0,121764:0:0:0:0:
64,192,121764,128,0,121998:0:0:0:0:
192,192,121764,128,0,121998:0:0:0:0:
448,192,121998,128,0,122155:0:0:0:0:
320,192,122155,128,0,122701:0:0:0:0:
64,192,122155,128,0,122701:0:0:0:0:
448,192,122780,128,0,123326:0:0:0:0:
192,192,122780,128,0,123326:0:0:0:0:
64,192,123405,128,0,124576:0:0:0:0:
448,192,123405,128,0,124576:0:0:0:0:
320,192,123639,1,0,0:0:0:0:
192,192,123873,1,0,0:0:0:0:
320,192,124030,1,0,0:0:0:0:
192,192,124264,1,0,0:0:0:0:
320,192,124498,1,0,0:0:0:0:
192,192,124655,128,0,125826:0:0:0:0:
320,192,124655,128,0,125826:0:0:0:0:
448,192,124889,1,0,0:0:0:0:
64,192,125123,1,0,0:0:0:0:
448,192,125280,1,0,0:0:0:0:
64,192,125514,1,0,0:0:0:0:
64,192,125748,1,0,0:0:0:0:
320,192,125905,128,0,127076:0:0:0:0:
448,192,125905,128,0,127076:0:0:0:0:
192,192,126139,1,0,0:0:0:0:
64,192,126373,1,0,0:0:0:0:
192,192,126530,1,0,0:0:0:0:
192,192,126764,1,0,0:0:0:0:
64,192,126998,1,0,0:0:0:0:
320,192,127155,1,0,0:0:0:0:
448,192,127155,128,0,128405:0:0:0:0:
320,192,127311,1,0,0:0:0:0:
192,192,127467,1,0,0:0:0:0:
64,192,127623,1,0,0:0:0:0:
192,192,127623,1,0,0:0:0:0:
320,192,127780,1,0,0:0:0:0:
320,192,127936,1,0,0:0:0:0:
64,192,128092,1,0,0:0:0:0:
192,192,128092,1,0,0:0:0:0:
192,192,128405,128,0,128717:0:0:0:0:
320,192,128405,128,0,128639:0:0:0:0:
448,192,128639,128,0,128951:0:0:0:0:
320,192,128873,128,0,129108:0:0:0:0:
192,192,129030,128,0,129342:0:0:0:0:
64,192,129030,128,0,129108:0:0:0:0:
64,192,129264,128,0,129576:0:0:0:0:
448,192,129264,128,0,129498:0:0:0:0:
320,192,129498,128,0,129733:0:0:0:0:
192,192,129655,128,0,129967:0:0:0:0:
448,192,129655,128,0,129889:0:0:0:0:
64,192,129889,128,0,130201:0:0:0:0:
192,192,130123,128,0,130358:0:0:0:0:
320,192,130280,128,0,130592:0:0:0:0:
448,192,130280,128,0,130358:0:0:0:0:
64,192,130514,128,0,130826:0:0:0:0:
448,192,130514,128,0,130748:0:0:0:0:
192,192,130748,128,0,130983:0:0:0:0:
448,192,130905,128,0,131217:0:0:0:0:
320,192,130905,128,0,131139:0:0:0:0:
192,192,131139,128,0,131451:0:0:0:0:
320,192,131373,128,0,131608:0:0:0:0:
64,192,131530,128,0,131842:0:0:0:0:
448,192,131530,128,0,131608:0:0:0:0:
192,192,131764,128,0,132076:0:0:0:0:
320,192,131764,128,0,131998:0:0:0:0:
448,192,131998,128,0,133405:0:0:0:0:
64,192,131998,128,0,132155:0:0:0:0:
320,192,132155,128,0,133405:0:0:0:0:
192,192,132155,128,0,133326:0:0:0:0:
64,192,132623,1,0,0:0:0:0:
64,192,132936,1,0,0:0:0:0:
64,192,133405,128,0,133717:0:0:0:0:
192,192,133405,128,0,133639:0:0:0:0:
448,192,133639,128,0,133951:0:0:0:0:
320,192,133873,128,0,134108:0:0:0:0:
64,192,134030,128,0,134108:0:0:0:0:
192,192,134030,128,0,134342:0:0:0:0:
448,192,134264,128,0,134498:0:0:0:0:
320,192,134264,128,0,134576:0:0:0:0:
64,192,134498,128,0,134733:0:0:0:0:
448,192,134655,128,0,134967:0:0:0:0:
192,192,134655,128,0,134889:0:0:0:0:
320,192,134889,128,0,135201:0:0:0:0:
192,192,135123,128,0,135358:0:0:0:0:
64,192,135280,128,0,135592:0:0:0:0:
448,192,135280,128,0,135358:0:0:0:0:
320,192,135514,128,0,135826:0:0:0:0:
192,192,135514,128,0,135748:0:0:0:0:
448,192,135748,128,0,135983:0:0:0:0:
64,192,135905,128,0,136217:0:0:0:0:
192,192,135905,128,0,136139:0:0:0:0:
320,192,136139,128,0,136451:0:0:0:0:
448,192,136373,128,0,136608:0:0:0:0:
64,192,136530,128,0,136608:0:0:0:0:
192,192,136530,128,0,136842:0:0:0:0:
320,192,136764,128,0,137076:0:0:0:0:
448,192,136764,128,0,136998:0:0:0:0:
64,192,136998,128,0,137155:0:0:0:0:
192,192,136998,128,0,137155:0:0:0:0:
320,192,137155,128,0,138326:0:0:0:0:
448,192,137155,128,0,138326:0:0:0:0:
64,192,137311,5,0,0:0:0:0:
192,192,137311,1,0,0:0:0:0:
64,192,137623,1,0,0:0:0:0:
192,192,137623,1,0,0:0:0:0:
64,192,137780,1,0,0:0:0:0:
192,192,137780,1,0,0:0:0:0:
64,192,138092,1,0,0:0:0:0:
192,192,138092,1,0,0:0:0:0:
192,192,138405,128,0,138717:0:0:0:0:
448,192,138405,128,0,138561:0:0:0:0:
64,192,138405,128,0,138873:0:0:0:0:
448,192,138639,128,0,138951:0:0:0:0:
320,192,138873,128,0,139108:0:0:0:0:
192,192,139030,128,0,139498:0:0:0:0:
64,192,139030,128,0,139108:0:0:0:0:
448,192,139030,128,0,139108:0:0:0:0:
320,192,139264,128,0,139576:0:0:0:0:
64,192,139264,128,0,139498:0:0:0:0:
448,192,139498,128,0,139733:0:0:0:0:
192,192,139655,128,0,139967:0:0:0:0:
64,192,139655,128,0,140123:0:0:0:0:
320,192,139655,128,0,139811:0:0:0:0:
320,192,139889,128,0,140201:0:0:0:0:
192,192,140123,128,0,140358:0:0:0:0:
320,192,140280,128,0,140748:0:0:0:0:
64,192,140280,128,0,140358:0:0:0:0:
448,192,140280,128,0,140358:0:0:0:0:
64,192,140514,128,0,140748:0:0:0:0:
448,192,140514,128,0,140826:0:0:0:0:
192,192,140748,128,0,140983:0:0:0:0:
448,192,140905,128,0,141373:0:0:0:0:
64,192,140905,128,0,141217:0:0:0:0:
320,192,140905,128,0,141061:0:0:0:0:
320,192,141139,128,0,141451:0:0:0:0:
192,192,141373,128,0,141608:0:0:0:0:
64,192,141530,128,0,141920:0:0:0:0:
448,192,141530,128,0,141608:0:0:0:0:
320,192,141530,128,0,141608:0:0:0:0:
192,192,141764,128,0,142076:0:0:0:0:
320,192,141764,128,0,141998:0:0:0:0:
448,192,141998,128,0,143326:0:0:0:0:
64,192,141998,128,0,142155:0:0:0:0:
320,192,142155,128,0,143326:0:0:0:0:
192,192,142155,128,0,143326:0:0:0:0:
64,192,142623,1,0,0:0:0:0:
64,192,142936,1,0,0:0:0:0:
64,192,143405,128,0,143873:0:0:0:0:
448,192,143405,128,0,143717:0:0:0:0:
320,192,143405,128,0,143561:0:0:0:0:
320,192,143639,128,0,143951:0:0:0:0:
192,192,143873,128,0,144108:0:0:0:0:
64,192,144030,128,0,144108:0:0:0:0:
320,192,144030,128,0,144108:0:0:0:0:
448,192,144030,128,0,144342:0:0:0:0:
192,192,144264,128,0,144576:0:0:0:0:
64,192,144264,128,0,144498:0:0:0:0:
320,192,144498,128,0,144733:0:0:0:0:
64,192,144655,128,0,145123:0:0:0:0:
448,192,144655,128,0,144811:0:0:0:0:
192,192,144655,128,0,144967:0:0:0:0:
448,192,144889,128,0,145201:0:0:0:0:
192,192,145123,128,0,145358:0:0:0:0:
64,192,145280,128,0,145592:0:0:0:0:
320,192,145280,128,0,145358:0:0:0:0:
448,192,145280,128,0,145358:0:0:0:0:
448,192,145514,128,0,145826:0:0:0:0:
320,192,145514,128,0,145748:0:0:0:0:
192,192,145748,128,0,145983:0:0:0:0:
320,192,145905,128,0,146217:0:0:0:0:
64,192,145905,128,0,146373:0:0:0:0:
448,192,145905,128,0,146061:0:0:0:0:
448,192,146139,128,0,146451:0:0:0:0:
192,192,146373,128,0,146608:0:0:0:0:
448,192,146530,128,0,146608:0:0:0:0:
64,192,146530,128,0,146608:0:0:0:0:
320,192,146530,128,0,146842:0:0:0:0:
192,192,146764,128,0,147076:0:0:0:0:
64,192,146764,128,0,146998:0:0:0:0:
320,192,146998,128,0,147155:0:0:0:0:
448,192,146998,128,0,147155:0:0:0:0:
64,192,147155,128,0,148326:0:0:0:0:
192,192,147155,128,0,148326:0:0:0:0:
320,192,147311,1,0,0:0:0:0:
448,192,147311,1,0,0:0:0:0:
320,192,147623,1,0,0:0:0:0:
448,192,147623,1,0,0:0:0:0:
448,192,147780,1,0,0:0:0:0:
320,192,147780,1,0,0:0:0:0:
320,192,148092,1,0,0:0:0:0:
448,192,148092,1,0,0:0:0:0:
192,192,148405,128,0,148639:0:0:0:0:
320,192,148405,128,0,148639:0:0:0:0:
64,192,148405,128,0,148873:0:0:0:0:
448,192,148639,128,0,148951:0:0:0:0:
320,192,148873,128,0,149030:0:0:0:0:
192,192,149030,128,0,149498:0:0:0:0:
64,192,149030,128,0,149108:0:0:0:0:
448,192,149030,128,0,149108:0:0:0:0:
320,192,149264,128,0,149498:0:0:0:0:
64,192,149264,128,0,149498:0:0:0:0:
448,192,149498,128,0,149655:0:0:0:0:
192,192,149655,128,0,149889:0:0:0:0:
64,192,149655,128,0,150123:0:0:0:0:
320,192,149655,128,0,149889:0:0:0:0:
448,192,149889,128,0,150201:0:0:0:0:
192,192,150123,128,0,150358:0:0:0:0:
320,192,150280,128,0,150748:0:0:0:0:
64,192,150280,128,0,150358:0:0:0:0:
448,192,150280,128,0,150358:0:0:0:0:
64,192,150514,128,0,150748:0:0:0:0:
448,192,150514,128,0,150748:0:0:0:0:
192,192,150748,128,0,150905:0:0:0:0:
448,192,150905,128,0,151373:0:0:0:0:
64,192,150905,128,0,151139:0:0:0:0:
320,192,150905,128,0,151139:0:0:0:0:
192,192,151139,128,0,151451:0:0:0:0:
320,192,151373,128,0,151608:0:0:0:0:
64,192,151530,128,0,151920:0:0:0:0:
448,192,151530,128,0,151608:0:0:0:0:
192,192,151530,128,0,151608:0:0:0:0:
192,192,151764,128,0,152076:0:0:0:0:
320,192,151764,128,0,152076:0:0:0:0:
448,192,151998,128,0,153326:0:0:0:0:
64,192,151998,128,0,152155:0:0:0:0:
320,192,152155,128,0,153326:0:0:0:0:
192,192,152155,128,0,153326:0:0:0:0:
64,192,152623,1,0,0:0:0:0:
64,192,152936,1,0,0:0:0:0:
64,192,153405,128,0,153873:0:0:0:0:
192,192,153405,128,0,153639:0:0:0:0:
448,192,153405,128,0,153639:0:0:0:0:
320,192,153639,128,0,153951:0:0:0:0:
192,192,153873,128,0,154108:0:0:0:0:
64,192,154030,128,0,154108:0:0:0:0:
320,192,154030,128,0,154108:0:0:0:0:
448,192,154030,128,0,154498:0:0:0:0:
192,192,154264,128,0,154498:0:0:0:0:
64,192,154264,128,0,154498:0:0:0:0:
320,192,154498,128,0,154655:0:0:0:0:
64,192,154655,128,0,155123:0:0:0:0:
448,192,154655,128,0,154889:0:0:0:0:
192,192,154655,128,0,154889:0:0:0:0:
320,192,154889,128,0,155201:0:0:0:0:
192,192,155123,128,0,155358:0:0:0:0:
64,192,155280,128,0,155748:0:0:0:0:
320,192,155280,128,0,155358:0:0:0:0:
448,192,155280,128,0,155358:0:0:0:0:
448,192,155514,128,0,155748:0:0:0:0:
320,192,155514,128,0,155748:0:0:0:0:
192,192,155748,128,0,155905:0:0:0:0:
320,192,155905,128,0,156217:0:0:0:0:
64,192,155905,128,0,156373:0:0:0:0:
448,192,155905,128,0,156061:0:0:0:0:
448,192,156139,128,0,156451:0:0:0:0:
192,192,156373,128,0,156608:0:0:0:0:
448,192,156530,128,0,156608:0:0:0:0:
64,192,156530,128,0,156608:0:0:0:0:
320,192,156530,128,0,156764:0:0:0:0:
192,192,156764,128,0,157076:0:0:0:0:
64,192,156764,128,0,157076:0:0:0:0:
320,192,156998,128,0,157155:0:0:0:0:
448,192,156998,128,0,157155:0:0:0:0:
64,192,157155,128,0,158326:0:0:0:0:
192,192,157155,128,0,158326:0:0:0:0:
320,192,157311,1,0,0:0:0:0:
448,192,157311,1,0,0:0:0:0:
320,192,157623,1,0,0:0:0:0:
448,192,157623,1,0,0:0:0:0:
448,192,157780,1,0,0:0:0:0:
320,192,157780,1,0,0:0:0:0:
320,192,158092,1,0,0:0:0:0:
448,192,158092,1,0,0:0:0:0:
448,192,158248,128,0,158405:0:0:0:0:
320,192,158326,128,0,158405:0:0:0:0:
64,192,158405,128,0,159655:0:0:0:0:
192,192,158405,128,0,159576:0:0:0:0:
320,192,158717,128,0,158873:0:0:0:0:
448,192,158873,128,0,158951:0:0:0:0:
320,192,159030,1,0,0:0:0:0:
320,192,159342,1,0,0:0:0:0:
192,192,159655,128,0,160280:0:0:0:0:
448,192,159655,128,0,160201:0:0:0:0:
320,192,159967,128,0,160123:0:0:0:0:
64,192,160123,128,0,160201:0:0:0:0:
320,192,160280,128,0,160905:0:0:0:0:
448,192,160280,128,0,160905:0:0:0:0:
192,192,160592,1,0,0:0:0:0:
64,192,160905,128,0,162155:0:0:0:0:
192,192,160905,128,0,161530:0:0:0:0:
320,192,161217,128,0,161373:0:0:0:0:
448,192,161373,128,0,161451:0:0:0:0:
320,192,161530,1,0,0:0:0:0:
192,192,161686,1,0,0:0:0:0:
448,192,161842,1,0,0:0:0:0:
320,192,161998,1,0,0:0:0:0:
192,192,162155,1,0,0:0:0:0:
448,192,162467,1,0,0:0:0:0:
64,192,162623,1,0,0:0:0:0:
320,192,162780,128,0,163092:0:0:0:0:
448,192,162780,128,0,163092:0:0:0:0:
192,192,163092,128,0,163405:0:0:0:0:
64,192,163092,128,0,163326:0:0:0:0:
64,192,163405,128,0,164342:0:0:0:0:
448,192,163405,128,0,164342:0:0:0:0:
320,192,163717,1,0,0:0:0:0:
192,192,163873,1,0,0:0:0:0:
320,192,164030,1,0,0:0:0:0:
192,192,164186,1,0,0:0:0:0:
320,192,164342,128,0,164498:0:0:0:0:
192,192,164498,128,0,164655:0:0:0:0:
64,192,164655,128,0,164967:0:0:0:0:
448,192,164655,128,0,164889:0:0:0:0:
448,192,164967,128,0,165123:0:0:0:0:
320,192,164967,1,0,0:0:0:0:
192,192,165123,128,0,165280:0:0:0:0:
64,192,165123,1,0,0:0:0:0:
320,192,165280,128,0,165592:0:0:0:0:
448,192,165280,128,0,165514:0:0:0:0:
192,192,165592,128,0,165748:0:0:0:0:
448,192,165592,1,0,0:0:0:0:
64,192,165748,128,0,168405:0:0:0:0:
320,192,165748,128,0,167155:0:0:0:0:
448,192,166217,1,0,0:0:0:0:
448,192,166530,1,0,0:0:0:0:
192,192,166686,1,0,0:0:0:0:
448,192,166842,1,0,0:0:0:0:
192,192,166998,1,0,0:0:0:0:
448,192,167155,128,0,167311:0:0:0:0:
448,192,167467,128,0,167623:0:0:0:0:
192,192,167467,1,0,0:0:0:0:
320,192,167780,128,0,167936:0:0:0:0:
320,192,168092,128,0,168248:0:0:0:0:
448,192,168092,1,0,0:0:0:0:
192,192,168405,128,0,168717:0:0:0:0:
448,192,168405,128,0,168717:0:0:0:0:
64,192,168717,128,0,168873:0:0:0:0:
320,192,168717,128,0,168795:0:0:0:0:
320,192,168873,128,0,169342:0:0:0:0:
448,192,168873,128,0,169342:0:0:0:0:
192,192,169030,1,0,0:0:0:0:
192,192,169342,128,0,169655:0:0:0:0:
64,192,169342,128,0,169576:0:0:0:0:
320,192,169655,128,0,169967:0:0:0:0:
64,192,169655,128,0,169967:0:0:0:0:
192,192,169967,128,0,170123:0:0:0:0:
448,192,169967,1,0,0:0:0:0:
448,192,170123,128,0,170592:0:0:0:0:
320,192,170123,128,0,170514:0:0:0:0:
64,192,170280,1,0,0:0:0:0:
320,192,170592,128,0,170905:0:0:0:0:
192,192,170592,128,0,170905:0:0:0:0:
64,192,170905,128,0,171217:0:0:0:0:
448,192,170905,128,0,171061:0:0:0:0:
192,192,171061,128,0,171217:0:0:0:0:
320,192,171217,128,0,171530:0:0:0:0:
448,192,171217,128,0,171373:0:0:0:0:
64,192,171373,128,0,171530:0:0:0:0:
448,192,171530,128,0,171842:0:0:0:0:
192,192,171530,128,0,171686:0:0:0:0:
64,192,171686,128,0,171842:0:0:0:0:
192,192,171842,128,0,171998:0:0:0:0:
320,192,171998,128,0,172155:0:0:0:0:
192,192,172155,128,0,172389:0:0:0:0:
448,192,172155,128,0,172389:0:0:0:0:
320,192,172389,128,0,172623:0:0:0:0:
64,192,172389,128,0,172623:0:0:0:0:
448,192,172623,128,0,172780:0:0:0:0:
192,192,172623,128,0,172701:0:0:0:0:
64,192,172780,128,0,173405:0:0:0:0:
192,192,172780,128,0,173405:0:0:0:0:
448,192,173092,1,0,0:0:0:0:
320,192,173248,1,0,0:0:0:0:
448,192,173405,128,0,174655:0:0:0:0:
320,192,173405,128,0,173717:0:0:0:0:
192,192,173639,128,0,173951:0:0:0:0:
64,192,173873,128,0,174108:0:0:0:0:
192,192,174030,128,0,174342:0:0:0:0:
320,192,174264,128,0,174576:0:0:0:0:
192,192,174498,128,0,174655:0:0:0:0:
320,192,174655,128,0,175905:0:0:0:0:
64,192,174655,128,0,174967:0:0:0:0:
192,192,174889,128,0,175201:0:0:0:0:
448,192,175123,128,0,175358:0:0:0:0:
64,192,175280,128,0,175592:0:0:0:0:
192,192,175514,128,0,175826:0:0:0:0:
448,192,175748,128,0,175905:0:0:0:0:
192,192,175905,128,0,177155:0:0:0:0:
64,192,175905,128,0,176217:0:0:0:0:
320,192,176139,128,0,176451:0:0:0:0:
448,192,176373,128,0,176608:0:0:0:0:
64,192,176530,128,0,176842:0:0:0:0:
320,192,176764,128,0,177076:0:0:0:0:
448,192,176998,128,0,177155:0:0:0:0:
64,192,177155,128,0,178405:0:0:0:0:
320,192,177155,128,0,178405:0:0:0:0:
448,192,178405,128,0,179655:0:0:0:0:
192,192,178405,128,0,178717:0:0:0:0:
320,192,178639,128,0,178951:0:0:0:0:
64,192,178873,128,0,179108:0:0:0:0:
192,192,179030,128,0,179342:0:0:0:0:
64,192,179264,128,0,179576:0:0:0:0:
192,192,179498,128,0,179655:0:0:0:0:
320,192,179655,128,0,180905:0:0:0:0:
64,192,179655,128,0,179967:0:0:0:0:
192,192,179889,128,0,180201:0:0:0:0:
448,192,180123,128,0,180358:0:0:0:0:
64,192,180280,128,0,180592:0:0:0:0:
192,192,180514,128,0,180826:0:0:0:0:
448,192,180748,128,0,180905:0:0:0:0:
192,192,180905,128,0,182155:0:0:0:0:
64,192,180905,128,0,181217:0:0:0:0:
320,192,181139,128,0,181451:0:0:0:0:
448,192,181373,128,0,181608:0:0:0:0:
64,192,181530,128,0,181842:0:0:0:0:
320,192,181764,128,0,182076:0:0:0:0:
64,192,181998,128,0,182155:0:0:0:0:
448,192,182155,128,0,183248:0:0:0:0:
320,192,182155,128,0,183248:0:0:0:0:
192,192,182311,1,0,0:0:0:0:
64,192,182311,1,0,0:0:0:0:
64,192,182623,1,0,0:0:0:0:
192,192,182623,1,0,0:0:0:0:
64,192,182780,1,0,0:0:0:0:
192,192,182780,1,0,0:0:0:0:
64,192,183092,1,0,0:0:0:0:
192,192,183092,1,0,0:0:0:0:
64,192,183405,128,0,183639:0:0:0:0:
192,192,183405,128,0,183639:0:0:0:0:
320,192,183405,128,0,183561:0:0:0:0:
448,192,183405,128,0,183561:0:0:0:0:
64,192,184655,128,0,184811:0:0:0:0:
192,192,184655,128,0,184811:0:0:0:0:
448,192,184655,128,0,184889:0:0:0:0:
320,192,184655,128,0,184889:0:0:0:0:
64,192,185905,128,0,186139:0:0:0:0:
192,192,185905,128,0,186061:0:0:0:0:
448,192,185905,128,0,186139:0:0:0:0:
320,192,185905,128,0,186061:0:0:0:0:
64,192,187155,128,0,187780:0:0:0:0:
192,192,187155,128,0,187780:0:0:0:0:
320,192,187780,128,0,188405:0:0:0:0:
448,192,187780,128,0,188405:0:0:0:0:
64,192,188405,128,0,188483:0:0:0:0:
192,192,188405,128,0,188483:0:0:0:0:
192,192,188561,128,0,190905:0:0:0:0:
64,192,188561,128,0,190905:0:0:0:0:
