osu file format v14

[General]
AudioFilename: audio.mp3
AudioLeadIn: 0
PreviewTime: 58253
Countdown: 0
SampleSet: Soft
StackLeniency: 0.7
Mode: 3
LetterboxInBreaks: 0
SpecialStyle: 0
WidescreenStoryboard: 0

[Editor]
DistanceSpacing: 0.8
BeatDivisor: 4
GridSize: 32
TimelineZoom: 1.2

[Metadata]
Title:Taketori Hishou
TitleUnicode:竹取飛翔
Artist:Dark PHOENiX
ArtistUnicode:Dark PHOENiX
Creator:Madoka2574
Version:Normal
Source:東方永夜抄 ~ Imperishable Night.
Tags:東方Project Arrow Realize 蓬莱山輝夜 ほうらいさん かぐや Houraisan Kaguya Lunatic Princess とうほうえいやしょう Touhou Eiyashou
BeatmapID:1280969
BeatmapSetID:606334

[Difficulty]
HPDrainRate:7.5
CircleSize:4
OverallDifficulty:7.5
ApproachRate:5
SliderMultiplier:1.4
SliderTickRate:1

[Events]
//Background and Video events
0,0,"Kaguya1.JPG",0,0
//Break Periods
//Storyboard Layer 0 (Background)
//Storyboard Layer 1 (Fail)
//Storyboard Layer 2 (Pass)
//Storyboard Layer 3 (Foreground)
//Storyboard Sound Samples
Sample,18410,0,"0_C6_192_480.wav",70
Sample,38097,0,"0_C6_192_480.wav",70
Sample,38253,0,"0_D#6_192_480.wav",70
Sample,38410,0,"0_F6_192_480.wav",70
Sample,38722,0,"0_F6_192_480.wav",70
Sample,39503,0,"0_A#5_192_480.wav",70
Sample,39816,0,"0_G5_192_480.wav",70
Sample,39972,0,"0_A#5_192_480.wav",70
Sample,40910,0,"0_F6_192_480.wav",70
Sample,41222,0,"0_F6_192_480.wav",70
Sample,41535,0,"0_A#6_192_480.wav",70
Sample,42003,0,"0_G6_192_480.wav",70
Sample,42472,0,"0_D#7_192_480.wav",70
Sample,43410,0,"0_F6_192_480.wav",70
Sample,43722,0,"0_F6_192_480.wav",70
Sample,44503,0,"0_A#5_192_480.wav",70
Sample,44816,0,"0_G5_192_480.wav",70
Sample,44972,0,"0_A#5_192_480.wav",70
Sample,45910,0,"0_F6_192_480.wav",70
Sample,46222,0,"0_F6_192_480.wav",70
Sample,46535,0,"0_A#6_192_480.wav",70
Sample,47003,0,"0_G6_192_480.wav",70
Sample,58097,0,"LR_Drum Finish.wav",70

[TimingPoints]
910,312.5,4,2,1,25,1,0
28410,-100,4,2,1,25,0,1
38410,-100,4,2,1,25,0,0
68410,-100,4,2,1,25,0,1
73410,-100,4,2,1,25,0,0
115910,-100,4,2,1,25,0,1
145597,-100,4,2,1,25,0,0
155910,-100,4,2,1,25,0,1
160910,-100,4,2,1,25,0,0
213410,-100,4,2,1,25,0,1
223410,-100,4,2,1,25,0,0

[HitObjects]
448,192,910,5,0,0:0:0:70:0_C7_192_480.wav
64,192,1066,1,0,0:0:0:70:0_G6_192_480.wav
320,192,1222,1,0,0:0:0:70:0_A#6_192_480.wav
192,192,1378,1,0,0:0:0:70:0_F6_192_480.wav
64,192,1535,1,0,0:0:0:70:0_G6_192_480.wav
320,192,1691,1,0,0:0:0:70:0_D#6_192_480.wav
448,192,1847,1,0,0:0:0:70:0_F6_192_480.wav
192,192,2003,1,0,0:0:0:70:0_D6_192_480.wav
448,192,2160,1,0,0:0:0:70:0_C7_192_480.wav
320,192,2316,1,0,0:0:0:70:0_G6_192_480.wav
64,192,2472,1,0,0:0:0:70:0_A#6_192_480.wav
192,192,2628,1,0,0:0:0:70:0_F6_192_480.wav
448,192,2785,1,0,0:0:0:70:0_G6_192_480.wav
320,192,2941,1,0,0:0:0:70:0_D#6_192_480.wav
192,192,3097,1,0,0:0:0:70:0_F6_192_480.wav
64,192,3253,1,0,0:0:0:70:0_D6_192_480.wav
448,192,3410,1,0,0:0:0:70:0_C7_192_480.wav
320,192,3566,1,0,0:0:0:70:0_G6_192_480.wav
64,192,3722,1,0,0:0:0:70:0_A#6_192_480.wav
192,192,3878,1,0,0:0:0:70:0_F6_192_480.wav
64,192,4035,1,0,0:0:0:70:0_G6_192_480.wav
320,192,4191,1,0,0:0:0:70:0_D#6_192_480.wav
192,192,4347,1,0,0:0:0:70:0_D7_192_480.wav
448,192,4503,1,0,0:0:0:70:0_D#7_192_480.wav
64,192,4816,1,0,0:0:0:70:0_G6_192_480.wav
320,192,4972,1,0,0:0:0:70:0_D7_192_480.wav
192,192,5128,1,0,0:0:0:70:0_F6_192_480.wav
448,192,5285,1,0,0:0:0:70:0_C7_192_480.wav
192,192,5441,1,0,0:0:0:70:0_D#6_192_480.wav
320,192,5597,1,0,0:0:0:70:0_A#6_192_480.wav
64,192,5753,1,0,0:0:0:70:0_C6_192_480.wav
448,192,5910,1,0,0:0:0:70:0_C7_192_480.wav
320,192,6066,1,0,0:0:0:70:0_G6_192_480.wav
64,192,6222,1,0,0:0:0:70:0_A#6_192_480.wav
192,192,6378,1,0,0:0:0:70:0_F6_192_480.wav
448,192,6535,1,0,0:0:0:70:0_G6_192_480.wav
64,192,6691,1,0,0:0:0:70:0_D#6_192_480.wav
320,192,6847,1,0,0:0:0:70:0_F6_192_480.wav
192,192,7003,1,0,0:0:0:70:0_D6_192_480.wav
448,192,7160,1,0,0:0:0:70:0_C7_192_480.wav
192,192,7316,1,0,0:0:0:70:0_G6_192_480.wav
64,192,7472,1,0,0:0:0:70:0_A#6_192_480.wav
320,192,7628,1,0,0:0:0:70:0_F6_192_480.wav
448,192,7785,1,0,0:0:0:70:0_G6_192_480.wav
320,192,7941,1,0,0:0:0:70:0_D#6_192_480.wav
64,192,8097,1,0,0:0:0:70:0_F6_192_480.wav
192,192,8253,1,0,0:0:0:70:0_D6_192_480.wav
448,192,8410,1,0,0:0:0:70:0_C7_192_480.wav
64,192,8566,1,0,0:0:0:70:0_G6_192_480.wav
320,192,8722,1,0,0:0:0:70:0_A#6_192_480.wav
192,192,8878,1,0,0:0:0:70:0_F6_192_480.wav
64,192,9035,1,0,0:0:0:70:0_G6_192_480.wav
192,192,9191,1,0,0:0:0:70:0_D#6_192_480.wav
320,192,9347,1,0,0:0:0:70:0_D7_192_480.wav
448,192,9503,1,0,0:0:0:70:0_D#7_192_480.wav
192,192,9816,1,0,0:0:0:70:0_G6_192_480.wav
448,192,9972,1,0,0:0:0:70:0_D7_192_480.wav
320,192,10128,1,0,0:0:0:70:0_F6_192_480.wav
64,192,10285,1,0,0:0:0:70:0_C7_192_480.wav
192,192,10441,1,0,0:0:0:70:0_D#6_192_480.wav
320,192,10597,1,0,0:0:0:70:0_A#6_192_480.wav
64,192,10753,1,0,0:0:0:70:0_C6_192_480.wav
448,192,10910,1,0,0:0:0:70:0_C7_192_480.wav
192,192,11066,1,0,0:0:0:70:0_G6_192_480.wav
320,192,11222,1,0,0:0:0:70:0_A#6_192_480.wav
64,192,11378,1,0,0:0:0:70:0_F6_192_480.wav
192,192,11535,1,0,0:0:0:70:0_G6_192_480.wav
448,192,11691,1,0,0:0:0:70:0_D#6_192_480.wav
320,192,11847,1,0,0:0:0:70:0_F6_192_480.wav
192,192,12003,1,0,0:0:0:70:0_D6_192_480.wav
64,192,12160,1,0,0:0:0:70:0_C7_192_480.wav
320,192,12316,1,0,0:0:0:70:0_G6_192_480.wav
192,192,12472,1,0,0:0:0:70:0_A#6_192_480.wav
448,192,12628,1,0,0:0:0:70:0_F6_192_480.wav
320,192,12785,1,0,0:0:0:70:0_G6_192_480.wav
64,192,12941,1,0,0:0:0:70:0_D#6_192_480.wav
192,192,13097,1,0,0:0:0:70:0_F6_192_480.wav
320,192,13253,1,0,0:0:0:70:0_D6_192_480.wav
448,192,13410,1,0,0:0:0:70:0_C7_192_480.wav
192,192,13566,1,0,0:0:0:70:0_G6_192_480.wav
64,192,13722,1,0,0:0:0:70:0_A#6_192_480.wav
320,192,13878,1,0,0:0:0:70:0_F6_192_480.wav
448,192,14035,1,0,0:0:0:70:0_G6_192_480.wav
192,192,14191,1,0,0:0:0:70:0_D#6_192_480.wav
320,192,14347,1,0,0:0:0:70:0_D7_192_480.wav
64,192,14503,1,0,0:0:0:70:0_D#7_192_480.wav
320,192,14816,1,0,0:0:0:70:0_G6_192_480.wav
192,192,14972,1,0,0:0:0:70:0_D7_192_480.wav
448,192,15128,1,0,0:0:0:70:0_F6_192_480.wav
64,192,15285,1,0,0:0:0:70:0_C7_192_480.wav
320,192,15441,1,0,0:0:0:70:0_D#6_192_480.wav
192,192,15597,1,0,0:0:0:70:0_A#6_192_480.wav
448,192,15910,1,0,0:0:0:70:0_C7_192_480.wav
320,192,16066,1,0,0:0:0:70:0_G6_192_480.wav
64,192,16222,1,0,0:0:0:70:0_A#6_192_480.wav
192,192,16378,1,0,0:0:0:70:0_F6_192_480.wav
448,192,16535,1,0,0:0:0:70:0_G6_192_480.wav
192,192,16691,1,0,0:0:0:70:0_D#6_192_480.wav
320,192,16847,1,0,0:0:0:70:0_F6_192_480.wav
64,192,17003,1,0,0:0:0:70:0_D6_192_480.wav
448,192,17160,1,0,0:0:0:70:0_G6_192_480.wav
192,192,17316,1,0,0:0:0:70:0_D#6_192_480.wav
320,192,17472,1,0,0:0:0:70:0_A#6_192_480.wav
64,192,17628,1,0,0:0:0:70:0_D#6_192_480.wav
448,192,17785,1,0,0:0:0:70:0_C7_192_480.wav
192,192,17941,1,0,0:0:0:70:0_D#6_192_480.wav
320,192,18097,1,0,0:0:0:70:0_D#7_192_480.wav
192,192,18253,1,0,0:0:0:70:0_A#5_192_480.wav
64,192,18410,1,2,0:0:0:0:
448,192,18410,1,4,0:0:0:0:
320,192,18566,1,0,0:0:0:0:
448,192,18878,1,2,0:0:0:0:
64,192,19035,1,8,0:0:0:0:
320,192,19035,1,0,0:0:0:0:
192,192,19191,1,0,0:0:0:0:
64,192,19503,1,2,0:0:0:0:
192,192,19660,1,2,0:0:0:0:
448,192,19660,1,0,0:0:0:0:
320,192,19816,1,0,0:0:0:0:
64,192,20128,128,0,20441:0:0:0:0:
192,192,20441,128,0,20597:0:0:0:0:
320,192,20597,128,0,20753:0:0:0:0:
64,192,20910,1,2,0:0:0:0:
448,192,20910,1,4,0:0:0:0:
192,192,21066,1,0,0:0:0:0:
64,192,21378,1,2,0:0:0:0:
192,192,21535,1,8,0:0:0:0:
448,192,21535,1,0,0:0:0:0:
320,192,21691,1,0,0:0:0:0:
448,192,22003,1,2,0:0:0:0:
64,192,22160,1,2,0:0:0:0:
320,192,22160,1,0,0:0:0:0:
192,192,22316,1,0,0:0:0:0:
448,192,22628,128,0,22941:0:0:0:0:
320,192,22941,128,0,23097:0:0:0:0:
192,192,23097,128,0,23253:0:0:0:0:
64,192,23410,1,2,0:0:0:0:
448,192,23410,1,4,0:0:0:0:
320,192,23566,1,0,0:0:0:0:
64,192,23878,1,2,0:0:0:0:
320,192,24035,1,8,0:0:0:0:
448,192,24035,1,0,0:0:0:0:
192,192,24191,1,0,0:0:0:0:
448,192,24503,1,2,0:0:0:0:
64,192,24660,1,2,0:0:0:0:
192,192,24660,1,0,0:0:0:0:
320,192,24816,1,0,0:0:0:0:
64,192,25128,128,0,25441:0:0:0:0:
320,192,25441,128,0,25597:0:0:0:0:
192,192,25597,128,0,25753:0:0:0:0:
64,192,25910,1,2,0:0:0:0:
448,192,25910,1,4,0:0:0:0:
192,192,26066,1,0,0:0:0:0:
320,192,26222,1,0,0:0:0:0:
192,192,26378,1,2,0:0:0:0:
64,192,26535,1,8,0:0:0:0:
448,192,26535,1,0,0:0:0:0:
320,192,26691,1,0,0:0:0:0:
192,192,26847,1,0,0:0:0:0:
320,192,27003,1,2,0:0:0:0:
64,192,27160,1,2,0:0:0:0:
448,192,27160,1,0,0:0:0:0:
192,192,27316,1,0,0:0:0:0:
320,192,27472,1,2,0:0:0:0:
192,192,27628,1,0,0:0:0:0:
64,192,27785,1,8,0:0:0:0:
448,192,27785,1,0,0:0:0:0:
320,192,27941,1,0,0:0:0:0:
64,192,28097,1,8,0:0:0:0:
192,192,28175,1,8,0:0:0:0:
320,192,28253,1,8,0:0:0:0:
448,192,28331,1,8,0:0:0:0:
64,192,28410,1,2,0:0:0:0:
192,192,28410,1,4,0:0:0:0:
192,192,28722,1,8,0:0:0:0:
320,192,28722,1,0,0:0:0:0:
64,192,29035,1,2,0:0:0:0:
192,192,29191,1,2,0:0:0:0:
320,192,29347,1,8,0:0:0:0:
448,192,29347,1,0,0:0:0:0:
64,192,29660,1,2,0:0:0:0:
320,192,29816,1,2,0:0:0:0:
64,192,29972,1,8,0:0:0:0:
192,192,29972,1,0,0:0:0:0:
448,192,30128,1,0,0:0:0:0:
320,192,30285,1,2,0:0:0:0:
192,192,30441,1,2,0:0:0:0:
320,192,30597,1,8,0:0:0:0:
448,192,30597,1,0,0:0:0:0:
64,192,30910,1,2,0:0:0:0:
320,192,31066,1,2,0:0:0:0:
192,192,31222,1,8,0:0:0:0:
448,192,31222,1,0,0:0:0:0:
64,192,31535,1,2,0:0:0:0:
448,192,31691,1,2,0:0:0:0:
192,192,31847,1,8,0:0:0:0:
320,192,31847,1,0,0:0:0:0:
64,192,32160,1,2,0:0:0:0:
192,192,32316,1,2,0:0:0:0:
320,192,32472,1,8,0:0:0:0:
448,192,32472,1,0,0:0:0:0:
64,192,32628,1,0,0:0:0:0:
448,192,32785,1,2,0:0:0:0:
320,192,32941,1,2,0:0:0:0:
64,192,33097,1,8,0:0:0:0:
192,192,33097,1,0,0:0:0:0:
64,192,33410,1,2,0:0:0:0:
448,192,33410,1,4,0:0:0:0:
320,192,33722,1,8,0:0:0:0:
448,192,33722,1,0,0:0:0:0:
192,192,34035,1,2,0:0:0:0:
320,192,34191,1,2,0:0:0:0:
64,192,34347,1,8,0:0:0:0:
448,192,34347,1,0,0:0:0:0:
192,192,34660,1,2,0:0:0:0:
448,192,34816,1,2,0:0:0:0:
64,192,34972,1,8,0:0:0:0:
320,192,34972,1,0,0:0:0:0:
192,192,35128,1,0,0:0:0:0:
448,192,35285,1,2,0:0:0:0:
64,192,35441,1,2,0:0:0:0:
192,192,35597,1,8,0:0:0:0:
320,192,35597,1,0,0:0:0:0:
448,192,35910,1,2,0:0:0:0:
320,192,36066,1,2,0:0:0:0:
64,192,36222,1,8,0:0:0:0:
192,192,36222,1,0,0:0:0:0:
320,192,36535,1,2,0:0:0:0:
64,192,36691,1,2,0:0:0:0:
192,192,36847,1,8,0:0:0:0:
448,192,36847,1,0,0:0:0:0:
320,192,37160,1,8,0:0:0:0:
64,192,37160,128,0,38410:0:0:0:0:
192,192,37316,1,8,0:0:0:0:
320,192,37628,1,2,0:0:0:0:
448,192,37941,1,2,0:0:0:0:
320,192,38097,1,2,0:0:0:0:
192,192,38253,1,2,0:0:0:0:
320,192,38410,1,2,0:0:0:0:
448,192,38410,1,4,0:0:0:0:
64,192,38722,1,2,0:0:0:0:
192,192,38878,1,0,0:0:0:70:0_D6_192_480.wav
448,192,39035,1,8,0:0:0:0:
320,192,39191,1,0,0:0:0:70:0_A#5_192_480.wav
64,192,39503,1,2,0:0:0:0:
192,192,39816,1,2,0:0:0:0:
320,192,39972,1,2,0:0:0:0:
64,192,40285,1,8,0:0:0:0:
448,192,40285,1,0,0:0:0:70:0_C6_192_480.wav
192,192,40597,1,0,0:0:0:70:0_C6_192_480.wav
320,192,40753,1,0,0:0:0:70:0_D#6_192_480.wav
448,192,40910,1,2,0:0:0:0:
64,192,41222,1,2,0:0:0:0:
320,192,41378,1,0,0:0:0:70:0_G6_192_480.wav
448,192,41535,1,8,0:0:0:0:
192,192,41691,1,0,0:0:0:70:0_G6_192_480.wav
64,192,41847,1,0,0:0:0:70:0_F6_192_480.wav
320,192,42003,1,2,0:0:0:0:
448,192,42160,1,0,0:0:0:70:0_C7_192_480.wav
192,192,42316,1,2,0:0:0:0:
320,192,42472,1,2,0:0:0:0:
192,192,42785,1,8,0:0:0:0:
448,192,42785,1,0,0:0:0:70:0_D7_192_480.wav
64,192,43097,1,0,0:0:0:70:0_C6_192_480.wav
192,192,43253,1,0,0:0:0:70:0_D#6_192_480.wav
320,192,43410,1,2,0:0:0:0:
448,192,43722,1,2,0:0:0:0:
320,192,43878,1,0,0:0:0:70:0_D6_192_480.wav
64,192,44035,1,8,0:0:0:0:
192,192,44191,1,0,0:0:0:70:0_A#5_192_480.wav
448,192,44503,1,2,0:0:0:0:
320,192,44816,1,2,0:0:0:0:
192,192,44972,1,2,0:0:0:0:
64,192,45285,1,8,0:0:0:0:
320,192,45285,1,0,0:0:0:70:0_C6_192_480.wav
448,192,45597,1,0,0:0:0:70:0_C6_192_480.wav
320,192,45753,1,0,0:0:0:70:0_D#6_192_480.wav
192,192,45910,1,2,0:0:0:0:
64,192,46222,1,2,0:0:0:0:
320,192,46378,1,0,0:0:0:70:0_G6_192_480.wav
448,192,46535,1,8,0:0:0:0:
192,192,46691,1,0,0:0:0:70:0_G6_192_480.wav
320,192,46847,1,0,0:0:0:70:0_F6_192_480.wav
64,192,47003,1,2,0:0:0:0:
448,192,47160,128,0,47785:0:0:0:70:0_G6_192_480.wav
192,192,47316,1,2,0:0:0:0:
320,192,47472,1,2,0:0:0:0:
192,192,47785,1,8,0:0:0:0:
64,192,47785,128,0,48410:0:0:0:70:0_G6_192_480.wav
320,192,48097,1,8,0:0:0:0:
192,192,48253,128,8,48410:0:0:0:0:
320,192,48410,1,2,0:0:0:0:
448,192,48410,1,4,0:0:0:0:
448,192,48722,1,8,0:0:0:0:
64,192,48878,1,0,0:0:0:0:
320,192,49035,1,2,0:0:0:0:
192,192,49191,1,2,0:0:0:0:
192,192,49503,128,2,49816:0:0:0:0:
320,192,49816,1,2,0:0:0:0:
64,192,49972,128,8,50285:0:0:0:0:
448,192,50285,128,2,50597:0:0:0:0:
192,192,50597,1,8,0:0:0:0:
64,192,50753,1,0,0:0:0:0:
320,192,50910,128,2,51222:0:0:0:0:
448,192,51222,1,8,0:0:0:0:
192,192,51378,1,0,0:0:0:0:
320,192,51535,1,2,0:0:0:0:
64,192,51691,1,2,0:0:0:0:
448,192,51847,1,8,0:0:0:0:
192,192,52003,1,2,0:0:0:0:
320,192,52160,128,0,52472:0:0:0:0:
448,192,52472,128,8,52785:0:0:0:0:
64,192,52785,128,2,53097:0:0:0:0:
192,192,53097,1,8,0:0:0:0:
320,192,53253,1,0,0:0:0:0:
64,192,53410,1,2,0:0:0:0:
448,192,53410,1,4,0:0:0:0:
192,192,53722,1,8,0:0:0:0:
448,192,53878,1,0,0:0:0:0:
64,192,54035,1,2,0:0:0:0:
320,192,54191,1,2,0:0:0:0:
320,192,54503,128,2,54816:0:0:0:0:
192,192,54816,1,2,0:0:0:0:
448,192,54972,128,8,55285:0:0:0:0:
64,192,55285,128,2,55597:0:0:0:0:
192,192,55597,1,8,0:0:0:0:
320,192,55753,1,2,0:0:0:0:
448,192,55910,128,0,56222:0:0:0:0:
64,192,56222,1,8,0:0:0:0:
192,192,56378,1,0,0:0:0:0:
448,192,56535,1,2,0:0:0:0:
192,192,56691,1,2,0:0:0:0:
320,192,56847,1,8,0:0:0:0:
64,192,57003,1,2,0:0:0:0:
320,192,57160,1,8,0:0:0:0:
448,192,57160,128,0,58097:0:0:0:0:
64,192,57316,1,2,0:0:0:0:
192,192,57472,1,2,0:0:0:0:
320,192,57628,1,8,0:0:0:0:
64,192,57785,1,2,0:0:0:0:
192,192,57941,1,2,0:0:0:0:
320,192,58097,1,8,0:0:0:0:
192,192,58253,128,0,58410:0:0:0:0:
64,192,58410,1,2,0:0:0:0:
448,192,58410,1,0,0:0:0:70:LR_Drum Finish.wav
320,192,58566,1,0,0:0:0:0:
192,192,58722,1,8,0:0:0:0:
320,192,58878,1,0,0:0:0:0:
448,192,59035,1,2,0:0:0:0:
320,192,59191,1,2,0:0:0:0:
64,192,59347,1,8,0:0:0:0:
192,192,59503,1,0,0:0:0:0:
448,192,59660,1,2,0:0:0:0:
320,192,59816,1,2,0:0:0:0:
64,192,59972,1,8,0:0:0:0:
192,192,60128,1,0,0:0:0:0:
320,192,60285,1,2,0:0:0:0:
192,192,60441,1,2,0:0:0:0:
64,192,60597,1,8,0:0:0:0:
192,192,60753,1,0,0:0:0:0:
448,192,60910,1,2,0:0:0:0:
320,192,61066,1,2,0:0:0:0:
192,192,61222,1,8,0:0:0:0:
320,192,61378,1,0,0:0:0:0:
64,192,61535,1,2,0:0:0:0:
192,192,61691,1,2,0:0:0:0:
320,192,61847,1,8,0:0:0:0:
448,192,62003,128,2,62316:0:0:0:0:
192,192,62316,1,2,0:0:0:0:
64,192,62472,128,8,62628:0:0:0:0:
320,192,62628,128,0,62785:0:0:0:0:
448,192,62785,128,2,62941:0:0:0:0:
64,192,62941,128,2,63097:0:0:0:0:
192,192,63097,128,8,63253:0:0:0:0:
320,192,63253,128,0,63410:0:0:0:0:
64,192,63410,1,2,0:0:0:0:
448,192,63410,1,0,0:0:0:70:LR_Drum Finish.wav
192,192,63566,1,0,0:0:0:0:
320,192,63722,1,8,0:0:0:0:
192,192,63878,1,0,0:0:0:0:
64,192,64035,1,2,0:0:0:0:
192,192,64191,1,2,0:0:0:0:
448,192,64347,1,8,0:0:0:0:
320,192,64503,1,0,0:0:0:0:
64,192,64660,1,2,0:0:0:0:
192,192,64816,1,2,0:0:0:0:
448,192,64972,1,8,0:0:0:0:
320,192,65128,1,0,0:0:0:0:
192,192,65285,1,2,0:0:0:0:
320,192,65441,1,2,0:0:0:0:
448,192,65597,1,8,0:0:0:0:
320,192,65753,1,0,0:0:0:0:
64,192,65910,1,2,0:0:0:0:
192,192,66066,1,2,0:0:0:0:
448,192,66222,1,8,0:0:0:0:
320,192,66378,1,0,0:0:0:0:
192,192,66535,1,2,0:0:0:0:
64,192,66691,1,2,0:0:0:0:
192,192,66847,1,8,0:0:0:0:
320,192,67003,128,2,67316:0:0:0:0:
64,192,67316,1,2,0:0:0:0:
192,192,67472,128,8,67628:0:0:0:0:
448,192,67628,128,0,67785:0:0:0:0:
64,192,67785,128,2,67941:0:0:0:0:
448,192,67941,128,2,68097:0:0:0:0:
192,192,68097,128,8,68253:0:0:0:0:
320,192,68253,128,0,68410:0:0:0:0:
64,192,68410,128,2,68566:0:0:0:0:
448,192,68410,1,0,0:0:0:70:LR_Drum Finish.wav
192,192,68566,128,0,68722:0:0:0:0:
320,192,68722,128,8,68878:0:0:0:0:
448,192,68878,128,0,69035:0:0:0:0:
192,192,69035,128,2,69191:0:0:0:0:
320,192,69191,128,2,69347:0:0:0:0:
64,192,69347,128,8,69503:0:0:0:0:
192,192,69503,128,0,69660:0:0:0:0:
320,192,69660,128,2,69816:0:0:0:0:
64,192,69816,128,2,69972:0:0:0:0:
448,192,69972,128,8,70128:0:0:0:0:
192,192,70128,128,0,70285:0:0:0:0:
448,192,70285,128,2,70441:0:0:0:0:
320,192,70441,128,2,70597:0:0:0:0:
192,192,70597,128,8,70753:0:0:0:0:
64,192,70753,128,0,70910:0:0:0:0:
320,192,70910,128,2,71066:0:0:0:0:
192,192,71066,128,2,71222:0:0:0:0:
448,192,71222,128,8,71378:0:0:0:0:
320,192,71378,128,0,71535:0:0:0:0:
64,192,71535,128,2,71691:0:0:0:0:
192,192,71691,128,2,71847:0:0:0:0:
320,192,71847,128,8,72003:0:0:0:0:
448,192,72003,128,2,72316:0:0:0:0:
64,192,72316,1,2,0:0:0:0:
320,192,72472,128,8,72628:0:0:0:0:
64,192,72628,128,0,72785:0:0:0:0:
448,192,72785,128,2,72941:0:0:0:0:
192,192,72941,128,2,73097:0:0:0:0:
64,192,73097,128,8,73253:0:0:0:0:
320,192,73253,128,0,73410:0:0:0:0:
192,192,73410,1,2,0:0:0:0:
448,192,73410,1,0,0:0:0:70:LR_Drum Finish.wav
64,192,73566,1,0,0:0:0:0:
192,192,73722,1,8,0:0:0:0:
320,192,73878,128,0,74191:0:0:0:0:
64,192,74035,1,2,0:0:0:0:
448,192,74191,1,2,0:0:0:0:
320,192,74347,1,8,0:0:0:0:
192,192,74503,1,0,0:0:0:0:
64,192,74660,1,2,0:0:0:0:
448,192,74816,1,2,0:0:0:0:
320,192,74972,1,8,0:0:0:0:
192,192,75128,128,0,75441:0:0:0:0:
448,192,75285,1,2,0:0:0:0:
64,192,75441,1,2,0:0:0:0:
192,192,75597,1,8,0:0:0:0:
320,192,75753,1,0,0:0:0:0:
64,192,75910,1,4,0:0:0:0:
448,192,75910,1,2,0:0:0:0:
64,192,76066,1,4,0:0:0:0:
448,192,76066,1,2,0:0:0:0:
192,192,76378,1,4,0:0:0:0:
448,192,76378,1,2,0:0:0:0:
64,192,76691,1,4,0:0:0:0:
320,192,76691,1,2,0:0:0:0:
192,192,77003,1,4,0:0:0:0:
448,192,77003,1,2,0:0:0:0:
320,192,77316,1,2,0:0:0:0:
448,192,77316,1,4,0:0:0:0:
64,192,77472,1,2,0:0:0:0:
192,192,77472,1,4,0:0:0:0:
448,192,77628,128,8,77785:0:0:0:0:
320,192,77785,128,2,77941:0:0:0:0:
192,192,77941,128,8,78097:0:0:0:0:
64,192,78097,128,2,78253:0:0:0:0:
192,192,78253,1,8,0:0:0:0:
320,192,78331,1,8,0:0:0:0:
448,192,78410,128,4,78722:0:0:0:0:
64,192,78410,1,2,0:0:0:0:
64,192,78722,128,8,79035:0:0:0:0:
448,192,79035,1,2,0:0:0:0:
192,192,79191,1,2,0:0:0:0:
320,192,79347,1,8,0:0:0:0:
320,192,79503,128,2,79816:0:0:0:0:
192,192,79816,1,2,0:0:0:0:
448,192,79972,1,8,0:0:0:0:
64,192,80128,1,0,0:0:0:0:
448,192,80285,1,2,0:0:0:0:
192,192,80441,1,2,0:0:0:0:
320,192,80597,128,8,80910:0:0:0:0:
64,192,80910,128,2,81222:0:0:0:0:
192,192,81066,1,2,0:0:0:0:
320,192,81222,128,8,81535:0:0:0:0:
64,192,81535,1,2,0:0:0:0:
192,192,81691,1,2,0:0:0:0:
320,192,81847,1,8,0:0:0:0:
448,192,82003,128,2,82316:0:0:0:0:
192,192,82316,1,2,0:0:0:0:
320,192,82472,1,8,0:0:0:0:
64,192,82628,1,0,0:0:0:0:
448,192,82785,1,2,0:0:0:0:
320,192,82863,1,0,0:0:0:0:
192,192,82941,1,2,0:0:0:0:
64,192,83097,1,8,0:0:0:0:
192,192,83175,1,0,0:0:0:0:
320,192,83253,1,0,0:0:0:0:
448,192,83410,128,4,83722:0:0:0:0:
64,192,83410,1,2,0:0:0:0:
192,192,83722,128,8,84035:0:0:0:0:
448,192,84035,1,2,0:0:0:0:
320,192,84191,1,2,0:0:0:0:
64,192,84347,1,8,0:0:0:0:
64,192,84503,128,2,84816:0:0:0:0:
320,192,84816,1,2,0:0:0:0:
192,192,84972,1,8,0:0:0:0:
448,192,85128,1,0,0:0:0:0:
192,192,85285,1,2,0:0:0:0:
320,192,85441,1,2,0:0:0:0:
64,192,85597,128,8,85910:0:0:0:0:
320,192,85910,128,2,86222:0:0:0:0:
192,192,86066,1,2,0:0:0:0:
64,192,86222,128,8,86535:0:0:0:0:
320,192,86535,128,2,86847:0:0:0:0:
192,192,86691,1,2,0:0:0:0:
64,192,86847,1,8,0:0:0:0:
320,192,87003,1,2,0:0:0:0:
448,192,87160,128,0,87785:0:0:0:0:
64,192,87316,1,2,0:0:0:0:
192,192,87472,1,8,0:0:0:0:
64,192,87785,128,2,88410:0:0:0:0:
192,192,87941,1,2,0:0:0:0:
320,192,88097,1,8,0:0:0:0:
448,192,88410,128,4,88722:0:0:0:0:
192,192,88410,1,2,0:0:0:0:
320,192,88722,128,8,89035:0:0:0:0:
64,192,89035,1,2,0:0:0:0:
448,192,89191,1,2,0:0:0:0:
192,192,89347,1,8,0:0:0:0:
192,192,89503,128,2,89816:0:0:0:0:
320,192,89816,1,2,0:0:0:0:
64,192,89972,1,8,0:0:0:0:
448,192,90128,1,0,0:0:0:0:
64,192,90285,1,2,0:0:0:0:
320,192,90441,1,2,0:0:0:0:
192,192,90597,128,8,90910:0:0:0:0:
448,192,90910,128,2,91222:0:0:0:0:
320,192,91066,1,2,0:0:0:0:
192,192,91222,128,8,91535:0:0:0:0:
448,192,91535,1,2,0:0:0:0:
320,192,91691,1,2,0:0:0:0:
192,192,91847,1,8,0:0:0:0:
64,192,92003,128,2,92316:0:0:0:0:
448,192,92316,1,2,0:0:0:0:
192,192,92472,1,8,0:0:0:0:
320,192,92628,1,0,0:0:0:0:
64,192,92785,1,2,0:0:0:0:
192,192,92863,1,0,0:0:0:0:
320,192,92941,1,2,0:0:0:0:
448,192,93097,1,8,0:0:0:0:
320,192,93175,1,0,0:0:0:0:
192,192,93253,1,0,0:0:0:0:
64,192,93410,128,2,93722:0:0:0:0:
448,192,93410,1,4,0:0:0:0:
320,192,93722,128,8,94035:0:0:0:0:
64,192,94035,1,2,0:0:0:0:
192,192,94191,1,2,0:0:0:0:
448,192,94347,1,8,0:0:0:0:
448,192,94503,128,2,94816:0:0:0:0:
192,192,94816,1,2,0:0:0:0:
320,192,94972,1,8,0:0:0:0:
64,192,95128,1,0,0:0:0:0:
320,192,95285,1,2,0:0:0:0:
192,192,95441,1,2,0:0:0:0:
448,192,95597,128,8,95910:0:0:0:0:
64,192,95910,128,2,96222:0:0:0:0:
320,192,96066,1,2,0:0:0:0:
448,192,96222,128,8,96535:0:0:0:0:
64,192,96535,128,2,96847:0:0:0:0:
320,192,96691,1,2,0:0:0:0:
448,192,96847,1,8,0:0:0:0:
192,192,97003,1,2,0:0:0:0:
320,192,97160,1,2,0:0:0:0:
320,192,97316,1,2,0:0:0:0:
64,192,97472,1,2,0:0:0:0:
64,192,97628,1,2,0:0:0:0:
448,192,97785,1,2,0:0:0:0:
448,192,97941,1,2,0:0:0:0:
192,192,98097,1,2,0:0:0:0:
192,192,98253,1,2,0:0:0:0:
448,192,98410,128,4,98722:0:0:0:0:
320,192,98410,1,2,0:0:0:0:
64,192,98722,1,8,0:0:0:0:
320,192,99035,1,2,0:0:0:0:
192,192,99191,1,2,0:0:0:0:
448,192,99347,1,8,0:0:0:0:
64,192,99503,128,2,99972:0:0:0:0:
448,192,99816,1,2,0:0:0:0:
320,192,99972,1,8,0:0:0:0:
64,192,100285,1,2,0:0:0:0:
192,192,100441,1,2,0:0:0:0:
448,192,100597,1,8,0:0:0:0:
320,192,100753,128,0,101222:0:0:0:0:
64,192,100910,1,2,0:0:0:0:
192,192,101066,1,2,0:0:0:0:
64,192,101222,1,8,0:0:0:0:
448,192,101535,1,2,0:0:0:0:
192,192,101691,1,2,0:0:0:0:
64,192,101847,1,8,0:0:0:0:
448,192,102003,128,2,102316:0:0:0:0:
192,192,102316,1,2,0:0:0:0:
320,192,102472,1,8,0:0:0:0:
448,192,102628,1,0,0:0:0:0:
64,192,102785,1,2,0:0:0:0:
192,192,102941,1,2,0:0:0:0:
448,192,103097,1,8,0:0:0:0:
320,192,103253,1,0,0:0:0:0:
64,192,103410,128,2,103722:0:0:0:0:
192,192,103410,1,4,0:0:0:0:
448,192,103722,1,8,0:0:0:0:
320,192,104035,1,2,0:0:0:0:
64,192,104191,1,2,0:0:0:0:
192,192,104347,1,8,0:0:0:0:
448,192,104503,128,2,104972:0:0:0:0:
320,192,104816,1,2,0:0:0:0:
64,192,104972,1,8,0:0:0:0:
448,192,105285,1,2,0:0:0:0:
320,192,105441,1,2,0:0:0:0:
64,192,105597,1,8,0:0:0:0:
192,192,105753,128,0,106222:0:0:0:0:
448,192,105910,1,2,0:0:0:0:
320,192,106066,1,2,0:0:0:0:
448,192,106222,1,8,0:0:0:0:
320,192,106535,1,2,0:0:0:0:
192,192,106691,1,2,0:0:0:0:
320,192,106847,1,8,0:0:0:0:
64,192,107003,128,2,107316:0:0:0:0:
192,192,107316,1,2,0:0:0:0:
320,192,107472,1,8,0:0:0:0:
448,192,107628,128,0,108410:0:0:0:0:
64,192,107785,1,2,0:0:0:0:
320,192,107941,1,2,0:0:0:0:
192,192,108097,1,8,0:0:0:0:
320,192,108410,128,4,108878:0:0:0:0:
64,192,108410,1,2,0:0:0:0:
64,192,108722,1,8,0:0:0:0:
192,192,108878,128,0,109347:0:0:0:0:
448,192,109035,1,2,0:0:0:0:
320,192,109191,1,2,0:0:0:0:
64,192,109347,128,8,109660:0:0:0:0:
448,192,109503,1,2,0:0:0:0:
320,192,109660,128,0,109816:0:0:0:0:
448,192,109816,128,2,109972:0:0:0:0:
192,192,109972,128,8,110128:0:0:0:0:
64,192,110285,1,2,0:0:0:0:
448,192,110441,1,2,0:0:0:0:
192,192,110597,1,8,0:0:0:0:
320,192,110753,1,0,0:0:0:0:
64,192,110910,128,2,111222:0:0:0:0:
320,192,111066,1,2,0:0:0:0:
448,192,111222,1,8,0:0:0:0:
192,192,111378,128,0,111535:0:0:0:0:
64,192,111535,1,2,0:0:0:0:
320,192,111691,128,2,111847:0:0:0:0:
192,192,111847,1,8,0:0:0:0:
448,192,112003,128,2,112941:0:0:0:0:
64,192,112316,1,2,0:0:0:0:
320,192,112472,1,8,0:0:0:0:
64,192,112785,1,2,0:0:0:0:
320,192,112941,1,2,0:0:0:0:
192,192,113097,1,8,0:0:0:0:
64,192,113253,1,0,0:0:0:0:
448,192,113410,1,4,0:0:0:0:
320,192,113410,1,2,0:0:0:0:
192,192,113566,1,0,0:0:0:0:
320,192,113722,1,8,0:0:0:0:
64,192,113878,1,0,0:0:0:0:
192,192,114035,1,2,0:0:0:0:
448,192,114191,1,2,0:0:0:0:
320,192,114347,1,8,0:0:0:0:
64,192,114503,1,2,0:0:0:0:
192,192,114503,1,4,0:0:0:0:
64,192,114816,1,2,0:0:0:0:
192,192,114816,1,4,0:0:0:0:
320,192,114972,1,2,0:0:0:0:
448,192,114972,1,4,0:0:0:0:
192,192,115910,1,6,0:0:0:0:
192,192,116066,1,0,0:0:0:0:
320,192,116222,1,8,0:0:0:0:
448,192,116222,1,0,0:0:0:0:
64,192,116378,1,0,0:0:0:0:
448,192,116535,1,2,0:0:0:0:
320,192,116691,1,2,0:0:0:0:
64,192,116847,1,8,0:0:0:0:
192,192,116847,1,0,0:0:0:0:
448,192,117003,1,0,0:0:0:0:
320,192,117160,1,2,0:0:0:0:
64,192,117316,1,2,0:0:0:0:
192,192,117472,1,8,0:0:0:0:
448,192,117472,1,0,0:0:0:0:
320,192,117628,1,0,0:0:0:0:
64,192,117785,1,2,0:0:0:0:
320,192,117941,1,2,0:0:0:0:
64,192,118097,1,8,0:0:0:0:
448,192,118097,1,0,0:0:0:0:
192,192,118253,1,0,0:0:0:0:
320,192,118410,1,2,0:0:0:0:
320,192,118566,1,2,0:0:0:0:
64,192,118722,1,8,0:0:0:0:
192,192,118722,1,0,0:0:0:0:
448,192,118878,1,0,0:0:0:0:
320,192,119035,1,2,0:0:0:0:
64,192,119191,1,2,0:0:0:0:
192,192,119347,1,8,0:0:0:0:
320,192,119347,1,0,0:0:0:0:
448,192,119503,1,0,0:0:0:0:
64,192,119660,128,2,119816:0:0:0:0:
192,192,119816,128,2,119972:0:0:0:0:
320,192,119972,128,8,120128:0:0:0:0:
448,192,120128,128,0,120441:0:0:0:0:
192,192,120285,1,2,0:0:0:0:
64,192,120441,128,2,120597:0:0:0:0:
320,192,120597,128,8,120753:0:0:0:0:
192,192,120753,128,0,120910:0:0:0:0:
64,192,120910,1,2,0:0:0:0:
448,192,120910,1,4,0:0:0:0:
448,192,121066,1,0,0:0:0:0:
64,192,121222,1,8,0:0:0:0:
320,192,121222,1,0,0:0:0:0:
192,192,121378,1,0,0:0:0:0:
448,192,121535,1,2,0:0:0:0:
64,192,121691,1,2,0:0:0:0:
320,192,121847,1,8,0:0:0:0:
448,192,121847,1,0,0:0:0:0:
192,192,122003,1,0,0:0:0:0:
64,192,122160,1,2,0:0:0:0:
320,192,122316,1,2,0:0:0:0:
192,192,122472,1,8,0:0:0:0:
448,192,122472,1,0,0:0:0:0:
64,192,122628,1,0,0:0:0:0:
320,192,122785,1,2,0:0:0:0:
192,192,122941,1,2,0:0:0:0:
64,192,123097,1,8,0:0:0:0:
448,192,123097,1,0,0:0:0:0:
320,192,123253,1,0,0:0:0:0:
192,192,123410,1,2,0:0:0:0:
192,192,123566,1,2,0:0:0:0:
320,192,123722,1,8,0:0:0:0:
448,192,123722,1,0,0:0:0:0:
64,192,123878,1,0,0:0:0:0:
192,192,124035,1,2,0:0:0:0:
448,192,124191,1,2,0:0:0:0:
64,192,124347,1,8,0:0:0:0:
320,192,124347,1,0,0:0:0:0:
192,192,124503,1,0,0:0:0:0:
448,192,124660,128,2,124816:0:0:0:0:
192,192,124816,128,2,124972:0:0:0:0:
320,192,124972,128,8,125128:0:0:0:0:
64,192,125128,128,0,125441:0:0:0:0:
448,192,125285,1,2,0:0:0:0:
192,192,125441,128,2,125597:0:0:0:0:
320,192,125597,128,8,125910:0:0:0:0:
64,192,125910,1,2,0:0:0:0:
448,192,125910,1,4,0:0:0:0:
64,192,126066,1,0,0:0:0:0:
192,192,126222,1,8,0:0:0:0:
448,192,126222,1,0,0:0:0:0:
320,192,126378,1,0,0:0:0:0:
64,192,126535,1,2,0:0:0:0:
448,192,126691,1,2,0:0:0:0:
192,192,126847,1,8,0:0:0:0:
320,192,126847,1,0,0:0:0:0:
64,192,127003,1,0,0:0:0:0:
320,192,127160,1,2,0:0:0:0:
320,192,127316,1,2,0:0:0:0:
64,192,127472,1,8,0:0:0:0:
192,192,127472,1,0,0:0:0:0:
448,192,127628,1,0,0:0:0:0:
320,192,127785,1,2,0:0:0:0:
192,192,127941,1,2,0:0:0:0:
64,192,128097,1,8,0:0:0:0:
448,192,128097,1,0,0:0:0:0:
320,192,128253,1,0,0:0:0:0:
192,192,128410,1,2,0:0:0:0:
192,192,128566,1,2,0:0:0:0:
320,192,128722,1,8,0:0:0:0:
448,192,128722,1,0,0:0:0:0:
64,192,128878,1,0,0:0:0:0:
192,192,129035,1,2,0:0:0:0:
448,192,129191,1,2,0:0:0:0:
64,192,129347,1,8,0:0:0:0:
320,192,129347,1,0,0:0:0:0:
192,192,129503,1,0,0:0:0:0:
448,192,129660,128,2,129816:0:0:0:0:
320,192,129816,128,2,129972:0:0:0:0:
192,192,129972,128,8,130128:0:0:0:0:
64,192,130128,128,0,130441:0:0:0:0:
320,192,130285,1,2,0:0:0:0:
448,192,130441,128,2,130597:0:0:0:0:
192,192,130597,128,8,130753:0:0:0:0:
320,192,130753,128,0,130910:0:0:0:0:
64,192,130910,1,2,0:0:0:0:
448,192,130910,1,4,0:0:0:0:
64,192,131066,1,0,0:0:0:0:
192,192,131222,1,8,0:0:0:0:
320,192,131222,1,0,0:0:0:0:
320,192,131378,1,0,0:0:0:0:
64,192,131535,1,2,0:0:0:0:
192,192,131691,1,2,0:0:0:0:
320,192,131847,1,8,0:0:0:0:
448,192,131847,1,0,0:0:0:0:
64,192,132003,1,0,0:0:0:0:
448,192,132160,1,2,0:0:0:0:
448,192,132316,1,2,0:0:0:0:
192,192,132472,1,8,0:0:0:0:
320,192,132472,1,0,0:0:0:0:
192,192,132628,1,0,0:0:0:0:
448,192,132785,1,2,0:0:0:0:
320,192,132941,1,2,0:0:0:0:
64,192,133097,1,8,0:0:0:0:
192,192,133097,1,0,0:0:0:0:
448,192,133253,1,0,0:0:0:0:
64,192,133410,1,2,0:0:0:0:
64,192,133566,1,2,0:0:0:0:
192,192,133722,1,8,0:0:0:0:
448,192,133722,1,0,0:0:0:0:
448,192,133878,1,0,0:0:0:0:
320,192,134035,1,2,0:0:0:0:
64,192,134191,1,2,0:0:0:0:
192,192,134347,1,8,0:0:0:0:
448,192,134347,1,0,0:0:0:0:
320,192,134503,1,0,0:0:0:0:
192,192,134660,128,2,134816:0:0:0:0:
64,192,134816,128,2,134972:0:0:0:0:
320,192,134972,128,8,135128:0:0:0:0:
448,192,135128,128,0,135597:0:0:0:0:
64,192,135285,1,2,0:0:0:0:
320,192,135441,1,2,0:0:0:0:
192,192,135597,128,8,135910:0:0:0:0:
64,192,135910,128,2,136535:0:0:0:0:
448,192,135910,1,4,0:0:0:0:
320,192,136222,1,8,0:0:0:0:
448,192,136535,128,2,136691:0:0:0:0:
320,192,136691,128,2,136847:0:0:0:0:
64,192,136847,128,8,137003:0:0:0:0:
192,192,137003,128,0,137160:0:0:0:0:
448,192,137160,128,2,137472:0:0:0:0:
320,192,137316,1,2,0:0:0:0:
64,192,137472,128,8,137785:0:0:0:0:
320,192,137785,128,2,138097:0:0:0:0:
448,192,137941,1,2,0:0:0:0:
192,192,138097,128,8,138410:0:0:0:0:
448,192,138410,128,2,138722:0:0:0:0:
64,192,138566,1,2,0:0:0:0:
320,192,138722,128,8,139035:0:0:0:0:
64,192,139035,128,2,139347:0:0:0:0:
448,192,139191,1,2,0:0:0:0:
192,192,139347,128,8,139660:0:0:0:0:
448,192,139660,128,2,139972:0:0:0:0:
64,192,139816,1,2,0:0:0:0:
320,192,139972,128,8,140128:0:0:0:0:
192,192,140128,128,0,140910:0:0:0:0:
448,192,140285,1,2,0:0:0:0:
64,192,140441,1,2,0:0:0:0:
320,192,140597,1,8,0:0:0:0:
64,192,140910,1,2,0:0:0:0:
448,192,140910,128,4,142160:0:0:0:0:
320,192,141222,1,8,0:0:0:0:
64,192,141535,1,2,0:0:0:0:
320,192,141691,1,2,0:0:0:0:
192,192,141847,1,8,0:0:0:0:
192,192,142160,128,2,142472:0:0:0:0:
64,192,142316,1,2,0:0:0:0:
320,192,142472,128,8,142628:0:0:0:0:
448,192,142628,128,0,142941:0:0:0:0:
192,192,142785,1,2,0:0:0:0:
64,192,142941,128,2,143410:0:0:0:0:
320,192,143097,1,8,0:0:0:0:
192,192,143410,128,2,144347:0:0:0:0:
448,192,143566,1,2,0:0:0:0:
64,192,143722,1,8,0:0:0:0:
448,192,144035,1,2,0:0:0:0:
64,192,144191,1,2,0:0:0:0:
320,192,144347,128,8,144503:0:0:0:0:
448,192,144503,128,0,145597:0:0:0:0:
64,192,144660,1,8,0:0:0:0:
192,192,144816,1,2,0:0:0:0:
320,192,144972,1,2,0:0:0:0:
64,192,145128,1,8,0:0:0:0:
320,192,145285,1,2,0:0:0:0:
192,192,145441,1,2,0:0:0:0:
64,192,145597,1,8,0:0:0:0:
320,192,145753,128,0,145910:0:0:0:0:
64,192,145910,1,2,0:0:0:0:
448,192,145910,1,0,0:0:0:70:LR_Drum Finish.wav
192,192,146066,1,0,0:0:0:0:
320,192,146222,1,8,0:0:0:0:
192,192,146378,1,0,0:0:0:0:
448,192,146535,1,2,0:0:0:0:
320,192,146691,1,2,0:0:0:0:
64,192,146847,1,8,0:0:0:0:
192,192,147003,1,0,0:0:0:0:
448,192,147160,1,2,0:0:0:0:
320,192,147316,1,2,0:0:0:0:
192,192,147472,1,8,0:0:0:0:
320,192,147628,1,0,0:0:0:0:
64,192,147785,1,2,0:0:0:0:
192,192,147941,1,2,0:0:0:0:
320,192,148097,1,8,0:0:0:0:
448,192,148253,1,0,0:0:0:0:
192,192,148410,1,2,0:0:0:0:
320,192,148566,1,2,0:0:0:0:
64,192,148722,1,8,0:0:0:0:
192,192,148878,1,0,0:0:0:0:
448,192,149035,1,2,0:0:0:0:
320,192,149191,1,2,0:0:0:0:
192,192,149347,1,8,0:0:0:0:
64,192,149503,128,2,149816:0:0:0:0:
448,192,149816,1,2,0:0:0:0:
192,192,149972,128,8,150128:0:0:0:0:
448,192,150128,128,0,150285:0:0:0:0:
320,192,150285,128,2,150441:0:0:0:0:
64,192,150441,128,2,150597:0:0:0:0:
320,192,150597,128,8,150753:0:0:0:0:
192,192,150753,128,0,150910:0:0:0:0:
64,192,150910,1,2,0:0:0:0:
448,192,150910,1,0,0:0:0:70:LR_Drum Finish.wav
320,192,151066,1,0,0:0:0:0:
192,192,151222,1,8,0:0:0:0:
320,192,151378,1,0,0:0:0:0:
64,192,151535,1,2,0:0:0:0:
192,192,151691,1,2,0:0:0:0:
448,192,151847,1,8,0:0:0:0:
320,192,152003,1,0,0:0:0:0:
64,192,152160,1,2,0:0:0:0:
192,192,152316,1,2,0:0:0:0:
320,192,152472,1,8,0:0:0:0:
192,192,152628,1,0,0:0:0:0:
448,192,152785,1,2,0:0:0:0:
320,192,152941,1,2,0:0:0:0:
192,192,153097,1,8,0:0:0:0:
64,192,153253,1,0,0:0:0:0:
320,192,153410,1,2,0:0:0:0:
192,192,153566,1,2,0:0:0:0:
448,192,153722,1,8,0:0:0:0:
320,192,153878,1,0,0:0:0:0:
64,192,154035,1,2,0:0:0:0:
192,192,154191,1,2,0:0:0:0:
320,192,154347,1,8,0:0:0:0:
448,192,154503,128,2,154816:0:0:0:0:
192,192,154816,1,2,0:0:0:0:
320,192,154972,128,8,155128:0:0:0:0:
64,192,155128,128,0,155285:0:0:0:0:
448,192,155285,128,2,155441:0:0:0:0:
64,192,155441,128,2,155597:0:0:0:0:
320,192,155597,128,8,155753:0:0:0:0:
192,192,155753,128,0,155910:0:0:0:0:
64,192,155910,1,2,0:0:0:0:
448,192,155910,128,0,156066:0:0:0:70:LR_Drum Finish.wav
320,192,156066,128,0,156222:0:0:0:0:
192,192,156222,128,8,156378:0:0:0:0:
64,192,156378,128,0,156535:0:0:0:0:
448,192,156535,128,2,156691:0:0:0:0:
320,192,156691,128,2,156847:0:0:0:0:
64,192,156847,128,8,157003:0:0:0:0:
192,192,157003,128,0,157160:0:0:0:0:
448,192,157160,128,2,157316:0:0:0:0:
64,192,157316,128,2,157472:0:0:0:0:
320,192,157472,128,8,157628:0:0:0:0:
192,192,157628,128,0,157785:0:0:0:0:
448,192,157785,128,2,157941:0:0:0:0:
192,192,157941,128,2,158097:0:0:0:0:
320,192,158097,128,8,158253:0:0:0:0:
64,192,158253,128,0,158410:0:0:0:0:
448,192,158410,128,2,158566:0:0:0:0:
320,192,158566,128,2,158722:0:0:0:0:
64,192,158722,128,8,158878:0:0:0:0:
192,192,158878,128,0,159035:0:0:0:0:
448,192,159035,128,2,159191:0:0:0:0:
320,192,159191,128,2,159347:0:0:0:0:
192,192,159347,128,8,159503:0:0:0:0:
64,192,159503,128,2,159816:0:0:0:0:
320,192,159816,1,2,0:0:0:0:
192,192,159972,128,8,160128:0:0:0:0:
448,192,160128,128,0,160285:0:0:0:0:
64,192,160285,128,2,160441:0:0:0:0:
320,192,160441,128,2,160597:0:0:0:0:
448,192,160597,128,8,160753:0:0:0:0:
192,192,160753,128,0,160910:0:0:0:0:
64,192,160910,1,2,0:0:0:0:
320,192,160910,1,0,0:0:0:70:LR_Drum Finish.wav
448,192,161066,1,0,0:0:0:0:
320,192,161222,1,8,0:0:0:0:
192,192,161378,128,0,161691:0:0:0:0:
448,192,161535,1,2,0:0:0:0:
64,192,161691,1,2,0:0:0:0:
192,192,161847,1,8,0:0:0:0:
320,192,162003,1,0,0:0:0:0:
448,192,162160,1,2,0:0:0:0:
64,192,162316,1,2,0:0:0:0:
192,192,162472,1,8,0:0:0:0:
320,192,162628,128,0,162941:0:0:0:0:
64,192,162785,1,2,0:0:0:0:
448,192,162941,1,2,0:0:0:0:
320,192,163097,1,8,0:0:0:0:
192,192,163253,1,0,0:0:0:0:
64,192,163410,1,4,0:0:0:0:
448,192,163410,1,2,0:0:0:0:
64,192,163566,1,4,0:0:0:0:
448,192,163566,1,2,0:0:0:0:
64,192,163878,1,4,0:0:0:0:
320,192,163878,1,2,0:0:0:0:
192,192,164191,1,4,0:0:0:0:
448,192,164191,1,2,0:0:0:0:
64,192,164503,1,4,0:0:0:0:
320,192,164503,1,2,0:0:0:0:
64,192,164816,1,2,0:0:0:0:
192,192,164816,1,4,0:0:0:0:
320,192,164972,1,2,0:0:0:0:
448,192,164972,1,4,0:0:0:0:
64,192,165128,128,8,165285:0:0:0:0:
192,192,165285,128,2,165441:0:0:0:0:
320,192,165441,128,8,165597:0:0:0:0:
448,192,165597,128,2,165753:0:0:0:0:
320,192,165753,1,8,0:0:0:0:
192,192,165831,1,8,0:0:0:0:
64,192,165910,128,2,166222:0:0:0:0:
448,192,165910,1,4,0:0:0:0:
448,192,166222,128,8,166535:0:0:0:0:
64,192,166535,1,2,0:0:0:0:
320,192,166691,1,2,0:0:0:0:
192,192,166847,1,8,0:0:0:0:
192,192,167003,128,2,167316:0:0:0:0:
320,192,167316,1,2,0:0:0:0:
64,192,167472,1,8,0:0:0:0:
448,192,167628,1,0,0:0:0:0:
64,192,167785,1,2,0:0:0:0:
320,192,167941,1,2,0:0:0:0:
192,192,168097,128,8,168410:0:0:0:0:
320,192,168410,128,2,168722:0:0:0:0:
64,192,168566,1,2,0:0:0:0:
192,192,168722,128,8,169035:0:0:0:0:
320,192,169035,1,2,0:0:0:0:
64,192,169191,1,2,0:0:0:0:
192,192,169347,1,8,0:0:0:0:
448,192,169503,128,2,169816:0:0:0:0:
320,192,169816,1,2,0:0:0:0:
192,192,169972,1,8,0:0:0:0:
64,192,170128,1,0,0:0:0:0:
448,192,170285,1,2,0:0:0:0:
320,192,170363,1,0,0:0:0:0:
192,192,170441,1,2,0:0:0:0:
64,192,170597,1,8,0:0:0:0:
192,192,170675,1,0,0:0:0:0:
320,192,170753,1,0,0:0:0:0:
64,192,170910,128,2,171222:0:0:0:0:
448,192,170910,1,4,0:0:0:0:
192,192,171222,128,8,171535:0:0:0:0:
320,192,171535,1,2,0:0:0:0:
64,192,171691,1,2,0:0:0:0:
448,192,171847,1,8,0:0:0:0:
448,192,172003,128,2,172316:0:0:0:0:
192,192,172316,1,2,0:0:0:0:
320,192,172472,1,8,0:0:0:0:
64,192,172628,1,0,0:0:0:0:
320,192,172785,1,2,0:0:0:0:
192,192,172941,1,2,0:0:0:0:
448,192,173097,128,8,173410:0:0:0:0:
192,192,173410,128,2,173722:0:0:0:0:
320,192,173566,1,2,0:0:0:0:
448,192,173722,128,8,174035:0:0:0:0:
192,192,174035,128,2,174347:0:0:0:0:
320,192,174191,1,2,0:0:0:0:
448,192,174347,1,8,0:0:0:0:
192,192,174503,1,2,0:0:0:0:
64,192,174660,128,0,175285:0:0:0:0:
448,192,174816,1,2,0:0:0:0:
320,192,174972,1,8,0:0:0:0:
448,192,175285,128,2,175910:0:0:0:0:
320,192,175441,1,2,0:0:0:0:
192,192,175597,1,8,0:0:0:0:
320,192,175910,128,4,176222:0:0:0:0:
64,192,175910,1,2,0:0:0:0:
192,192,176222,128,8,176535:0:0:0:0:
448,192,176535,1,2,0:0:0:0:
320,192,176691,1,2,0:0:0:0:
64,192,176847,1,8,0:0:0:0:
64,192,177003,128,2,177316:0:0:0:0:
320,192,177316,1,2,0:0:0:0:
192,192,177472,1,8,0:0:0:0:
448,192,177628,1,0,0:0:0:0:
192,192,177785,1,2,0:0:0:0:
320,192,177941,1,2,0:0:0:0:
64,192,178097,128,8,178410:0:0:0:0:
448,192,178410,128,2,178722:0:0:0:0:
192,192,178566,1,2,0:0:0:0:
64,192,178722,128,8,179035:0:0:0:0:
448,192,179035,1,2,0:0:0:0:
192,192,179191,1,2,0:0:0:0:
320,192,179347,1,8,0:0:0:0:
448,192,179503,128,2,179816:0:0:0:0:
192,192,179816,1,2,0:0:0:0:
320,192,179972,1,8,0:0:0:0:
64,192,180128,1,0,0:0:0:0:
192,192,180285,1,2,0:0:0:0:
320,192,180363,1,0,0:0:0:0:
448,192,180441,1,2,0:0:0:0:
320,192,180597,1,8,0:0:0:0:
192,192,180675,1,0,0:0:0:0:
64,192,180753,1,0,0:0:0:0:
448,192,180910,128,4,181222:0:0:0:0:
320,192,180910,1,2,0:0:0:0:
64,192,181222,128,8,181535:0:0:0:0:
448,192,181535,1,2,0:0:0:0:
192,192,181691,1,2,0:0:0:0:
320,192,181847,1,8,0:0:0:0:
320,192,182003,128,2,182316:0:0:0:0:
192,192,182316,1,2,0:0:0:0:
448,192,182472,1,8,0:0:0:0:
64,192,182628,1,0,0:0:0:0:
448,192,182785,1,2,0:0:0:0:
192,192,182941,1,2,0:0:0:0:
320,192,183097,128,8,183410:0:0:0:0:
64,192,183410,128,2,183722:0:0:0:0:
192,192,183566,1,2,0:0:0:0:
320,192,183722,128,8,184035:0:0:0:0:
64,192,184035,128,2,184347:0:0:0:0:
192,192,184191,1,2,0:0:0:0:
448,192,184347,1,8,0:0:0:0:
320,192,184503,1,2,0:0:0:0:
192,192,184660,1,2,0:0:0:0:
192,192,184816,1,2,0:0:0:0:
448,192,184972,1,2,0:0:0:0:
448,192,185128,1,2,0:0:0:0:
64,192,185285,1,2,0:0:0:0:
64,192,185441,1,2,0:0:0:0:
320,192,185597,1,2,0:0:0:0:
320,192,185753,1,2,0:0:0:0:
64,192,185910,128,2,186222:0:0:0:0:
192,192,185910,1,4,0:0:0:0:
448,192,186222,1,8,0:0:0:0:
192,192,186535,1,2,0:0:0:0:
320,192,186691,1,2,0:0:0:0:
64,192,186847,1,8,0:0:0:0:
448,192,187003,128,2,187472:0:0:0:0:
320,192,187316,1,2,0:0:0:0:
192,192,187472,1,8,0:0:0:0:
64,192,187785,1,2,0:0:0:0:
192,192,187941,1,2,0:0:0:0:
320,192,188097,1,8,0:0:0:0:
192,192,188253,128,0,188722:0:0:0:0:
448,192,188410,1,2,0:0:0:0:
320,192,188566,1,2,0:0:0:0:
448,192,188722,1,8,0:0:0:0:
64,192,189035,1,2,0:0:0:0:
320,192,189191,1,2,0:0:0:0:
192,192,189347,1,8,0:0:0:0:
64,192,189503,128,2,189816:0:0:0:0:
320,192,189816,1,2,0:0:0:0:
192,192,189972,1,8,0:0:0:0:
448,192,190128,1,0,0:0:0:0:
320,192,190285,1,2,0:0:0:0:
64,192,190441,1,2,0:0:0:0:
192,192,190597,1,8,0:0:0:0:
320,192,190753,1,0,0:0:0:0:
448,192,190910,128,4,191222:0:0:0:0:
64,192,190910,1,2,0:0:0:0:
192,192,191222,1,8,0:0:0:0:
320,192,191535,1,2,0:0:0:0:
192,192,191691,1,2,0:0:0:0:
320,192,191847,1,8,0:0:0:0:
64,192,192003,128,2,192472:0:0:0:0:
448,192,192316,1,2,0:0:0:0:
192,192,192472,1,8,0:0:0:0:
320,192,192785,1,2,0:0:0:0:
448,192,192941,1,2,0:0:0:0:
192,192,193097,1,8,0:0:0:0:
320,192,193253,128,0,193722:0:0:0:0:
64,192,193410,1,2,0:0:0:0:
192,192,193566,1,2,0:0:0:0:
64,192,193722,1,8,0:0:0:0:
448,192,194035,1,2,0:0:0:0:
192,192,194191,1,2,0:0:0:0:
320,192,194347,1,8,0:0:0:0:
448,192,194503,128,2,194816:0:0:0:0:
64,192,194816,1,2,0:0:0:0:
192,192,194972,1,8,0:0:0:0:
320,192,195128,128,0,195910:0:0:0:0:
448,192,195285,1,2,0:0:0:0:
64,192,195441,1,2,0:0:0:0:
192,192,195597,1,8,0:0:0:0:
64,192,195910,128,2,196378:0:0:0:0:
448,192,195910,1,4,0:0:0:0:
320,192,196222,1,8,0:0:0:0:
192,192,196378,128,0,196847:0:0:0:0:
448,192,196535,1,2,0:0:0:0:
64,192,196691,1,2,0:0:0:0:
320,192,196847,128,8,197160:0:0:0:0:
192,192,197003,1,2,0:0:0:0:
448,192,197160,128,0,197316:0:0:0:0:
64,192,197316,1,2,0:0:0:0:
192,192,197472,128,8,197628:0:0:0:0:
448,192,197785,1,2,0:0:0:0:
320,192,197941,1,2,0:0:0:0:
64,192,198097,1,8,0:0:0:0:
192,192,198253,1,0,0:0:0:0:
320,192,198410,128,2,198722:0:0:0:0:
448,192,198566,1,2,0:0:0:0:
192,192,198722,1,8,0:0:0:0:
64,192,198878,128,0,199035:0:0:0:0:
448,192,199035,1,2,0:0:0:0:
192,192,199191,128,2,199347:0:0:0:0:
320,192,199347,1,8,0:0:0:0:
448,192,199503,128,2,200441:0:0:0:0:
320,192,199816,1,2,0:0:0:0:
64,192,199972,1,8,0:0:0:0:
192,192,200285,1,2,0:0:0:0:
64,192,200441,1,2,0:0:0:0:
320,192,200597,1,8,0:0:0:0:
192,192,200753,1,0,0:0:0:0:
448,192,200910,1,4,0:0:0:0:
320,192,200910,1,2,0:0:0:0:
64,192,201066,1,0,0:0:0:0:
192,192,201222,1,8,0:0:0:0:
448,192,201378,1,0,0:0:0:0:
320,192,201535,1,2,0:0:0:0:
64,192,201691,1,2,0:0:0:0:
192,192,201847,1,8,0:0:0:0:
320,192,202003,1,2,0:0:0:0:
448,192,202003,1,4,0:0:0:0:
320,192,202316,1,2,0:0:0:0:
448,192,202316,1,4,0:0:0:0:
64,192,202472,1,2,0:0:0:0:
192,192,202472,1,4,0:0:0:0:
64,192,203410,1,2,0:0:0:0:
448,192,203410,1,4,0:0:0:0:
192,192,203566,1,0,0:0:0:0:
64,192,203878,1,2,0:0:0:0:
192,192,204035,1,8,0:0:0:0:
448,192,204035,1,0,0:0:0:0:
320,192,204191,1,0,0:0:0:0:
448,192,204503,1,2,0:0:0:0:
64,192,204660,1,2,0:0:0:0:
320,192,204660,1,0,0:0:0:0:
192,192,204816,1,0,0:0:0:0:
448,192,205128,128,0,205441:0:0:0:0:
320,192,205441,128,0,205597:0:0:0:0:
192,192,205597,128,0,205753:0:0:0:0:
64,192,205910,1,2,0:0:0:0:
448,192,205910,1,4,0:0:0:0:
320,192,206066,1,0,0:0:0:0:
448,192,206378,1,2,0:0:0:0:
64,192,206535,1,8,0:0:0:0:
320,192,206535,1,0,0:0:0:0:
192,192,206691,1,0,0:0:0:0:
64,192,207003,1,2,0:0:0:0:
192,192,207160,1,2,0:0:0:0:
448,192,207160,1,0,0:0:0:0:
320,192,207316,1,0,0:0:0:0:
64,192,207628,128,0,207941:0:0:0:0:
192,192,207941,128,0,208097:0:0:0:0:
320,192,208097,128,0,208253:0:0:0:0:
64,192,208410,1,2,0:0:0:0:
448,192,208410,1,4,0:0:0:0:
192,192,208566,1,0,0:0:0:0:
448,192,208878,1,2,0:0:0:0:
64,192,209035,1,8,0:0:0:0:
192,192,209035,1,0,0:0:0:0:
320,192,209191,1,0,0:0:0:0:
64,192,209503,1,2,0:0:0:0:
320,192,209660,1,2,0:0:0:0:
448,192,209660,1,0,0:0:0:0:
192,192,209816,1,0,0:0:0:0:
448,192,210128,128,0,210441:0:0:0:0:
192,192,210441,128,0,210597:0:0:0:0:
320,192,210597,128,0,210753:0:0:0:0:
64,192,210910,1,2,0:0:0:0:
448,192,210910,1,4,0:0:0:0:
192,192,211066,1,0,0:0:0:0:
320,192,211222,1,0,0:0:0:0:
64,192,211378,1,2,0:0:0:0:
192,192,211535,1,8,0:0:0:0:
448,192,211535,1,0,0:0:0:0:
320,192,211691,1,0,0:0:0:0:
64,192,211847,1,0,0:0:0:0:
192,192,212003,1,2,0:0:0:0:
64,192,212160,1,2,0:0:0:0:
448,192,212160,1,0,0:0:0:0:
320,192,212316,1,0,0:0:0:0:
192,192,212472,1,2,0:0:0:0:
448,192,212628,1,0,0:0:0:0:
64,192,212785,1,8,0:0:0:0:
320,192,212785,1,0,0:0:0:0:
192,192,212941,1,0,0:0:0:0:
448,192,213097,1,8,0:0:0:0:
320,192,213175,1,8,0:0:0:0:
192,192,213253,1,8,0:0:0:0:
64,192,213331,1,8,0:0:0:0:
320,192,213410,1,2,0:0:0:0:
448,192,213410,1,4,0:0:0:0:
192,192,213722,1,8,0:0:0:0:
448,192,213722,1,0,0:0:0:0:
64,192,214035,1,2,0:0:0:0:
192,192,214191,1,2,0:0:0:0:
320,192,214347,1,8,0:0:0:0:
448,192,214347,1,0,0:0:0:0:
192,192,214660,1,2,0:0:0:0:
448,192,214816,1,2,0:0:0:0:
64,192,214972,1,8,0:0:0:0:
320,192,214972,1,0,0:0:0:0:
192,192,215128,1,0,0:0:0:0:
448,192,215285,1,2,0:0:0:0:
64,192,215441,1,2,0:0:0:0:
192,192,215597,1,8,0:0:0:0:
320,192,215597,1,0,0:0:0:0:
448,192,215910,1,2,0:0:0:0:
192,192,216066,1,2,0:0:0:0:
64,192,216222,1,8,0:0:0:0:
320,192,216222,1,0,0:0:0:0:
448,192,216535,1,2,0:0:0:0:
192,192,216691,1,2,0:0:0:0:
320,192,216847,1,8,0:0:0:0:
448,192,216847,1,0,0:0:0:0:
64,192,217160,1,2,0:0:0:0:
320,192,217316,1,2,0:0:0:0:
192,192,217472,1,8,0:0:0:0:
448,192,217472,1,0,0:0:0:0:
64,192,217628,1,0,0:0:0:0:
448,192,217785,1,2,0:0:0:0:
320,192,217941,1,2,0:0:0:0:
64,192,218097,1,8,0:0:0:0:
192,192,218097,1,0,0:0:0:0:
64,192,218410,1,2,0:0:0:0:
448,192,218410,1,4,0:0:0:0:
192,192,218722,1,8,0:0:0:0:
320,192,218722,1,0,0:0:0:0:
64,192,219035,1,2,0:0:0:0:
192,192,219191,1,2,0:0:0:0:
320,192,219347,1,8,0:0:0:0:
448,192,219347,1,0,0:0:0:0:
64,192,219660,1,2,0:0:0:0:
320,192,219816,1,2,0:0:0:0:
64,192,219972,1,8,0:0:0:0:
192,192,219972,1,0,0:0:0:0:
448,192,220128,1,0,0:0:0:0:
320,192,220285,1,2,0:0:0:0:
192,192,220441,1,2,0:0:0:0:
64,192,220597,1,8,0:0:0:0:
448,192,220597,1,0,0:0:0:0:
320,192,220910,1,2,0:0:0:0:
64,192,221066,1,2,0:0:0:0:
192,192,221222,1,8,0:0:0:0:
448,192,221222,1,0,0:0:0:0:
320,192,221535,1,2,0:0:0:0:
192,192,221691,1,2,0:0:0:0:
64,192,221847,1,8,0:0:0:0:
448,192,221847,1,0,0:0:0:0:
320,192,222160,1,0,0:0:0:0:
64,192,222316,1,0,0:0:0:0:
448,192,222472,128,8,223410:0:0:0:0:
192,192,222628,1,2,0:0:0:0:
320,192,222941,1,8,0:0:0:0:
64,192,223097,128,8,223410:0:0:0:0:
192,192,223410,128,2,225910:0:0:0:0:
320,192,223410,128,0,225910:0:0:0:0:
