osu file format v14

[General]
AudioFilename: audio.mp3
AudioLeadIn: 0
PreviewTime: 58253
Countdown: 0
SampleSet: Soft
StackLeniency: 0.7
Mode: 3
LetterboxInBreaks: 0
SpecialStyle: 0
WidescreenStoryboard: 0

[Editor]
DistanceSpacing: 0.8
BeatDivisor: 4
GridSize: 32
TimelineZoom: 1.9

[Metadata]
Title:Taketori Hishou
TitleUnicode:竹取飛翔
Artist:Dark PHOENiX
ArtistUnicode:Dark PHOENiX
Creator:Madoka2574
Version:Hard
Source:東方永夜抄 ~ Imperishable Night.
Tags:東方Project Arrow Realize 蓬莱山輝夜 ほうらいさん かぐや Houraisan Kaguya Lunatic Princess とうほうえいやしょう Touhou Eiyashou
BeatmapID:1280967
BeatmapSetID:606334

[Difficulty]
HPDrainRate:8
CircleSize:4
OverallDifficulty:8
ApproachRate:5
SliderMultiplier:1.4
SliderTickRate:1

[Events]
//Background and Video events
0,0,"Kaguya2.jpg",0,0
//Break Periods
//Storyboard Layer 0 (Background)
//Storyboard Layer 1 (Fail)
//Storyboard Layer 2 (Pass)
//Storyboard Layer 3 (Foreground)
//Storyboard Sound Samples
Sample,17160,0,"cymbal light.wav",70
Sample,38097,0,"0_C6_192_480.wav",70
Sample,38253,0,"0_D#6_192_480.wav",70
Sample,38410,0,"0_F6_192_480.wav",70
Sample,38722,0,"0_F6_192_480.wav",70
Sample,39503,0,"0_A#5_192_480.wav",70
Sample,39816,0,"0_G5_192_480.wav",70
Sample,39972,0,"0_A#5_192_480.wav",70
Sample,40910,0,"0_F6_192_480.wav",70
Sample,41222,0,"0_F6_192_480.wav",70
Sample,42003,0,"0_G6_192_480.wav",70
Sample,42472,0,"0_D#7_192_480.wav",70
Sample,43410,0,"0_F6_192_480.wav",70
Sample,43722,0,"0_F6_192_480.wav",70
Sample,44503,0,"0_A#5_192_480.wav",70
Sample,44816,0,"0_G5_192_480.wav",70
Sample,44972,0,"0_A#5_192_480.wav",70
Sample,45910,0,"0_F6_192_480.wav",70
Sample,46222,0,"0_F6_192_480.wav",70
Sample,47003,0,"0_G6_192_480.wav",70
Sample,49035,0,"cymbal light.wav",70
Sample,54035,0,"cymbal light.wav",70
Sample,74035,0,"LR_Hat Normal.wav",70
Sample,74660,0,"LR_Hat Normal.wav",70
Sample,75285,0,"LR_Hat Normal.wav",70
Sample,82785,0,"cymbal light.wav",70
Sample,83097,0,"cymbal light.wav",70
Sample,92785,0,"cymbal light.wav",70
Sample,93097,0,"cymbal light.wav",70
Sample,94035,0,"cymbal light.wav",70
Sample,95285,0,"cymbal light.wav",70
Sample,96535,0,"cymbal light.wav",70
Sample,107785,0,"cymbal light.wav",70
Sample,109035,0,"cymbal light.wav",70
Sample,111535,0,"cymbal light.wav",70
Sample,112785,0,"cymbal light.wav",70
Sample,114035,0,"cymbal light.wav",70
Sample,120285,0,"cymbal light.wav",70
Sample,125285,0,"cymbal light.wav",70
Sample,135285,0,"cymbal light.wav",70
Sample,140285,0,"cymbal light.wav",70
Sample,141535,0,"cymbal light.wav",70
Sample,142785,0,"cymbal light.wav",70
Sample,144035,0,"cymbal light.wav",70
Sample,161535,0,"LR_Hat Normal.wav",70
Sample,162160,0,"LR_Hat Normal.wav",70
Sample,162785,0,"LR_Hat Normal.wav",70
Sample,170285,0,"cymbal light.wav",70
Sample,170597,0,"cymbal light.wav",70
Sample,180285,0,"cymbal light.wav",70
Sample,180597,0,"cymbal light.wav",70
Sample,181535,0,"cymbal light.wav",70
Sample,182785,0,"cymbal light.wav",70
Sample,184035,0,"cymbal light.wav",70
Sample,195285,0,"cymbal light.wav",70
Sample,196535,0,"cymbal light.wav",70
Sample,199035,0,"cymbal light.wav",70
Sample,200285,0,"cymbal light.wav",70
Sample,201535,0,"cymbal light.wav",70

[TimingPoints]
910,312.5,4,2,1,25,1,0
910,-111.111111111111,4,2,1,25,0,0
10910,-109.89010989011,4,2,1,25,0,0
10949,-108.695652173913,4,2,1,25,0,0
10988,-107.52688172043,4,2,1,25,0,0
11027,-106.382978723404,4,2,1,25,0,0
11066,-105.263157894737,4,2,1,25,0,0
15910,-106.382978723404,4,2,1,25,0,0
15949,-107.52688172043,4,2,1,25,0,0
15988,-108.695652173913,4,2,1,25,0,0
16027,-109.89010989011,4,2,1,25,0,0
16066,-111.111111111111,4,2,1,25,0,0
17160,-108.695652173913,4,2,1,25,0,0
17472,-106.382978723404,4,2,1,25,0,0
17785,-104.166666666667,4,2,1,25,0,0
18097,-102.040816326531,4,2,1,25,0,0
18410,-100,4,2,1,25,0,0
28410,-100,4,2,1,25,0,1
38410,-111.111111111111,4,2,1,25,0,0
47160,-100,4,2,1,25,0,0
68410,-100,4,2,1,25,0,1
73410,-100,4,2,1,25,0,0
76066,-142.857142857143,4,2,1,25,0,0
76261,-66.6666666666667,4,2,1,25,0,0
76378,-142.857142857143,4,2,1,25,0,0
76574,-66.6666666666667,4,2,1,25,0,0
76691,-142.857142857143,4,2,1,25,0,0
76886,-66.6666666666667,4,2,1,25,0,0
77003,-117.647058823529,4,2,1,25,0,0
77199,-80,4,2,1,25,0,0
77316,-100,4,2,1,25,0,0
114503,-117.647058823529,4,2,1,25,0,0
114699,-80,4,2,1,25,0,0
114816,-100,4,2,1,25,0,0
115910,-100,4,2,1,25,0,1
145597,-100,4,2,1,25,0,0
155910,-100,4,2,1,25,0,1
160910,-100,4,2,1,25,0,0
163566,-142.857142857143,4,2,1,25,0,0
163761,-66.6666666666667,4,2,1,25,0,0
163878,-142.857142857143,4,2,1,25,0,0
164074,-66.6666666666667,4,2,1,25,0,0
164191,-142.857142857143,4,2,1,25,0,0
164386,-66.6666666666667,4,2,1,25,0,0
164503,-117.647058823529,4,2,1,25,0,0
164699,-80,4,2,1,25,0,0
164816,-100,4,2,1,25,0,0
202003,-117.647058823529,4,2,1,25,0,0
202199,-80,4,2,1,25,0,0
202316,-100,4,2,1,25,0,0
213410,-100,4,2,1,25,0,1
223410,-100,4,2,1,25,0,0

[HitObjects]
320,192,910,5,0,0:0:0:70:0_C7_192_480.wav
448,192,910,1,0,0:0:0:70:0_G#4_192_1440.wav
64,192,1066,1,0,0:0:0:70:0_G6_192_480.wav
448,192,1222,1,0,0:0:0:70:0_A#6_192_480.wav
192,192,1378,1,0,0:0:0:70:0_F6_192_480.wav
320,192,1535,1,0,0:0:0:70:0_G6_192_480.wav
64,192,1691,1,0,0:0:0:70:0_D#6_192_480.wav
448,192,1847,1,0,0:0:0:70:0_F6_192_480.wav
192,192,2003,1,0,0:0:0:70:0_D6_192_480.wav
64,192,2160,1,0,0:0:0:70:0_C7_192_480.wav
320,192,2160,1,0,0:0:0:70:0_A#4_192_1440.wav
448,192,2316,1,0,0:0:0:70:0_G6_192_480.wav
192,192,2472,1,0,0:0:0:70:0_A#6_192_480.wav
320,192,2628,1,0,0:0:0:70:0_F6_192_480.wav
64,192,2785,1,0,0:0:0:70:0_G6_192_480.wav
448,192,2941,1,0,0:0:0:70:0_D#6_192_480.wav
192,192,3097,1,0,0:0:0:70:0_F6_192_480.wav
320,192,3253,1,0,0:0:0:70:0_D6_192_480.wav
64,192,3410,1,0,0:0:0:70:0_C7_192_480.wav
448,192,3410,1,0,0:0:0:70:0_G4_192_1440.wav
192,192,3566,1,0,0:0:0:70:0_G6_192_480.wav
448,192,3722,1,0,0:0:0:70:0_A#6_192_480.wav
320,192,3878,1,0,0:0:0:70:0_F6_192_480.wav
64,192,4035,1,0,0:0:0:70:0_G6_192_480.wav
192,192,4191,1,0,0:0:0:70:0_D#6_192_480.wav
320,192,4347,1,0,0:0:0:70:0_D7_192_480.wav
448,192,4503,1,0,0:0:0:70:0_D#7_192_480.wav
64,192,4660,128,0,5285:0:0:0:70:0_C5_192_1440.wav
320,192,4816,1,0,0:0:0:70:0_G6_192_480.wav
448,192,4972,1,0,0:0:0:70:0_D7_192_480.wav
192,192,5128,1,0,0:0:0:70:0_F6_192_480.wav
320,192,5285,1,0,0:0:0:70:0_C7_192_480.wav
448,192,5285,128,0,5910:0:0:0:70:0_A#4_192_1440.wav
192,192,5441,1,0,0:0:0:70:0_D#6_192_480.wav
64,192,5597,1,0,0:0:0:70:0_A#6_192_480.wav
320,192,5753,1,0,0:0:0:70:0_C6_192_480.wav
64,192,5910,1,0,0:0:0:70:0_C7_192_480.wav
192,192,5910,1,0,0:0:0:70:0_G#4_192_1440.wav
320,192,6066,1,0,0:0:0:70:0_G6_192_480.wav
448,192,6222,1,0,0:0:0:70:0_A#6_192_480.wav
64,192,6378,1,0,0:0:0:70:0_F6_192_480.wav
448,192,6535,1,0,0:0:0:70:0_G6_192_480.wav
192,192,6691,1,0,0:0:0:70:0_D#6_192_480.wav
320,192,6847,1,0,0:0:0:70:0_F6_192_480.wav
64,192,7003,1,0,0:0:0:70:0_D6_192_480.wav
192,192,7160,1,0,0:0:0:70:0_C7_192_480.wav
448,192,7160,1,0,0:0:0:70:0_A#4_192_1440.wav
320,192,7316,1,0,0:0:0:70:0_G6_192_480.wav
64,192,7472,1,0,0:0:0:70:0_A#6_192_480.wav
192,192,7628,1,0,0:0:0:70:0_F6_192_480.wav
320,192,7785,1,0,0:0:0:70:0_G6_192_480.wav
64,192,7941,1,0,0:0:0:70:0_D#6_192_480.wav
448,192,8097,1,0,0:0:0:70:0_F6_192_480.wav
192,192,8253,1,0,0:0:0:70:0_D6_192_480.wav
64,192,8410,1,0,0:0:0:70:0_C7_192_480.wav
320,192,8410,1,0,0:0:0:70:0_G4_192_1440.wav
448,192,8566,1,0,0:0:0:70:0_G6_192_480.wav
192,192,8722,1,0,0:0:0:70:0_A#6_192_480.wav
448,192,8878,1,0,0:0:0:70:0_F6_192_480.wav
64,192,9035,1,0,0:0:0:70:0_G6_192_480.wav
320,192,9191,1,0,0:0:0:70:0_D#6_192_480.wav
192,192,9347,1,0,0:0:0:70:0_D7_192_480.wav
448,192,9503,1,0,0:0:0:70:0_D#7_192_480.wav
320,192,9660,128,0,10285:0:0:0:70:0_C5_192_1440.wav
64,192,9816,1,0,0:0:0:70:0_G6_192_480.wav
192,192,9972,1,0,0:0:0:70:0_D7_192_480.wav
448,192,10128,1,0,0:0:0:70:0_F6_192_480.wav
64,192,10285,128,0,10910:0:0:0:70:0_A#4_192_1440.wav
192,192,10285,1,0,0:0:0:70:0_C7_192_480.wav
448,192,10441,1,0,0:0:0:70:0_D#6_192_480.wav
320,192,10597,1,0,0:0:0:70:0_A#6_192_480.wav
192,192,10753,1,0,0:0:0:70:0_C6_192_480.wav
320,192,10910,1,0,0:0:0:70:0_C7_192_480.wav
448,192,10910,1,0,0:0:0:70:0_G#3_192_1440.wav
192,192,11066,1,0,0:0:0:70:0_G6_192_480.wav
448,192,11222,1,0,0:0:0:70:0_A#6_192_480.wav
64,192,11378,1,0,0:0:0:70:0_F6_192_480.wav
320,192,11535,1,0,0:0:0:70:0_G6_192_480.wav
192,192,11691,1,0,0:0:0:70:0_D#6_192_480.wav
448,192,11847,1,0,0:0:0:70:0_F6_192_480.wav
192,192,12003,1,0,0:0:0:70:0_D6_192_480.wav
64,192,12160,1,0,0:0:0:70:0_C7_192_480.wav
320,192,12160,1,0,0:0:0:70:0_A#3_192_1440.wav
448,192,12316,1,0,0:0:0:70:0_G6_192_480.wav
192,192,12472,1,0,0:0:0:70:0_A#6_192_480.wav
448,192,12628,1,0,0:0:0:70:0_F6_192_480.wav
320,192,12785,1,0,0:0:0:70:0_G6_192_480.wav
64,192,12941,1,0,0:0:0:70:0_D#6_192_480.wav
192,192,13097,1,0,0:0:0:70:0_F6_192_480.wav
448,192,13253,1,0,0:0:0:70:0_D6_192_480.wav
192,192,13410,1,0,0:0:0:70:0_C7_192_480.wav
320,192,13410,1,0,0:0:0:70:0_G3_192_1440.wav
64,192,13566,1,0,0:0:0:70:0_G6_192_480.wav
320,192,13722,1,0,0:0:0:70:0_A#6_192_480.wav
192,192,13878,1,0,0:0:0:70:0_F6_192_480.wav
448,192,14035,1,0,0:0:0:70:0_G6_192_480.wav
192,192,14191,1,0,0:0:0:70:0_D#6_192_480.wav
320,192,14347,1,0,0:0:0:70:0_D7_192_480.wav
64,192,14503,1,0,0:0:0:70:0_D#7_192_480.wav
192,192,14660,128,0,15285:0:0:0:70:0_C4_192_1440.wav
448,192,14816,1,0,0:0:0:70:0_G6_192_480.wav
320,192,14972,1,0,0:0:0:70:0_D7_192_480.wav
448,192,15128,1,0,0:0:0:70:0_F6_192_480.wav
64,192,15285,1,0,0:0:0:70:0_C7_192_480.wav
320,192,15285,128,0,15910:0:0:0:70:0_A#3_192_1440.wav
192,192,15441,1,0,0:0:0:70:0_D#6_192_480.wav
64,192,15597,1,0,0:0:0:70:0_A#6_192_480.wav
64,192,15910,1,0,0:0:0:70:0_C7_192_480.wav
192,192,15910,1,0,0:0:0:70:0_G#3_192_1440.wav
448,192,16066,1,0,0:0:0:70:0_G6_192_480.wav
192,192,16222,1,0,0:0:0:70:0_A#6_192_480.wav
64,192,16378,1,0,0:0:0:70:0_F6_192_480.wav
320,192,16535,1,0,0:0:0:70:0_G6_192_480.wav
448,192,16691,1,0,0:0:0:70:0_D#6_192_480.wav
320,192,16847,1,0,0:0:0:70:0_F6_192_480.wav
192,192,17003,1,0,0:0:0:70:0_D6_192_480.wav
64,192,17160,1,0,0:0:0:70:0_G6_192_480.wav
448,192,17160,1,0,0:0:0:70:0_A#3_192_1440.wav
320,192,17316,1,0,0:0:0:70:0_D#6_192_480.wav
64,192,17472,1,0,0:0:0:70:0_A#6_192_480.wav
448,192,17472,1,0,0:0:0:70:cymbal light.wav
192,192,17628,1,0,0:0:0:70:0_D#6_192_480.wav
64,192,17785,1,0,0:0:0:70:0_C7_192_480.wav
448,192,17785,1,0,0:0:0:70:cymbal light.wav
320,192,17941,1,0,0:0:0:70:0_D#6_192_480.wav
64,192,18097,1,0,0:0:0:70:0_D#7_192_480.wav
448,192,18097,1,0,0:0:0:70:cymbal light.wav
192,192,18253,1,0,0:0:0:70:0_A#5_192_480.wav
64,192,18410,1,2,0:0:0:0:
448,192,18410,1,0,0:0:0:70:0_C6_192_480.wav
320,192,18410,1,4,0:0:0:0:
192,192,18566,1,0,0:0:0:0:
64,192,18878,1,2,0:0:0:0:
320,192,18878,1,0,0:0:0:0:
64,192,19035,1,8,0:0:0:0:
192,192,19035,1,0,0:0:0:70:cymbal light.wav
448,192,19035,1,0,0:0:0:0:
320,192,19191,1,0,0:0:0:0:
64,192,19503,1,2,0:0:0:0:
448,192,19503,1,0,0:0:0:0:
192,192,19660,1,2,0:0:0:0:
320,192,19660,1,0,0:0:0:70:cymbal light.wav
448,192,19816,1,0,0:0:0:0:
64,192,20128,128,0,20753:0:0:0:0:
192,192,20441,128,0,20753:0:0:0:0:
320,192,20597,128,0,20753:0:0:0:0:
64,192,20910,1,2,0:0:0:0:
448,192,20910,1,0,0:0:0:0:
192,192,20910,1,4,0:0:0:0:
320,192,21066,1,0,0:0:0:0:
192,192,21378,1,2,0:0:0:0:
448,192,21378,1,0,0:0:0:0:
64,192,21535,1,8,0:0:0:0:
320,192,21535,1,0,0:0:0:70:cymbal light.wav
448,192,21535,1,0,0:0:0:0:
192,192,21691,1,0,0:0:0:0:
64,192,22003,1,2,0:0:0:0:
448,192,22003,1,0,0:0:0:0:
192,192,22160,1,2,0:0:0:0:
320,192,22160,1,0,0:0:0:70:cymbal light.wav
64,192,22316,1,0,0:0:0:0:
448,192,22628,128,0,23253:0:0:0:0:
320,192,22941,128,0,23253:0:0:0:0:
192,192,23097,128,0,23253:0:0:0:0:
64,192,23410,1,2,0:0:0:0:
448,192,23410,1,0,0:0:0:0:
320,192,23410,1,4,0:0:0:0:
192,192,23566,1,0,0:0:0:0:
64,192,23878,1,2,0:0:0:0:
448,192,23878,1,0,0:0:0:0:
64,192,24035,1,8,0:0:0:0:
192,192,24035,1,0,0:0:0:70:cymbal light.wav
320,192,24035,1,0,0:0:0:0:
448,192,24191,1,0,0:0:0:0:
192,192,24503,1,2,0:0:0:0:
320,192,24503,1,0,0:0:0:0:
64,192,24660,1,2,0:0:0:0:
448,192,24660,1,0,0:0:0:70:cymbal light.wav
320,192,24816,1,0,0:0:0:0:
64,192,25128,128,0,25753:0:0:0:0:
448,192,25441,128,0,25753:0:0:0:0:
192,192,25597,128,0,25753:0:0:0:0:
64,192,25910,1,2,0:0:0:0:
448,192,25910,1,0,0:0:0:0:
320,192,25910,1,4,0:0:0:0:
448,192,26066,1,0,0:0:0:0:
448,192,26222,1,0,0:0:0:0:
64,192,26378,1,2,0:0:0:0:
320,192,26378,1,0,0:0:0:0:
64,192,26535,1,8,0:0:0:0:
192,192,26535,1,0,0:0:0:70:cymbal light.wav
448,192,26535,1,0,0:0:0:0:
192,192,26691,1,0,0:0:0:0:
192,192,26847,1,0,0:0:0:0:
320,192,27003,1,2,0:0:0:0:
448,192,27003,1,0,0:0:0:0:
64,192,27160,1,2,0:0:0:0:
320,192,27160,1,0,0:0:0:70:cymbal light.wav
64,192,27316,1,0,0:0:0:0:
64,192,27472,1,2,0:0:0:0:
448,192,27472,1,0,0:0:0:0:
192,192,27628,1,0,0:0:0:0:
64,192,27785,1,8,0:0:0:0:
320,192,27785,1,0,0:0:0:70:cymbal light.wav
448,192,27785,1,0,0:0:0:0:
192,192,27941,1,0,0:0:0:0:
320,192,28097,1,8,0:0:0:0:
448,192,28097,1,0,0:0:0:0:
64,192,28175,1,8,0:0:0:0:
192,192,28175,1,0,0:0:0:0:
320,192,28253,1,8,0:0:0:0:
448,192,28253,1,0,0:0:0:0:
64,192,28331,1,8,0:0:0:0:
192,192,28331,1,0,0:0:0:0:
320,192,28410,1,2,0:0:0:0:
448,192,28410,1,4,0:0:0:0:
192,192,28566,1,0,0:0:0:0:
64,192,28722,1,8,0:0:0:0:
320,192,28722,1,0,0:0:0:70:cymbal light.wav
448,192,28722,1,0,0:0:0:0:
192,192,28878,1,0,0:0:0:0:
64,192,29035,1,2,0:0:0:0:
448,192,29035,1,0,0:0:0:70:cymbal light.wav
448,192,29191,1,2,0:0:0:0:
64,192,29347,1,8,0:0:0:0:
192,192,29347,1,0,0:0:0:70:cymbal light.wav
320,192,29347,1,0,0:0:0:0:
448,192,29503,1,0,0:0:0:0:
192,192,29660,1,2,0:0:0:0:
320,192,29660,1,0,0:0:0:70:cymbal light.wav
192,192,29816,1,2,0:0:0:0:
64,192,29972,1,8,0:0:0:0:
320,192,29972,1,0,0:0:0:70:cymbal light.wav
448,192,29972,1,0,0:0:0:0:
192,192,30128,1,0,0:0:0:0:
64,192,30285,1,2,0:0:0:0:
448,192,30285,1,0,0:0:0:70:cymbal light.wav
320,192,30441,1,2,0:0:0:0:
64,192,30597,1,8,0:0:0:0:
320,192,30597,1,0,0:0:0:70:cymbal light.wav
448,192,30597,1,0,0:0:0:0:
192,192,30753,1,0,0:0:0:0:
64,192,30910,1,2,0:0:0:0:
320,192,30910,1,0,0:0:0:70:cymbal light.wav
64,192,31066,1,2,0:0:0:0:
192,192,31222,1,8,0:0:0:0:
320,192,31222,1,0,0:0:0:70:cymbal light.wav
448,192,31222,1,0,0:0:0:0:
64,192,31378,1,0,0:0:0:0:
192,192,31535,1,2,0:0:0:0:
448,192,31535,1,0,0:0:0:70:cymbal light.wav
448,192,31691,1,2,0:0:0:0:
64,192,31847,1,8,0:0:0:0:
192,192,31847,1,0,0:0:0:70:cymbal light.wav
320,192,31847,1,0,0:0:0:0:
448,192,32003,1,0,0:0:0:0:
64,192,32160,1,2,0:0:0:0:
320,192,32160,1,0,0:0:0:70:cymbal light.wav
320,192,32316,1,2,0:0:0:0:
64,192,32472,1,8,0:0:0:0:
192,192,32472,1,0,0:0:0:70:cymbal light.wav
448,192,32472,1,0,0:0:0:0:
320,192,32628,1,0,0:0:0:0:
64,192,32785,1,2,0:0:0:0:
448,192,32785,1,0,0:0:0:70:cymbal light.wav
192,192,32941,1,2,0:0:0:0:
64,192,33097,1,8,0:0:0:0:
192,192,33097,1,0,0:0:0:70:cymbal light.wav
448,192,33097,1,0,0:0:0:0:
320,192,33253,1,0,0:0:0:0:
64,192,33410,1,2,0:0:0:0:
448,192,33410,1,0,0:0:0:0:
320,192,33410,1,4,0:0:0:0:
192,192,33566,1,0,0:0:0:0:
64,192,33722,1,8,0:0:0:0:
320,192,33722,1,0,0:0:0:70:cymbal light.wav
448,192,33722,1,0,0:0:0:0:
192,192,33878,1,0,0:0:0:0:
320,192,34035,1,2,0:0:0:0:
448,192,34035,1,0,0:0:0:70:cymbal light.wav
448,192,34191,1,2,0:0:0:0:
64,192,34347,1,8,0:0:0:0:
192,192,34347,1,0,0:0:0:70:cymbal light.wav
320,192,34347,1,0,0:0:0:0:
448,192,34503,1,0,0:0:0:0:
64,192,34660,1,2,0:0:0:0:
192,192,34660,1,0,0:0:0:70:cymbal light.wav
192,192,34816,1,2,0:0:0:0:
64,192,34972,1,8,0:0:0:0:
320,192,34972,1,0,0:0:0:70:cymbal light.wav
448,192,34972,1,0,0:0:0:0:
192,192,35128,1,0,0:0:0:0:
320,192,35285,1,2,0:0:0:0:
448,192,35285,1,0,0:0:0:70:cymbal light.wav
64,192,35441,1,2,0:0:0:0:
64,192,35597,1,8,0:0:0:0:
192,192,35597,1,0,0:0:0:70:cymbal light.wav
448,192,35597,1,0,0:0:0:0:
320,192,35753,1,0,0:0:0:0:
192,192,35910,1,2,0:0:0:0:
448,192,35910,1,0,0:0:0:70:cymbal light.wav
192,192,36066,1,2,0:0:0:0:
64,192,36222,1,8,0:0:0:0:
320,192,36222,1,0,0:0:0:70:cymbal light.wav
448,192,36222,1,0,0:0:0:0:
192,192,36378,1,0,0:0:0:0:
64,192,36535,1,2,0:0:0:0:
320,192,36535,1,0,0:0:0:70:cymbal light.wav
320,192,36691,1,2,0:0:0:0:
64,192,36847,1,8,0:0:0:0:
192,192,36847,1,0,0:0:0:70:cymbal light.wav
448,192,36847,1,0,0:0:0:0:
320,192,37003,1,0,0:0:0:0:
64,192,37160,1,8,0:0:0:0:
448,192,37160,1,0,0:0:0:0:
192,192,37238,1,8,0:0:0:0:
320,192,37316,1,8,0:0:0:0:
448,192,37394,1,8,0:0:0:0:
64,192,37472,1,2,0:0:0:0:
192,192,37550,1,2,0:0:0:0:
320,192,37628,1,2,0:0:0:0:
192,192,37706,1,2,0:0:0:0:
448,192,37785,1,2,0:0:0:0:
320,192,37863,1,2,0:0:0:0:
192,192,37941,1,2,0:0:0:0:
64,192,38019,1,2,0:0:0:0:
448,192,38097,1,2,0:0:0:0:
320,192,38175,1,2,0:0:0:0:
192,192,38253,1,2,0:0:0:0:
320,192,38331,1,2,0:0:0:0:
64,192,38410,1,2,0:0:0:0:
448,192,38410,128,4,40285:0:0:0:0:
64,192,38722,1,2,0:0:0:0:
192,192,38878,1,0,0:0:0:70:0_D6_192_480.wav
64,192,39035,1,8,0:0:0:0:
320,192,39035,1,0,0:0:0:0:
192,192,39191,1,0,0:0:0:70:0_A#5_192_480.wav
192,192,39503,1,2,0:0:0:0:
64,192,39816,1,2,0:0:0:0:
192,192,39972,1,2,0:0:0:0:
192,192,40285,1,8,0:0:0:0:
320,192,40285,1,0,0:0:0:70:0_C6_192_480.wav
64,192,40597,1,0,0:0:0:70:0_C6_192_480.wav
192,192,40753,1,0,0:0:0:70:0_D#6_192_480.wav
320,192,40910,1,2,0:0:0:0:
320,192,41222,1,2,0:0:0:0:
192,192,41378,1,0,0:0:0:70:0_G6_192_480.wav
64,192,41535,1,8,0:0:0:0:
448,192,41535,1,0,0:0:0:70:0_A#6_192_480.wav
320,192,41691,1,0,0:0:0:70:0_G6_192_480.wav
192,192,41847,1,0,0:0:0:70:0_F6_192_480.wav
320,192,42003,1,2,0:0:0:0:
448,192,42160,1,0,0:0:0:70:0_C7_192_480.wav
64,192,42316,1,2,0:0:0:0:
192,192,42472,1,2,0:0:0:0:
320,192,42785,1,8,0:0:0:0:
448,192,42785,1,0,0:0:0:70:0_D7_192_480.wav
192,192,43097,1,0,0:0:0:70:0_C6_192_480.wav
320,192,43253,1,0,0:0:0:70:0_D#6_192_480.wav
448,192,43410,1,2,0:0:0:0:
448,192,43722,1,2,0:0:0:0:
320,192,43878,1,0,0:0:0:70:0_D6_192_480.wav
64,192,44035,1,8,0:0:0:0:
192,192,44035,1,0,0:0:0:0:
320,192,44191,1,0,0:0:0:70:0_A#5_192_480.wav
320,192,44503,1,2,0:0:0:0:
192,192,44816,1,2,0:0:0:0:
320,192,44972,1,2,0:0:0:0:
192,192,45285,1,8,0:0:0:0:
448,192,45285,1,0,0:0:0:70:0_C6_192_480.wav
64,192,45597,1,0,0:0:0:70:0_C6_192_480.wav
192,192,45753,1,0,0:0:0:70:0_D#6_192_480.wav
320,192,45910,1,2,0:0:0:0:
192,192,46222,1,2,0:0:0:0:
320,192,46378,1,0,0:0:0:70:0_G6_192_480.wav
64,192,46535,1,8,0:0:0:0:
448,192,46535,1,0,0:0:0:70:0_A#6_192_480.wav
320,192,46691,1,0,0:0:0:70:0_G6_192_480.wav
192,192,46847,1,0,0:0:0:70:0_F6_192_480.wav
320,192,47003,1,2,0:0:0:0:
448,192,47160,128,0,48410:0:0:0:70:0_G6_192_480.wav
64,192,47316,1,2,0:0:0:0:
192,192,47472,1,2,0:0:0:0:
64,192,47785,1,8,0:0:0:0:
320,192,47785,128,0,48410:0:0:0:70:0_G6_192_480.wav
192,192,48097,1,8,0:0:0:0:
64,192,48253,1,8,0:0:0:0:
192,192,48331,1,8,0:0:0:0:
64,192,48410,1,6,0:0:0:0:
192,192,48722,128,8,48878:0:0:0:0:
448,192,48722,1,0,0:0:0:70:cymbal light.wav
320,192,48878,128,0,49191:0:0:0:0:
64,192,49035,1,2,0:0:0:0:
192,192,49191,1,2,0:0:0:0:
448,192,49191,128,0,49503:0:0:0:0:
64,192,49347,1,8,0:0:0:0:
320,192,49347,1,0,0:0:0:70:cymbal light.wav
64,192,49503,128,2,49816:0:0:0:0:
192,192,49503,1,0,0:0:0:0:
192,192,49816,128,2,49972:0:0:0:0:
320,192,49816,1,0,0:0:0:0:
320,192,49972,128,8,50285:0:0:0:0:
448,192,49972,1,0,0:0:0:70:cymbal light.wav
64,192,50285,1,2,0:0:0:0:
448,192,50285,128,0,50597:0:0:0:70:cymbal light.wav
320,192,50441,1,2,0:0:0:0:
64,192,50597,1,8,0:0:0:0:
192,192,50597,128,0,50753:0:0:0:70:cymbal light.wav
320,192,50753,128,0,50910:0:0:0:0:
64,192,50910,128,2,51222:0:0:0:0:
448,192,50910,1,0,0:0:0:70:cymbal light.wav
320,192,51066,1,2,0:0:0:0:
192,192,51222,128,8,51378:0:0:0:0:
448,192,51222,1,0,0:0:0:70:cymbal light.wav
320,192,51378,128,0,51535:0:0:0:0:
64,192,51535,128,2,51691:0:0:0:0:
448,192,51535,1,0,0:0:0:70:cymbal light.wav
192,192,51691,1,2,0:0:0:0:
320,192,51691,128,0,51847:0:0:0:0:
64,192,51847,1,8,0:0:0:0:
192,192,51847,128,0,52003:0:0:0:70:cymbal light.wav
320,192,52003,1,2,0:0:0:0:
448,192,52003,128,0,52160:0:0:0:0:
320,192,52160,128,0,52472:0:0:0:70:cymbal light.wav
64,192,52316,1,2,0:0:0:0:
192,192,52472,128,8,52785:0:0:0:0:
448,192,52472,1,0,0:0:0:70:cymbal light.wav
64,192,52785,128,2,53097:0:0:0:0:
320,192,52785,1,0,0:0:0:70:cymbal light.wav
192,192,52941,1,2,0:0:0:0:
320,192,53097,1,8,0:0:0:0:
448,192,53097,1,0,0:0:0:70:cymbal light.wav
192,192,53253,1,0,0:0:0:0:
64,192,53410,1,2,0:0:0:0:
448,192,53410,1,0,0:0:0:0:
320,192,53410,1,4,0:0:0:0:
192,192,53722,128,8,53878:0:0:0:0:
320,192,53722,1,0,0:0:0:70:cymbal light.wav
448,192,53878,128,0,54191:0:0:0:0:
64,192,54035,1,2,0:0:0:0:
64,192,54191,128,2,54503:0:0:0:0:
320,192,54191,1,0,0:0:0:0:
192,192,54347,1,8,0:0:0:0:
448,192,54347,1,0,0:0:0:70:cymbal light.wav
192,192,54503,128,2,54816:0:0:0:0:
320,192,54503,1,0,0:0:0:0:
64,192,54816,1,2,0:0:0:0:
320,192,54816,128,0,54972:0:0:0:0:
192,192,54972,1,8,0:0:0:0:
448,192,54972,128,0,55285:0:0:0:70:cymbal light.wav
64,192,55285,1,2,0:0:0:0:
320,192,55285,128,0,55597:0:0:0:70:cymbal light.wav
192,192,55441,1,2,0:0:0:0:
64,192,55597,128,8,55753:0:0:0:0:
448,192,55597,1,0,0:0:0:70:cymbal light.wav
192,192,55753,128,2,55910:0:0:0:0:
320,192,55753,1,0,0:0:0:0:
320,192,55910,128,0,56222:0:0:0:70:cymbal light.wav
448,192,56066,1,2,0:0:0:0:
64,192,56222,128,8,56378:0:0:0:0:
192,192,56222,1,0,0:0:0:70:cymbal light.wav
320,192,56378,128,0,56535:0:0:0:0:
64,192,56535,1,2,0:0:0:0:
192,192,56535,128,0,56691:0:0:0:70:cymbal light.wav
320,192,56691,1,2,0:0:0:0:
448,192,56691,128,0,56847:0:0:0:0:
64,192,56847,128,8,57003:0:0:0:0:
192,192,56847,1,0,0:0:0:70:cymbal light.wav
320,192,57003,128,2,57160:0:0:0:0:
448,192,57003,1,0,0:0:0:0:
64,192,57160,1,8,0:0:0:0:
192,192,57160,1,0,0:0:0:0:
448,192,57316,1,2,0:0:0:0:
320,192,57368,1,2,0:0:0:0:
192,192,57420,1,2,0:0:0:0:
64,192,57472,1,2,0:0:0:0:
320,192,57628,1,8,0:0:0:0:
448,192,57628,1,0,0:0:0:0:
64,192,57785,1,2,0:0:0:0:
192,192,57837,1,2,0:0:0:0:
320,192,57889,1,2,0:0:0:0:
448,192,57941,1,2,0:0:0:0:
64,192,58097,1,8,0:0:0:0:
192,192,58097,1,0,0:0:0:70:LR_Drum Finish.wav
320,192,58253,1,0,0:0:0:0:
192,192,58331,1,0,0:0:0:0:
64,192,58410,1,2,0:0:0:0:
320,192,58410,1,0,0:0:0:70:LR_Drum Finish.wav
448,192,58410,1,0,0:0:0:0:
192,192,58566,1,0,0:0:0:0:
64,192,58722,1,8,0:0:0:0:
320,192,58722,1,0,0:0:0:70:LR_Hat Normal.wav
448,192,58722,1,0,0:0:0:0:
192,192,58878,1,0,0:0:0:0:
64,192,59035,1,2,0:0:0:0:
320,192,59035,1,0,0:0:0:70:LR_Hat Normal.wav
448,192,59191,1,2,0:0:0:0:
64,192,59347,1,8,0:0:0:0:
192,192,59347,1,0,0:0:0:70:LR_Hat Normal.wav
320,192,59347,1,0,0:0:0:0:
448,192,59503,1,0,0:0:0:0:
192,192,59660,1,2,0:0:0:0:
320,192,59660,1,0,0:0:0:70:LR_Hat Normal.wav
64,192,59816,1,2,0:0:0:0:
192,192,59972,1,8,0:0:0:0:
320,192,59972,1,0,0:0:0:70:LR_Hat Normal.wav
448,192,59972,1,0,0:0:0:0:
64,192,60128,1,0,0:0:0:0:
192,192,60285,1,2,0:0:0:0:
448,192,60285,1,0,0:0:0:70:LR_Hat Normal.wav
320,192,60441,1,2,0:0:0:0:
64,192,60597,1,8,0:0:0:0:
192,192,60597,1,0,0:0:0:70:LR_Hat Normal.wav
448,192,60597,1,0,0:0:0:0:
320,192,60753,1,0,0:0:0:0:
64,192,60910,1,2,0:0:0:0:
448,192,60910,1,0,0:0:0:70:LR_Hat Normal.wav
192,192,61066,1,2,0:0:0:0:
64,192,61222,1,8,0:0:0:0:
320,192,61222,1,0,0:0:0:70:LR_Hat Normal.wav
448,192,61222,1,0,0:0:0:0:
192,192,61378,1,0,0:0:0:0:
64,192,61535,1,2,0:0:0:0:
448,192,61535,1,0,0:0:0:70:LR_Hat Normal.wav
320,192,61691,1,2,0:0:0:0:
64,192,61847,1,8,0:0:0:0:
192,192,61847,1,0,0:0:0:70:LR_Hat Normal.wav
448,192,61847,1,0,0:0:0:0:
64,192,62003,128,2,62316:0:0:0:0:
192,192,62003,128,0,62316:0:0:0:0:
448,192,62316,1,2,0:0:0:0:
64,192,62472,128,8,62628:0:0:0:0:
320,192,62472,128,0,62628:0:0:0:70:LR_Hat Normal.wav
192,192,62785,128,2,62941:0:0:0:0:
448,192,62785,128,0,62941:0:0:0:70:LR_Hat Normal.wav
320,192,63097,128,8,63253:0:0:0:0:
448,192,63097,128,0,63253:0:0:0:70:LR_Hat Normal.wav
64,192,63410,1,2,0:0:0:0:
192,192,63410,1,0,0:0:0:70:LR_Drum Finish.wav
448,192,63410,1,0,0:0:0:0:
320,192,63566,1,0,0:0:0:0:
64,192,63722,1,8,0:0:0:0:
192,192,63722,1,0,0:0:0:70:LR_Hat Normal.wav
448,192,63722,1,0,0:0:0:0:
320,192,63878,1,0,0:0:0:0:
192,192,64035,1,2,0:0:0:0:
448,192,64035,1,0,0:0:0:70:LR_Hat Normal.wav
64,192,64191,1,2,0:0:0:0:
192,192,64347,1,8,0:0:0:0:
320,192,64347,1,0,0:0:0:70:LR_Hat Normal.wav
448,192,64347,1,0,0:0:0:0:
64,192,64503,1,0,0:0:0:0:
320,192,64660,1,2,0:0:0:0:
448,192,64660,1,0,0:0:0:70:LR_Hat Normal.wav
192,192,64816,1,2,0:0:0:0:
64,192,64972,1,8,0:0:0:0:
320,192,64972,1,0,0:0:0:70:LR_Hat Normal.wav
448,192,64972,1,0,0:0:0:0:
192,192,65128,1,0,0:0:0:0:
64,192,65285,1,2,0:0:0:0:
448,192,65285,1,0,0:0:0:70:LR_Hat Normal.wav
320,192,65441,1,2,0:0:0:0:
64,192,65597,1,8,0:0:0:0:
192,192,65597,1,0,0:0:0:70:LR_Hat Normal.wav
448,192,65597,1,0,0:0:0:0:
320,192,65753,1,0,0:0:0:0:
64,192,65910,1,2,0:0:0:0:
192,192,65910,1,0,0:0:0:70:LR_Hat Normal.wav
448,192,66066,1,2,0:0:0:0:
64,192,66222,1,8,0:0:0:0:
192,192,66222,1,0,0:0:0:70:LR_Hat Normal.wav
320,192,66222,1,0,0:0:0:0:
448,192,66378,1,0,0:0:0:0:
192,192,66535,1,2,0:0:0:0:
320,192,66535,1,0,0:0:0:70:LR_Hat Normal.wav
64,192,66691,1,2,0:0:0:0:
192,192,66847,1,8,0:0:0:0:
320,192,66847,1,0,0:0:0:70:LR_Hat Normal.wav
448,192,66847,1,0,0:0:0:0:
320,192,67003,128,2,67316:0:0:0:0:
448,192,67003,128,0,67316:0:0:0:0:
64,192,67316,1,2,0:0:0:0:
192,192,67472,128,8,67628:0:0:0:0:
448,192,67472,128,0,67628:0:0:0:70:LR_Hat Normal.wav
64,192,67785,128,2,67941:0:0:0:0:
320,192,67785,128,0,67941:0:0:0:70:LR_Hat Normal.wav
64,192,68097,128,8,68253:0:0:0:0:
192,192,68097,128,0,68253:0:0:0:70:LR_Hat Normal.wav
64,192,68410,1,2,0:0:0:0:
192,192,68410,1,0,0:0:0:70:LR_Drum Finish.wav
448,192,68410,1,0,0:0:0:0:
320,192,68566,1,0,0:0:0:0:
192,192,68644,1,0,0:0:0:0:
320,192,68722,1,8,0:0:0:0:
448,192,68722,1,0,0:0:0:70:LR_Hat Normal.wav
64,192,68878,1,0,0:0:0:0:
192,192,68956,1,0,0:0:0:0:
320,192,69035,1,2,0:0:0:0:
448,192,69035,1,0,0:0:0:70:LR_Hat Normal.wav
192,192,69191,1,2,0:0:0:0:
320,192,69269,1,0,0:0:0:0:
64,192,69347,1,8,0:0:0:0:
448,192,69347,1,0,0:0:0:70:LR_Hat Normal.wav
320,192,69425,1,0,0:0:0:0:
192,192,69503,1,0,0:0:0:0:
64,192,69581,1,0,0:0:0:0:
320,192,69660,1,2,0:0:0:0:
448,192,69660,1,0,0:0:0:70:LR_Hat Normal.wav
192,192,69816,1,2,0:0:0:0:
320,192,69894,1,0,0:0:0:0:
64,192,69972,1,8,0:0:0:0:
192,192,69972,1,0,0:0:0:70:LR_Hat Normal.wav
448,192,70128,1,0,0:0:0:0:
320,192,70206,1,0,0:0:0:0:
64,192,70285,1,2,0:0:0:0:
192,192,70285,1,0,0:0:0:70:LR_Hat Normal.wav
320,192,70441,1,2,0:0:0:0:
192,192,70519,1,0,0:0:0:0:
64,192,70597,1,8,0:0:0:0:
448,192,70597,1,0,0:0:0:70:LR_Hat Normal.wav
192,192,70675,1,0,0:0:0:0:
320,192,70753,1,0,0:0:0:0:
448,192,70831,1,0,0:0:0:0:
64,192,70910,1,2,0:0:0:0:
192,192,70910,1,0,0:0:0:70:LR_Hat Normal.wav
320,192,71066,1,2,0:0:0:0:
64,192,71222,1,8,0:0:0:0:
448,192,71222,1,0,0:0:0:70:LR_Hat Normal.wav
192,192,71378,1,0,0:0:0:0:
320,192,71456,1,0,0:0:0:0:
64,192,71535,1,2,0:0:0:0:
448,192,71535,1,0,0:0:0:70:LR_Hat Normal.wav
192,192,71613,1,0,0:0:0:0:
320,192,71691,1,2,0:0:0:0:
192,192,71769,1,0,0:0:0:0:
64,192,71847,1,8,0:0:0:0:
448,192,71847,1,0,0:0:0:70:LR_Hat Normal.wav
320,192,72003,1,2,0:0:0:0:
64,192,72160,1,0,0:0:0:70:LR_Hat Normal.wav
192,192,72160,1,0,0:0:0:0:
448,192,72238,1,0,0:0:0:0:
320,192,72316,1,2,0:0:0:0:
192,192,72394,1,0,0:0:0:0:
64,192,72472,1,8,0:0:0:0:
448,192,72472,1,0,0:0:0:70:LR_Hat Normal.wav
320,192,72550,1,0,0:0:0:0:
192,192,72628,1,0,0:0:0:0:
320,192,72706,1,0,0:0:0:0:
64,192,72785,1,2,0:0:0:0:
448,192,72785,1,0,0:0:0:70:LR_Hat Normal.wav
192,192,72863,1,0,0:0:0:0:
320,192,72941,1,2,0:0:0:0:
192,192,73019,1,0,0:0:0:0:
64,192,73097,1,8,0:0:0:0:
448,192,73097,1,0,0:0:0:70:LR_Hat Normal.wav
320,192,73175,1,0,0:0:0:0:
192,192,73253,1,0,0:0:0:0:
320,192,73331,1,0,0:0:0:0:
64,192,73410,1,2,0:0:0:0:
192,192,73410,1,0,0:0:0:70:LR_Drum Finish.wav
448,192,73410,1,0,0:0:0:0:
320,192,73566,1,0,0:0:0:0:
64,192,73722,1,8,0:0:0:0:
448,192,73722,1,0,0:0:0:70:LR_Hat Normal.wav
64,192,73878,128,0,74191:0:0:0:0:
320,192,74035,1,2,0:0:0:0:
448,192,74191,1,2,0:0:0:0:
192,192,74347,1,8,0:0:0:0:
320,192,74347,1,0,0:0:0:70:LR_Hat Normal.wav
64,192,74503,1,0,0:0:0:0:
448,192,74660,1,2,0:0:0:0:
192,192,74816,1,2,0:0:0:0:
64,192,74972,1,8,0:0:0:0:
320,192,74972,1,0,0:0:0:70:LR_Hat Normal.wav
320,192,75128,128,0,75441:0:0:0:0:
64,192,75285,1,2,0:0:0:0:
192,192,75441,1,2,0:0:0:0:
320,192,75597,1,8,0:0:0:0:
448,192,75597,1,0,0:0:0:70:LR_Hat Normal.wav
192,192,75753,1,0,0:0:0:0:
64,192,75910,1,4,0:0:0:0:
320,192,75910,1,2,0:0:0:0:
448,192,75910,1,0,0:0:0:0:
64,192,76066,1,4,0:0:0:0:
192,192,76066,1,2,0:0:0:0:
448,192,76066,1,0,0:0:0:0:
192,192,76378,1,4,0:0:0:0:
320,192,76378,1,2,0:0:0:0:
448,192,76378,1,0,0:0:0:0:
64,192,76691,1,4,0:0:0:0:
192,192,76691,1,2,0:0:0:0:
320,192,76691,1,0,0:0:0:0:
64,192,77003,1,4,0:0:0:0:
320,192,77003,1,2,0:0:0:0:
448,192,77003,1,0,0:0:0:0:
192,192,77316,1,2,0:0:0:0:
320,192,77316,1,4,0:0:0:0:
448,192,77316,1,0,0:0:0:0:
64,192,77472,1,2,0:0:0:0:
192,192,77472,1,4,0:0:0:0:
320,192,77472,1,0,0:0:0:0:
448,192,77628,1,8,0:0:0:0:
320,192,77706,1,8,0:0:0:0:
64,192,77785,1,2,0:0:0:0:
192,192,77863,1,2,0:0:0:0:
448,192,77941,1,8,0:0:0:0:
320,192,78019,1,8,0:0:0:0:
64,192,78097,1,2,0:0:0:0:
192,192,78175,1,2,0:0:0:0:
320,192,78253,1,8,0:0:0:0:
448,192,78253,1,0,0:0:0:0:
64,192,78331,1,8,0:0:0:0:
192,192,78331,1,0,0:0:0:0:
320,192,78410,1,2,0:0:0:0:
448,192,78410,128,4,78722:0:0:0:0:
64,192,78722,128,8,79035:0:0:0:0:
192,192,78722,1,0,0:0:0:70:cymbal light.wav
192,192,79035,1,2,0:0:0:0:
320,192,79035,128,0,79191:0:0:0:70:cymbal light.wav
64,192,79191,1,2,0:0:0:0:
448,192,79191,128,0,79347:0:0:0:0:
64,192,79347,1,8,0:0:0:0:
192,192,79347,128,0,79816:0:0:0:70:cymbal light.wav
320,192,79503,128,2,79816:0:0:0:0:
448,192,79503,1,0,0:0:0:0:
64,192,79816,128,2,79972:0:0:0:0:
448,192,79816,1,0,0:0:0:0:
192,192,79972,128,8,80128:0:0:0:0:
320,192,79972,1,0,0:0:0:70:cymbal light.wav
448,192,80128,128,0,80285:0:0:0:0:
64,192,80285,128,2,80441:0:0:0:0:
192,192,80285,1,0,0:0:0:70:cymbal light.wav
320,192,80441,128,2,80597:0:0:0:0:
448,192,80441,1,0,0:0:0:0:
64,192,80597,1,8,0:0:0:0:
192,192,80597,128,0,80910:0:0:0:70:cymbal light.wav
320,192,80910,1,2,0:0:0:0:
448,192,80910,128,0,81222:0:0:0:70:cymbal light.wav
192,192,81066,1,2,0:0:0:0:
64,192,81222,1,8,0:0:0:0:
320,192,81222,128,0,81535:0:0:0:70:cymbal light.wav
64,192,81535,128,2,81691:0:0:0:0:
192,192,81535,1,0,0:0:0:70:cymbal light.wav
320,192,81691,128,2,81847:0:0:0:0:
448,192,81691,1,0,0:0:0:0:
64,192,81847,1,8,0:0:0:0:
192,192,81847,128,0,82003:0:0:0:70:cymbal light.wav
320,192,82003,1,2,0:0:0:0:
448,192,82003,128,0,82316:0:0:0:0:
64,192,82316,1,2,0:0:0:0:
192,192,82316,128,0,82472:0:0:0:0:
320,192,82472,128,8,82628:0:0:0:0:
448,192,82472,1,0,0:0:0:70:cymbal light.wav
64,192,82628,128,0,82785:0:0:0:0:
448,192,82785,1,2,0:0:0:0:
320,192,82863,1,0,0:0:0:0:
192,192,82941,1,2,0:0:0:0:
64,192,83019,1,0,0:0:0:0:
448,192,83097,1,8,0:0:0:0:
320,192,83175,1,0,0:0:0:0:
192,192,83253,1,0,0:0:0:0:
64,192,83331,1,0,0:0:0:0:
448,192,83410,1,4,0:0:0:0:
320,192,83410,128,2,83722:0:0:0:0:
64,192,83722,128,8,84035:0:0:0:0:
192,192,83722,1,0,0:0:0:70:cymbal light.wav
320,192,84035,1,2,0:0:0:0:
448,192,84035,128,0,84191:0:0:0:70:cymbal light.wav
192,192,84191,1,2,0:0:0:0:
320,192,84191,128,0,84347:0:0:0:0:
64,192,84347,1,8,0:0:0:0:
448,192,84347,128,0,84816:0:0:0:70:cymbal light.wav
64,192,84503,128,2,84816:0:0:0:0:
192,192,84503,1,0,0:0:0:0:
192,192,84816,128,2,84972:0:0:0:0:
320,192,84816,1,0,0:0:0:0:
320,192,84972,128,8,85128:0:0:0:0:
448,192,84972,1,0,0:0:0:70:cymbal light.wav
64,192,85128,128,0,85285:0:0:0:0:
192,192,85285,128,2,85441:0:0:0:0:
448,192,85285,1,0,0:0:0:70:cymbal light.wav
320,192,85441,1,2,0:0:0:0:
448,192,85441,128,0,85597:0:0:0:0:
64,192,85597,128,8,85910:0:0:0:0:
192,192,85597,1,0,0:0:0:70:cymbal light.wav
192,192,85910,1,2,0:0:0:0:
320,192,85910,128,0,86222:0:0:0:70:cymbal light.wav
448,192,86066,1,2,0:0:0:0:
64,192,86222,1,8,0:0:0:0:
192,192,86222,128,0,86535:0:0:0:70:cymbal light.wav
320,192,86535,128,2,86847:0:0:0:0:
448,192,86535,1,0,0:0:0:70:cymbal light.wav
192,192,86691,1,2,0:0:0:0:
64,192,86847,128,8,87003:0:0:0:0:
448,192,86847,1,0,0:0:0:70:cymbal light.wav
192,192,87003,128,2,87160:0:0:0:0:
320,192,87003,1,0,0:0:0:0:
448,192,87160,128,0,87785:0:0:0:70:cymbal light.wav
320,192,87316,1,2,0:0:0:0:
64,192,87472,1,8,0:0:0:0:
192,192,87472,1,0,0:0:0:70:cymbal light.wav
192,192,87785,128,2,88410:0:0:0:0:
320,192,87785,1,0,0:0:0:70:cymbal light.wav
64,192,87941,1,2,0:0:0:0:
320,192,88097,1,8,0:0:0:0:
448,192,88097,1,0,0:0:0:70:cymbal light.wav
64,192,88410,1,2,0:0:0:0:
448,192,88410,128,4,88722:0:0:0:0:
192,192,88722,1,8,0:0:0:0:
320,192,88722,128,0,89035:0:0:0:70:cymbal light.wav
64,192,89035,128,2,89191:0:0:0:0:
192,192,89035,1,0,0:0:0:70:cymbal light.wav
192,192,89191,128,2,89347:0:0:0:0:
448,192,89191,1,0,0:0:0:0:
320,192,89347,128,8,89816:0:0:0:0:
448,192,89347,1,0,0:0:0:70:cymbal light.wav
64,192,89503,128,2,89816:0:0:0:0:
192,192,89503,1,0,0:0:0:0:
192,192,89816,128,2,89972:0:0:0:0:
448,192,89816,1,0,0:0:0:0:
64,192,89972,1,8,0:0:0:0:
320,192,89972,128,0,90128:0:0:0:70:cymbal light.wav
448,192,90128,128,0,90285:0:0:0:0:
64,192,90285,1,2,0:0:0:0:
192,192,90285,128,0,90441:0:0:0:70:cymbal light.wav
320,192,90441,128,2,90597:0:0:0:0:
448,192,90441,1,0,0:0:0:0:
64,192,90597,128,8,90910:0:0:0:0:
192,192,90597,1,0,0:0:0:70:cymbal light.wav
320,192,90910,1,2,0:0:0:0:
448,192,90910,128,0,91222:0:0:0:70:cymbal light.wav
64,192,91066,1,2,0:0:0:0:
192,192,91222,128,8,91535:0:0:0:0:
320,192,91222,1,0,0:0:0:70:cymbal light.wav
64,192,91535,1,2,0:0:0:0:
320,192,91535,128,0,91691:0:0:0:70:cymbal light.wav
64,192,91691,128,2,91847:0:0:0:0:
448,192,91691,1,0,0:0:0:0:
192,192,91847,128,8,92003:0:0:0:0:
320,192,91847,1,0,0:0:0:70:cymbal light.wav
64,192,92003,1,2,0:0:0:0:
448,192,92003,128,0,92316:0:0:0:0:
64,192,92316,128,2,92472:0:0:0:0:
320,192,92316,1,0,0:0:0:0:
192,192,92472,1,8,0:0:0:0:
448,192,92472,128,0,92628:0:0:0:70:cymbal light.wav
320,192,92628,128,0,92785:0:0:0:0:
64,192,92785,1,2,0:0:0:0:
192,192,92863,1,0,0:0:0:0:
320,192,92941,1,2,0:0:0:0:
448,192,93019,1,0,0:0:0:0:
64,192,93097,1,8,0:0:0:0:
192,192,93175,1,0,0:0:0:0:
320,192,93253,1,0,0:0:0:0:
448,192,93331,1,0,0:0:0:0:
64,192,93410,128,2,94660:0:0:0:0:
192,192,93410,1,4,0:0:0:0:
320,192,93722,1,8,0:0:0:0:
448,192,93722,1,0,0:0:0:70:cymbal light.wav
192,192,94035,1,2,0:0:0:0:
448,192,94191,1,2,0:0:0:0:
192,192,94347,1,8,0:0:0:0:
320,192,94347,1,0,0:0:0:70:cymbal light.wav
448,192,94503,1,2,0:0:0:0:
320,192,94660,128,0,95910:0:0:0:70:cymbal light.wav
192,192,94816,1,2,0:0:0:0:
64,192,94972,1,8,0:0:0:0:
448,192,94972,1,0,0:0:0:70:cymbal light.wav
192,192,95128,1,0,0:0:0:0:
64,192,95285,1,2,0:0:0:0:
448,192,95441,1,2,0:0:0:0:
64,192,95597,1,8,0:0:0:0:
192,192,95597,1,0,0:0:0:70:cymbal light.wav
192,192,95910,1,2,0:0:0:0:
448,192,95910,128,0,97160:0:0:0:70:cymbal light.wav
320,192,96066,1,2,0:0:0:0:
64,192,96222,1,8,0:0:0:0:
192,192,96222,1,0,0:0:0:70:cymbal light.wav
192,192,96535,1,2,0:0:0:0:
320,192,96691,1,2,0:0:0:0:
64,192,96847,1,8,0:0:0:0:
192,192,96847,1,0,0:0:0:70:cymbal light.wav
320,192,97003,1,2,0:0:0:0:
64,192,97160,1,2,0:0:0:0:
192,192,97160,1,0,0:0:0:0:
192,192,97316,1,2,0:0:0:0:
448,192,97316,1,0,0:0:0:0:
64,192,97472,1,2,0:0:0:0:
448,192,97472,1,0,0:0:0:0:
64,192,97628,1,2,0:0:0:0:
320,192,97628,1,0,0:0:0:0:
192,192,97785,1,2,0:0:0:0:
320,192,97785,1,0,0:0:0:0:
192,192,97941,1,2,0:0:0:0:
448,192,97941,1,0,0:0:0:0:
64,192,98097,1,2,0:0:0:0:
448,192,98097,1,0,0:0:0:0:
64,192,98253,128,2,98410:0:0:0:0:
320,192,98253,1,0,0:0:0:0:
448,192,98410,128,4,98722:0:0:0:0:
192,192,98410,1,2,0:0:0:0:
64,192,98722,1,8,0:0:0:0:
320,192,98722,1,0,0:0:0:70:cymbal light.wav
320,192,99035,1,2,0:0:0:0:
192,192,99035,128,0,99191:0:0:0:70:cymbal light.wav
448,192,99191,1,2,0:0:0:0:
64,192,99347,1,8,0:0:0:0:
320,192,99347,1,0,0:0:0:70:cymbal light.wav
448,192,99503,128,0,99660:0:0:0:0:
192,192,99503,1,2,0:0:0:0:
64,192,99660,128,0,99972:0:0:0:70:cymbal light.wav
320,192,99816,1,2,0:0:0:0:
192,192,99972,1,8,0:0:0:0:
448,192,99972,1,0,0:0:0:70:cymbal light.wav
448,192,100285,128,2,100441:0:0:0:0:
64,192,100285,1,0,0:0:0:70:cymbal light.wav
192,192,100441,1,2,0:0:0:0:
448,192,100597,1,8,0:0:0:0:
320,192,100597,1,0,0:0:0:70:cymbal light.wav
192,192,100753,128,0,100910:0:0:0:0:
448,192,100910,128,2,101222:0:0:0:0:
320,192,100910,1,0,0:0:0:70:cymbal light.wav
192,192,101066,1,2,0:0:0:0:
320,192,101222,1,8,0:0:0:0:
64,192,101222,1,0,0:0:0:70:cymbal light.wav
448,192,101535,1,2,0:0:0:0:
64,192,101535,128,0,101691:0:0:0:70:cymbal light.wav
320,192,101691,1,2,0:0:0:0:
192,192,101847,1,8,0:0:0:0:
64,192,101847,1,0,0:0:0:70:cymbal light.wav
320,192,102003,1,2,0:0:0:0:
448,192,102003,128,0,102316:0:0:0:0:
64,192,102316,1,2,0:0:0:0:
320,192,102316,128,0,102472:0:0:0:0:
192,192,102472,128,8,102628:0:0:0:0:
448,192,102472,1,0,0:0:0:70:cymbal light.wav
64,192,102628,128,0,102785:0:0:0:0:
192,192,102785,1,2,0:0:0:0:
448,192,102785,128,0,102941:0:0:0:70:cymbal light.wav
64,192,102941,1,2,0:0:0:0:
320,192,102941,128,0,103097:0:0:0:0:
192,192,103097,128,8,103253:0:0:0:0:
448,192,103097,1,0,0:0:0:70:cymbal light.wav
320,192,103253,128,0,103410:0:0:0:0:
64,192,103410,128,2,103722:0:0:0:0:
448,192,103410,1,4,0:0:0:0:
192,192,103722,1,8,0:0:0:0:
448,192,103722,1,0,0:0:0:70:cymbal light.wav
64,192,104035,1,2,0:0:0:0:
320,192,104035,128,0,104191:0:0:0:70:cymbal light.wav
192,192,104191,1,2,0:0:0:0:
64,192,104347,1,8,0:0:0:0:
448,192,104347,1,0,0:0:0:70:cymbal light.wav
192,192,104503,128,2,104660:0:0:0:0:
320,192,104503,1,0,0:0:0:0:
448,192,104660,128,0,104972:0:0:0:70:cymbal light.wav
64,192,104816,1,2,0:0:0:0:
192,192,104972,1,8,0:0:0:0:
320,192,104972,1,0,0:0:0:70:cymbal light.wav
448,192,105285,1,2,0:0:0:0:
64,192,105285,128,0,105441:0:0:0:70:cymbal light.wav
320,192,105441,1,2,0:0:0:0:
64,192,105597,1,8,0:0:0:0:
192,192,105597,1,0,0:0:0:70:cymbal light.wav
448,192,105753,128,0,105910:0:0:0:0:
320,192,105910,1,2,0:0:0:0:
192,192,105910,128,0,106222:0:0:0:70:cymbal light.wav
448,192,106066,1,2,0:0:0:0:
320,192,106222,1,8,0:0:0:0:
64,192,106222,1,0,0:0:0:70:cymbal light.wav
320,192,106535,128,2,106691:0:0:0:0:
448,192,106535,1,0,0:0:0:70:cymbal light.wav
64,192,106691,1,2,0:0:0:0:
192,192,106847,1,8,0:0:0:0:
448,192,106847,1,0,0:0:0:70:cymbal light.wav
64,192,107003,128,2,107316:0:0:0:0:
320,192,107003,1,0,0:0:0:0:
192,192,107316,128,2,107472:0:0:0:0:
448,192,107316,1,0,0:0:0:0:
64,192,107472,1,8,0:0:0:0:
320,192,107472,128,0,107628:0:0:0:70:cymbal light.wav
448,192,107628,128,0,108410:0:0:0:0:
64,192,107785,1,2,0:0:0:0:
320,192,107941,1,2,0:0:0:0:
64,192,108097,1,8,0:0:0:0:
192,192,108097,1,0,0:0:0:70:cymbal light.wav
64,192,108410,128,2,108878:0:0:0:0:
320,192,108410,1,4,0:0:0:0:
192,192,108722,1,8,0:0:0:0:
448,192,108722,1,0,0:0:0:70:cymbal light.wav
320,192,108878,128,0,109347:0:0:0:0:
64,192,109035,1,2,0:0:0:0:
448,192,109191,1,2,0:0:0:0:
64,192,109347,1,8,0:0:0:0:
192,192,109347,128,0,109660:0:0:0:70:cymbal light.wav
320,192,109503,1,2,0:0:0:0:
448,192,109660,128,0,109816:0:0:0:70:cymbal light.wav
64,192,109816,1,2,0:0:0:0:
320,192,109816,128,0,109972:0:0:0:0:
64,192,109972,1,8,0:0:0:0:
192,192,109972,128,0,110128:0:0:0:70:cymbal light.wav
320,192,110285,1,2,0:0:0:0:
448,192,110285,1,0,0:0:0:70:cymbal light.wav
64,192,110441,1,2,0:0:0:0:
192,192,110597,1,8,0:0:0:0:
320,192,110597,1,0,0:0:0:70:cymbal light.wav
448,192,110753,1,0,0:0:0:0:
64,192,110910,1,2,0:0:0:0:
320,192,110910,128,0,111222:0:0:0:70:cymbal light.wav
192,192,111066,1,2,0:0:0:0:
64,192,111222,1,8,0:0:0:0:
448,192,111222,1,0,0:0:0:70:cymbal light.wav
192,192,111378,128,0,111535:0:0:0:0:
64,192,111535,1,2,0:0:0:0:
320,192,111691,128,2,111847:0:0:0:0:
448,192,111691,1,0,0:0:0:0:
64,192,111847,1,8,0:0:0:0:
192,192,111847,1,0,0:0:0:70:cymbal light.wav
320,192,112003,1,2,0:0:0:0:
448,192,112003,128,0,112941:0:0:0:0:
64,192,112316,1,2,0:0:0:0:
192,192,112472,1,8,0:0:0:0:
320,192,112472,1,0,0:0:0:70:cymbal light.wav
192,192,112785,1,2,0:0:0:0:
320,192,112941,1,2,0:0:0:0:
64,192,113097,1,8,0:0:0:0:
192,192,113097,1,0,0:0:0:70:cymbal light.wav
320,192,113253,1,0,0:0:0:0:
64,192,113410,1,2,0:0:0:0:
448,192,113410,1,4,0:0:0:0:
192,192,113566,1,0,0:0:0:0:
320,192,113722,1,8,0:0:0:0:
448,192,113722,1,0,0:0:0:70:cymbal light.wav
64,192,113878,128,0,114191:0:0:0:0:
192,192,114035,1,2,0:0:0:0:
448,192,114191,1,2,0:0:0:0:
192,192,114347,1,8,0:0:0:0:
320,192,114347,1,0,0:0:0:70:cymbal light.wav
64,192,114503,1,2,0:0:0:0:
320,192,114503,1,4,0:0:0:0:
448,192,114503,1,0,0:0:0:0:
192,192,114816,1,2,0:0:0:0:
320,192,114816,1,4,0:0:0:0:
448,192,114816,1,0,0:0:0:0:
64,192,114972,1,2,0:0:0:0:
192,192,114972,1,4,0:0:0:0:
320,192,114972,1,0,0:0:0:0:
192,192,115910,1,2,0:0:0:0:
448,192,115910,1,4,0:0:0:0:
192,192,116066,1,0,0:0:0:0:
448,192,116066,1,0,0:0:0:0:
64,192,116222,1,8,0:0:0:0:
192,192,116222,1,0,0:0:0:70:cymbal light.wav
320,192,116222,1,0,0:0:0:0:
448,192,116378,1,0,0:0:0:0:
64,192,116535,1,2,0:0:0:0:
320,192,116535,1,0,0:0:0:70:cymbal light.wav
192,192,116691,1,2,0:0:0:0:
448,192,116691,1,0,0:0:0:0:
64,192,116847,1,8,0:0:0:0:
320,192,116847,1,0,0:0:0:70:cymbal light.wav
448,192,116847,1,0,0:0:0:0:
192,192,117003,1,0,0:0:0:0:
64,192,117160,1,2,0:0:0:0:
320,192,117160,1,0,0:0:0:70:cymbal light.wav
64,192,117316,1,2,0:0:0:0:
320,192,117316,1,0,0:0:0:0:
64,192,117472,1,8,0:0:0:0:
192,192,117472,1,0,0:0:0:70:cymbal light.wav
448,192,117472,1,0,0:0:0:0:
320,192,117628,1,0,0:0:0:0:
192,192,117785,1,2,0:0:0:0:
448,192,117785,1,0,0:0:0:70:cymbal light.wav
64,192,117941,1,2,0:0:0:0:
320,192,117941,1,0,0:0:0:0:
64,192,118097,1,8,0:0:0:0:
192,192,118097,1,0,0:0:0:70:cymbal light.wav
448,192,118097,1,0,0:0:0:0:
320,192,118253,1,0,0:0:0:0:
64,192,118410,1,2,0:0:0:0:
192,192,118410,1,0,0:0:0:70:cymbal light.wav
64,192,118566,1,2,0:0:0:0:
192,192,118566,1,0,0:0:0:0:
192,192,118722,1,8,0:0:0:0:
320,192,118722,1,0,0:0:0:70:cymbal light.wav
448,192,118722,1,0,0:0:0:0:
448,192,118878,1,0,0:0:0:0:
64,192,119035,1,2,0:0:0:0:
320,192,119035,1,0,0:0:0:70:cymbal light.wav
192,192,119191,1,2,0:0:0:0:
320,192,119191,1,0,0:0:0:0:
64,192,119347,1,8,0:0:0:0:
192,192,119347,1,0,0:0:0:70:cymbal light.wav
448,192,119347,1,0,0:0:0:0:
320,192,119503,1,0,0:0:0:0:
64,192,119660,128,2,119816:0:0:0:0:
192,192,119660,1,0,0:0:0:70:cymbal light.wav
320,192,119816,128,2,119972:0:0:0:0:
448,192,119816,1,0,0:0:0:0:
64,192,119972,1,8,0:0:0:0:
192,192,119972,128,0,120128:0:0:0:70:cymbal light.wav
448,192,120128,128,0,120441:0:0:0:0:
320,192,120285,1,2,0:0:0:0:
64,192,120441,1,2,0:0:0:0:
192,192,120519,1,0,0:0:0:0:
448,192,120597,1,0,0:0:0:70:cymbal light.wav
320,192,120597,128,8,120753:0:0:0:0:
192,192,120753,128,0,120910:0:0:0:0:
64,192,120910,1,2,0:0:0:0:
448,192,120910,1,0,0:0:0:0:
320,192,120910,1,4,0:0:0:0:
64,192,121066,1,0,0:0:0:0:
320,192,121066,1,0,0:0:0:0:
192,192,121222,1,8,0:0:0:0:
320,192,121222,1,0,0:0:0:70:cymbal light.wav
448,192,121222,1,0,0:0:0:0:
64,192,121378,1,0,0:0:0:0:
192,192,121535,1,2,0:0:0:0:
448,192,121535,1,0,0:0:0:70:cymbal light.wav
64,192,121691,1,2,0:0:0:0:
320,192,121691,1,0,0:0:0:0:
64,192,121847,1,8,0:0:0:0:
192,192,121847,1,0,0:0:0:70:cymbal light.wav
448,192,121847,1,0,0:0:0:0:
320,192,122003,1,0,0:0:0:0:
192,192,122160,1,2,0:0:0:0:
448,192,122160,1,0,0:0:0:70:cymbal light.wav
192,192,122316,1,2,0:0:0:0:
448,192,122316,1,0,0:0:0:0:
64,192,122472,1,8,0:0:0:0:
192,192,122472,1,0,0:0:0:70:cymbal light.wav
320,192,122472,1,0,0:0:0:0:
448,192,122628,1,0,0:0:0:0:
64,192,122785,1,2,0:0:0:0:
320,192,122785,1,0,0:0:0:70:cymbal light.wav
192,192,122941,1,2,0:0:0:0:
448,192,122941,1,0,0:0:0:0:
64,192,123097,1,8,0:0:0:0:
320,192,123097,1,0,0:0:0:70:cymbal light.wav
448,192,123097,1,0,0:0:0:0:
64,192,123253,1,0,0:0:0:0:
320,192,123410,1,2,0:0:0:0:
448,192,123410,1,0,0:0:0:70:cymbal light.wav
320,192,123566,1,2,0:0:0:0:
448,192,123566,1,0,0:0:0:0:
64,192,123722,1,8,0:0:0:0:
192,192,123722,1,0,0:0:0:70:cymbal light.wav
448,192,123722,1,0,0:0:0:0:
192,192,123878,1,0,0:0:0:0:
320,192,124035,1,2,0:0:0:0:
448,192,124035,1,0,0:0:0:70:cymbal light.wav
64,192,124191,1,2,0:0:0:0:
192,192,124191,1,0,0:0:0:0:
64,192,124347,1,8,0:0:0:0:
320,192,124347,1,0,0:0:0:70:cymbal light.wav
448,192,124347,1,0,0:0:0:0:
192,192,124503,1,0,0:0:0:0:
64,192,124660,128,2,124816:0:0:0:0:
448,192,124660,128,0,124816:0:0:0:70:cymbal light.wav
192,192,124816,1,2,0:0:0:0:
320,192,124816,128,0,124972:0:0:0:0:
192,192,124972,128,8,125128:0:0:0:0:
448,192,124972,128,0,125128:0:0:0:70:cymbal light.wav
64,192,125128,128,0,125441:0:0:0:0:
192,192,125285,1,2,0:0:0:0:
320,192,125441,1,2,0:0:0:0:
448,192,125441,1,0,0:0:0:0:
64,192,125519,1,0,0:0:0:0:
192,192,125519,1,0,0:0:0:0:
320,192,125597,128,8,125831:0:0:0:0:
448,192,125597,128,0,125831:0:0:0:70:cymbal light.wav
64,192,125910,1,2,0:0:0:0:
448,192,125910,1,0,0:0:0:0:
320,192,125910,1,4,0:0:0:0:
192,192,126066,1,0,0:0:0:0:
320,192,126144,1,0,0:0:0:0:
64,192,126222,1,8,0:0:0:0:
192,192,126222,1,0,0:0:0:70:cymbal light.wav
448,192,126378,1,0,0:0:0:0:
64,192,126456,1,0,0:0:0:0:
192,192,126535,1,2,0:0:0:0:
320,192,126535,1,0,0:0:0:70:cymbal light.wav
448,192,126691,1,2,0:0:0:0:
320,192,126769,1,0,0:0:0:0:
64,192,126847,1,8,0:0:0:0:
192,192,126847,1,0,0:0:0:70:cymbal light.wav
320,192,126925,1,0,0:0:0:0:
448,192,127003,1,0,0:0:0:0:
64,192,127160,1,2,0:0:0:0:
320,192,127160,1,0,0:0:0:70:cymbal light.wav
192,192,127316,1,2,0:0:0:0:
320,192,127472,1,8,0:0:0:0:
448,192,127472,1,0,0:0:0:70:cymbal light.wav
64,192,127576,1,0,0:0:0:0:
192,192,127680,1,0,0:0:0:0:
64,192,127785,1,2,0:0:0:0:
448,192,127785,1,0,0:0:0:70:cymbal light.wav
320,192,127889,1,0,0:0:0:0:
64,192,127993,1,0,0:0:0:0:
192,192,128097,1,8,0:0:0:0:
448,192,128097,1,0,0:0:0:70:cymbal light.wav
320,192,128201,1,0,0:0:0:0:
192,192,128305,1,0,0:0:0:0:
64,192,128410,1,2,0:0:0:0:
448,192,128410,1,0,0:0:0:70:cymbal light.wav
320,192,128514,1,0,0:0:0:0:
448,192,128618,1,0,0:0:0:0:
64,192,128722,1,8,0:0:0:0:
192,192,128722,1,0,0:0:0:70:cymbal light.wav
320,192,128826,1,0,0:0:0:0:
192,192,128930,1,0,0:0:0:0:
64,192,129035,1,2,0:0:0:0:
448,192,129035,1,0,0:0:0:70:cymbal light.wav
320,192,129113,1,0,0:0:0:0:
192,192,129191,1,2,0:0:0:0:
64,192,129269,1,0,0:0:0:0:
320,192,129347,1,8,0:0:0:0:
448,192,129347,1,0,0:0:0:70:cymbal light.wav
192,192,129425,1,0,0:0:0:0:
320,192,129503,1,0,0:0:0:0:
448,192,129581,1,0,0:0:0:0:
64,192,129660,1,2,0:0:0:0:
192,192,129660,1,0,0:0:0:70:cymbal light.wav
320,192,129738,1,0,0:0:0:0:
448,192,129816,1,2,0:0:0:0:
64,192,129894,1,0,0:0:0:0:
192,192,129972,1,8,0:0:0:0:
448,192,129972,1,0,0:0:0:70:cymbal light.wav
320,192,130050,1,0,0:0:0:0:
192,192,130128,1,0,0:0:0:0:
64,192,130285,1,2,0:0:0:0:
320,192,130285,1,0,0:0:0:70:cymbal light.wav
448,192,130441,1,2,0:0:0:0:
320,192,130519,1,0,0:0:0:0:
192,192,130597,1,8,0:0:0:0:
448,192,130597,1,0,0:0:0:70:cymbal light.wav
64,192,130675,1,0,0:0:0:0:
192,192,130753,1,0,0:0:0:0:
320,192,130831,1,0,0:0:0:0:
64,192,130910,1,2,0:0:0:0:
448,192,130910,1,4,0:0:0:0:
192,192,130988,1,0,0:0:0:0:
64,192,131066,1,0,0:0:0:0:
320,192,131144,1,0,0:0:0:0:
192,192,131222,1,8,0:0:0:0:
448,192,131222,1,0,0:0:0:70:cymbal light.wav
320,192,131300,1,0,0:0:0:0:
64,192,131378,1,0,0:0:0:0:
192,192,131456,1,0,0:0:0:0:
64,192,131535,1,2,0:0:0:0:
448,192,131535,1,0,0:0:0:70:cymbal light.wav
320,192,131613,1,0,0:0:0:0:
448,192,131691,1,2,0:0:0:0:
64,192,131769,1,0,0:0:0:0:
192,192,131847,1,8,0:0:0:0:
320,192,131847,1,0,0:0:0:70:cymbal light.wav
448,192,131925,1,0,0:0:0:0:
64,192,132003,1,0,0:0:0:0:
192,192,132081,1,0,0:0:0:0:
64,192,132160,1,2,0:0:0:0:
448,192,132160,1,0,0:0:0:70:cymbal light.wav
320,192,132238,1,0,0:0:0:0:
448,192,132316,1,2,0:0:0:0:
192,192,132394,1,0,0:0:0:0:
64,192,132472,1,8,0:0:0:0:
320,192,132472,1,0,0:0:0:70:cymbal light.wav
192,192,132550,1,0,0:0:0:0:
448,192,132628,1,0,0:0:0:0:
320,192,132706,1,0,0:0:0:0:
64,192,132785,1,2,0:0:0:0:
448,192,132785,1,0,0:0:0:70:cymbal light.wav
192,192,132941,1,2,0:0:0:0:
64,192,133019,1,0,0:0:0:0:
192,192,133097,1,8,0:0:0:0:
448,192,133097,1,0,0:0:0:70:cymbal light.wav
320,192,133253,1,0,0:0:0:0:
448,192,133331,1,0,0:0:0:0:
64,192,133410,1,2,0:0:0:0:
320,192,133410,1,0,0:0:0:70:cymbal light.wav
192,192,133566,1,2,0:0:0:0:
320,192,133644,1,0,0:0:0:0:
64,192,133722,1,8,0:0:0:0:
448,192,133722,1,0,0:0:0:70:cymbal light.wav
320,192,133800,1,0,0:0:0:0:
192,192,133878,1,0,0:0:0:0:
64,192,134035,1,2,0:0:0:0:
448,192,134035,1,0,0:0:0:70:cymbal light.wav
192,192,134113,1,0,0:0:0:0:
320,192,134191,1,2,0:0:0:0:
64,192,134347,1,8,0:0:0:0:
192,192,134347,1,0,0:0:0:70:cymbal light.wav
448,192,134503,1,0,0:0:0:0:
320,192,134581,1,0,0:0:0:0:
64,192,134660,1,2,0:0:0:0:
192,192,134660,128,0,134816:0:0:0:70:cymbal light.wav
320,192,134816,128,2,134972:0:0:0:0:
448,192,134816,1,0,0:0:0:0:
64,192,134972,128,8,135128:0:0:0:0:
192,192,134972,1,0,0:0:0:70:cymbal light.wav
448,192,135128,128,0,135597:0:0:0:0:
64,192,135285,1,2,0:0:0:0:
192,192,135441,1,2,0:0:0:0:
64,192,135597,128,8,135910:0:0:0:0:
320,192,135597,1,0,0:0:0:70:cymbal light.wav
192,192,135910,1,2,0:0:0:0:
448,192,135910,1,0,0:0:0:0:
320,192,135910,128,4,136535:0:0:0:0:
192,192,136222,1,8,0:0:0:0:
448,192,136222,1,0,0:0:0:70:cymbal light.wav
64,192,136535,128,2,136691:0:0:0:0:
448,192,136535,1,0,0:0:0:70:cymbal light.wav
192,192,136691,128,2,136847:0:0:0:0:
320,192,136691,1,0,0:0:0:0:
64,192,136847,1,8,0:0:0:0:
448,192,136847,128,0,137003:0:0:0:70:cymbal light.wav
320,192,137003,128,0,137160:0:0:0:0:
64,192,137160,128,2,137472:0:0:0:0:
192,192,137160,1,0,0:0:0:70:cymbal light.wav
320,192,137316,1,2,0:0:0:0:
192,192,137472,128,8,137785:0:0:0:0:
448,192,137472,1,0,0:0:0:70:cymbal light.wav
320,192,137785,1,2,0:0:0:0:
448,192,137785,128,0,138097:0:0:0:70:cymbal light.wav
192,192,137941,1,2,0:0:0:0:
64,192,138097,1,8,0:0:0:0:
320,192,138097,128,0,138410:0:0:0:70:cymbal light.wav
64,192,138410,128,2,138722:0:0:0:0:
192,192,138410,1,0,0:0:0:70:cymbal light.wav
448,192,138566,1,2,0:0:0:0:
192,192,138722,1,8,0:0:0:0:
320,192,138722,128,0,139035:0:0:0:70:cymbal light.wav
64,192,139035,1,2,0:0:0:0:
448,192,139035,128,0,139347:0:0:0:70:cymbal light.wav
320,192,139191,1,2,0:0:0:0:
64,192,139347,1,8,0:0:0:0:
192,192,139347,128,0,139660:0:0:0:70:cymbal light.wav
320,192,139660,128,2,139972:0:0:0:0:
448,192,139660,1,0,0:0:0:70:cymbal light.wav
64,192,139816,1,2,0:0:0:0:
64,192,139972,128,8,140128:0:0:0:0:
192,192,139972,1,0,0:0:0:70:cymbal light.wav
448,192,140128,128,0,140910:0:0:0:0:
320,192,140285,1,2,0:0:0:0:
192,192,140441,1,2,0:0:0:0:
64,192,140597,1,8,0:0:0:0:
320,192,140597,1,0,0:0:0:70:cymbal light.wav
64,192,140910,128,2,142160:0:0:0:0:
192,192,140910,1,4,0:0:0:0:
320,192,141222,1,8,0:0:0:0:
448,192,141222,1,0,0:0:0:70:cymbal light.wav
192,192,141535,1,2,0:0:0:0:
320,192,141691,1,2,0:0:0:0:
192,192,141847,1,8,0:0:0:0:
448,192,141847,1,0,0:0:0:70:cymbal light.wav
320,192,142160,1,2,0:0:0:0:
448,192,142160,128,0,142472:0:0:0:70:cymbal light.wav
192,192,142316,1,2,0:0:0:0:
64,192,142472,1,8,0:0:0:0:
320,192,142472,128,0,142628:0:0:0:70:cymbal light.wav
192,192,142628,128,0,142941:0:0:0:0:
448,192,142785,1,2,0:0:0:0:
64,192,142941,128,2,143410:0:0:0:0:
320,192,142941,1,0,0:0:0:0:
192,192,143097,1,8,0:0:0:0:
448,192,143097,1,0,0:0:0:70:cymbal light.wav
320,192,143410,128,2,144347:0:0:0:0:
448,192,143410,1,0,0:0:0:70:cymbal light.wav
192,192,143566,1,2,0:0:0:0:
64,192,143722,1,8,0:0:0:0:
448,192,143722,1,0,0:0:0:70:cymbal light.wav
192,192,144035,1,2,0:0:0:0:
64,192,144191,1,2,0:0:0:0:
192,192,144347,1,8,0:0:0:0:
448,192,144347,1,0,0:0:0:70:cymbal light.wav
320,192,144503,1,0,0:0:0:0:
64,192,144660,1,8,0:0:0:0:
448,192,144660,1,0,0:0:0:0:
192,192,144738,1,8,0:0:0:0:
320,192,144816,1,2,0:0:0:0:
64,192,144894,1,2,0:0:0:0:
192,192,144972,1,2,0:0:0:0:
320,192,145050,1,2,0:0:0:0:
64,192,145128,1,8,0:0:0:0:
448,192,145128,1,0,0:0:0:0:
320,192,145206,1,8,0:0:0:0:
192,192,145285,1,2,0:0:0:0:
448,192,145363,1,2,0:0:0:0:
320,192,145441,1,2,0:0:0:0:
192,192,145519,1,2,0:0:0:0:
64,192,145597,1,8,0:0:0:0:
448,192,145597,1,0,0:0:0:0:
192,192,145753,1,0,0:0:0:0:
320,192,145831,1,0,0:0:0:0:
64,192,145910,1,2,0:0:0:0:
192,192,145910,1,0,0:0:0:70:LR_Drum Finish.wav
448,192,145910,1,0,0:0:0:0:
320,192,146066,1,0,0:0:0:0:
64,192,146222,1,8,0:0:0:0:
192,192,146222,1,0,0:0:0:70:LR_Hat Normal.wav
448,192,146222,1,0,0:0:0:0:
320,192,146378,1,0,0:0:0:0:
64,192,146535,1,2,0:0:0:0:
192,192,146535,1,0,0:0:0:70:LR_Hat Normal.wav
320,192,146691,1,2,0:0:0:0:
64,192,146847,1,8,0:0:0:0:
192,192,146847,1,0,0:0:0:70:LR_Hat Normal.wav
448,192,146847,1,0,0:0:0:0:
320,192,147003,1,0,0:0:0:0:
192,192,147160,1,2,0:0:0:0:
448,192,147160,1,0,0:0:0:70:LR_Hat Normal.wav
64,192,147316,1,2,0:0:0:0:
192,192,147472,1,8,0:0:0:0:
320,192,147472,1,0,0:0:0:70:LR_Hat Normal.wav
448,192,147472,1,0,0:0:0:0:
64,192,147628,1,0,0:0:0:0:
320,192,147785,1,2,0:0:0:0:
448,192,147785,1,0,0:0:0:70:LR_Hat Normal.wav
192,192,147941,1,2,0:0:0:0:
64,192,148097,1,8,0:0:0:0:
320,192,148097,1,0,0:0:0:70:LR_Hat Normal.wav
448,192,148097,1,0,0:0:0:0:
192,192,148253,1,0,0:0:0:0:
64,192,148410,1,2,0:0:0:0:
448,192,148410,1,0,0:0:0:70:LR_Hat Normal.wav
320,192,148566,1,2,0:0:0:0:
64,192,148722,1,8,0:0:0:0:
192,192,148722,1,0,0:0:0:70:LR_Hat Normal.wav
448,192,148722,1,0,0:0:0:0:
320,192,148878,1,0,0:0:0:0:
64,192,149035,1,2,0:0:0:0:
192,192,149035,1,0,0:0:0:70:LR_Hat Normal.wav
320,192,149191,1,2,0:0:0:0:
64,192,149347,1,8,0:0:0:0:
192,192,149347,1,0,0:0:0:70:LR_Hat Normal.wav
448,192,149347,1,0,0:0:0:0:
64,192,149503,128,2,149816:0:0:0:0:
320,192,149503,128,0,149816:0:0:0:0:
192,192,149816,1,2,0:0:0:0:
320,192,149972,128,8,150128:0:0:0:0:
448,192,149972,128,0,150128:0:0:0:70:LR_Hat Normal.wav
192,192,150285,128,2,150441:0:0:0:0:
320,192,150285,128,0,150441:0:0:0:70:LR_Hat Normal.wav
64,192,150597,128,8,150753:0:0:0:0:
192,192,150597,128,0,150753:0:0:0:70:LR_Hat Normal.wav
64,192,150910,1,2,0:0:0:0:
192,192,150910,1,0,0:0:0:70:LR_Drum Finish.wav
448,192,150910,1,0,0:0:0:0:
320,192,151066,1,0,0:0:0:0:
64,192,151222,1,8,0:0:0:0:
192,192,151222,1,0,0:0:0:70:LR_Hat Normal.wav
448,192,151222,1,0,0:0:0:0:
320,192,151378,1,0,0:0:0:0:
64,192,151535,1,2,0:0:0:0:
448,192,151535,1,0,0:0:0:70:LR_Hat Normal.wav
192,192,151691,1,2,0:0:0:0:
64,192,151847,1,8,0:0:0:0:
320,192,151847,1,0,0:0:0:70:LR_Hat Normal.wav
448,192,151847,1,0,0:0:0:0:
192,192,152003,1,0,0:0:0:0:
64,192,152160,1,2,0:0:0:0:
448,192,152160,1,0,0:0:0:70:LR_Hat Normal.wav
320,192,152316,1,2,0:0:0:0:
64,192,152472,1,8,0:0:0:0:
192,192,152472,1,0,0:0:0:70:LR_Hat Normal.wav
448,192,152472,1,0,0:0:0:0:
320,192,152628,1,0,0:0:0:0:
64,192,152785,1,2,0:0:0:0:
192,192,152785,1,0,0:0:0:70:LR_Hat Normal.wav
320,192,152941,1,2,0:0:0:0:
64,192,153097,1,8,0:0:0:0:
192,192,153097,1,0,0:0:0:70:LR_Hat Normal.wav
448,192,153097,1,0,0:0:0:0:
320,192,153253,1,0,0:0:0:0:
64,192,153410,1,2,0:0:0:0:
448,192,153410,1,0,0:0:0:70:LR_Hat Normal.wav
192,192,153566,1,2,0:0:0:0:
64,192,153722,1,8,0:0:0:0:
320,192,153722,1,0,0:0:0:70:LR_Hat Normal.wav
448,192,153722,1,0,0:0:0:0:
192,192,153878,1,0,0:0:0:0:
320,192,154035,1,2,0:0:0:0:
448,192,154035,1,0,0:0:0:70:LR_Hat Normal.wav
192,192,154191,1,2,0:0:0:0:
64,192,154347,1,8,0:0:0:0:
320,192,154347,1,0,0:0:0:70:LR_Hat Normal.wav
448,192,154347,1,0,0:0:0:0:
192,192,154503,128,2,154816:0:0:0:0:
448,192,154503,128,0,154816:0:0:0:0:
320,192,154816,1,2,0:0:0:0:
64,192,154972,128,8,155128:0:0:0:0:
192,192,154972,128,0,155128:0:0:0:70:LR_Hat Normal.wav
192,192,155285,128,2,155441:0:0:0:0:
320,192,155285,128,0,155441:0:0:0:70:LR_Hat Normal.wav
320,192,155597,128,8,155753:0:0:0:0:
448,192,155597,128,0,155753:0:0:0:70:LR_Hat Normal.wav
64,192,155910,1,2,0:0:0:0:
320,192,155910,1,0,0:0:0:70:LR_Drum Finish.wav
448,192,155910,1,0,0:0:0:0:
192,192,156066,1,0,0:0:0:0:
320,192,156144,1,0,0:0:0:0:
64,192,156222,1,8,0:0:0:0:
448,192,156222,1,0,0:0:0:70:LR_Hat Normal.wav
320,192,156378,1,0,0:0:0:0:
192,192,156456,1,0,0:0:0:0:
64,192,156535,1,2,0:0:0:0:
448,192,156535,1,0,0:0:0:70:LR_Hat Normal.wav
192,192,156691,1,2,0:0:0:0:
320,192,156769,1,0,0:0:0:0:
64,192,156847,1,8,0:0:0:0:
448,192,156847,1,0,0:0:0:70:LR_Hat Normal.wav
192,192,156925,1,0,0:0:0:0:
320,192,157003,1,0,0:0:0:0:
192,192,157081,1,0,0:0:0:0:
64,192,157160,1,2,0:0:0:0:
448,192,157160,1,0,0:0:0:70:LR_Hat Normal.wav
320,192,157316,1,2,0:0:0:0:
192,192,157394,1,0,0:0:0:0:
64,192,157472,1,8,0:0:0:0:
448,192,157472,1,0,0:0:0:70:LR_Hat Normal.wav
192,192,157628,1,0,0:0:0:0:
320,192,157706,1,0,0:0:0:0:
64,192,157785,1,2,0:0:0:0:
448,192,157785,1,0,0:0:0:70:LR_Hat Normal.wav
320,192,157941,1,2,0:0:0:0:
192,192,158019,1,0,0:0:0:0:
64,192,158097,1,8,0:0:0:0:
448,192,158097,1,0,0:0:0:70:LR_Hat Normal.wav
320,192,158175,1,0,0:0:0:0:
192,192,158253,1,0,0:0:0:0:
320,192,158331,1,0,0:0:0:0:
64,192,158410,1,2,0:0:0:0:
448,192,158410,1,0,0:0:0:70:LR_Hat Normal.wav
192,192,158566,1,2,0:0:0:0:
64,192,158722,1,8,0:0:0:0:
448,192,158722,1,0,0:0:0:70:LR_Hat Normal.wav
320,192,158878,1,0,0:0:0:0:
192,192,158956,1,0,0:0:0:0:
64,192,159035,1,2,0:0:0:0:
448,192,159035,1,0,0:0:0:70:LR_Hat Normal.wav
320,192,159113,1,0,0:0:0:0:
64,192,159191,1,2,0:0:0:0:
192,192,159269,1,0,0:0:0:0:
320,192,159347,1,8,0:0:0:0:
448,192,159347,1,0,0:0:0:70:LR_Hat Normal.wav
192,192,159503,1,2,0:0:0:0:
64,192,159660,1,0,0:0:0:70:LR_Hat Normal.wav
448,192,159660,1,0,0:0:0:0:
320,192,159738,1,0,0:0:0:0:
192,192,159816,1,2,0:0:0:0:
64,192,159894,1,0,0:0:0:0:
320,192,159972,1,8,0:0:0:0:
448,192,159972,1,0,0:0:0:70:LR_Hat Normal.wav
192,192,160050,1,0,0:0:0:0:
320,192,160128,1,0,0:0:0:0:
448,192,160206,1,0,0:0:0:0:
64,192,160285,1,2,0:0:0:0:
192,192,160285,1,0,0:0:0:70:LR_Hat Normal.wav
320,192,160363,1,0,0:0:0:0:
192,192,160441,1,2,0:0:0:0:
320,192,160519,1,0,0:0:0:0:
64,192,160597,1,8,0:0:0:0:
448,192,160597,1,0,0:0:0:70:LR_Hat Normal.wav
192,192,160675,1,0,0:0:0:0:
320,192,160753,1,0,0:0:0:0:
192,192,160831,1,0,0:0:0:0:
64,192,160910,1,2,0:0:0:0:
320,192,160910,1,0,0:0:0:70:LR_Drum Finish.wav
448,192,160910,1,0,0:0:0:0:
192,192,161066,1,0,0:0:0:0:
320,192,161222,1,8,0:0:0:0:
448,192,161222,1,0,0:0:0:70:LR_Hat Normal.wav
448,192,161378,128,0,161691:0:0:0:0:
192,192,161535,1,2,0:0:0:0:
64,192,161691,1,2,0:0:0:0:
192,192,161847,1,8,0:0:0:0:
320,192,161847,1,0,0:0:0:70:LR_Hat Normal.wav
448,192,162003,1,0,0:0:0:0:
64,192,162160,1,2,0:0:0:0:
320,192,162316,1,2,0:0:0:0:
192,192,162472,1,8,0:0:0:0:
448,192,162472,1,0,0:0:0:70:LR_Hat Normal.wav
192,192,162628,128,0,162941:0:0:0:0:
320,192,162785,1,2,0:0:0:0:
64,192,162941,1,2,0:0:0:0:
320,192,163097,1,8,0:0:0:0:
448,192,163097,1,0,0:0:0:70:LR_Hat Normal.wav
192,192,163253,1,0,0:0:0:0:
64,192,163410,1,4,0:0:0:0:
320,192,163410,1,2,0:0:0:0:
448,192,163410,1,0,0:0:0:0:
64,192,163566,1,4,0:0:0:0:
192,192,163566,1,2,0:0:0:0:
448,192,163566,1,0,0:0:0:0:
64,192,163878,1,4,0:0:0:0:
192,192,163878,1,2,0:0:0:0:
320,192,163878,1,0,0:0:0:0:
192,192,164191,1,4,0:0:0:0:
320,192,164191,1,2,0:0:0:0:
448,192,164191,1,0,0:0:0:0:
64,192,164503,1,4,0:0:0:0:
320,192,164503,1,2,0:0:0:0:
448,192,164503,1,0,0:0:0:0:
64,192,164816,1,2,0:0:0:0:
192,192,164816,1,4,0:0:0:0:
320,192,164816,1,0,0:0:0:0:
192,192,164972,1,2,0:0:0:0:
320,192,164972,1,4,0:0:0:0:
448,192,164972,1,0,0:0:0:0:
64,192,165128,1,8,0:0:0:0:
192,192,165206,1,8,0:0:0:0:
448,192,165285,1,2,0:0:0:0:
320,192,165363,1,2,0:0:0:0:
64,192,165441,1,8,0:0:0:0:
192,192,165519,1,8,0:0:0:0:
448,192,165597,1,2,0:0:0:0:
320,192,165675,1,2,0:0:0:0:
64,192,165753,1,8,0:0:0:0:
192,192,165753,1,0,0:0:0:0:
320,192,165831,1,8,0:0:0:0:
448,192,165831,1,0,0:0:0:0:
192,192,165910,128,4,166222:0:0:0:0:
64,192,165910,1,2,0:0:0:0:
64,192,166222,128,8,166535:0:0:0:0:
320,192,166222,1,0,0:0:0:70:cymbal light.wav
192,192,166535,1,2,0:0:0:0:
448,192,166535,128,0,166691:0:0:0:70:cymbal light.wav
64,192,166691,1,2,0:0:0:0:
320,192,166691,128,0,166847:0:0:0:0:
192,192,166847,128,8,167316:0:0:0:0:
448,192,166847,1,0,0:0:0:70:cymbal light.wav
64,192,167003,128,2,167316:0:0:0:0:
320,192,167003,1,0,0:0:0:0:
320,192,167316,1,2,0:0:0:0:
448,192,167316,128,0,167472:0:0:0:0:
64,192,167472,1,8,0:0:0:0:
192,192,167472,128,0,167628:0:0:0:70:cymbal light.wav
320,192,167628,128,0,167785:0:0:0:0:
64,192,167785,128,2,167941:0:0:0:0:
192,192,167785,1,0,0:0:0:70:cymbal light.wav
192,192,167941,128,2,168097:0:0:0:0:
448,192,167941,1,0,0:0:0:0:
320,192,168097,1,8,0:0:0:0:
448,192,168097,128,0,168410:0:0:0:70:cymbal light.wav
64,192,168410,1,2,0:0:0:0:
192,192,168410,128,0,168722:0:0:0:70:cymbal light.wav
320,192,168566,1,2,0:0:0:0:
64,192,168722,1,8,0:0:0:0:
448,192,168722,128,0,169035:0:0:0:70:cymbal light.wav
64,192,169035,128,2,169191:0:0:0:0:
320,192,169035,1,0,0:0:0:70:cymbal light.wav
192,192,169191,128,2,169347:0:0:0:0:
448,192,169191,1,0,0:0:0:0:
320,192,169347,128,8,169503:0:0:0:0:
64,192,169347,1,0,0:0:0:70:cymbal light.wav
64,192,169503,128,2,169816:0:0:0:0:
192,192,169503,1,0,0:0:0:0:
320,192,169816,1,2,0:0:0:0:
448,192,169816,128,0,169972:0:0:0:0:
64,192,169972,1,8,0:0:0:0:
192,192,169972,128,0,170128:0:0:0:70:cymbal light.wav
320,192,170128,128,0,170285:0:0:0:0:
64,192,170285,1,2,0:0:0:0:
192,192,170363,1,0,0:0:0:0:
320,192,170441,1,2,0:0:0:0:
448,192,170519,1,0,0:0:0:0:
64,192,170597,1,8,0:0:0:0:
192,192,170675,1,0,0:0:0:0:
320,192,170753,1,0,0:0:0:0:
448,192,170831,1,0,0:0:0:0:
192,192,170910,128,4,171222:0:0:0:0:
64,192,170910,1,2,0:0:0:0:
320,192,171222,128,8,171535:0:0:0:0:
448,192,171222,1,0,0:0:0:70:cymbal light.wav
64,192,171535,128,2,171691:0:0:0:0:
448,192,171535,1,0,0:0:0:70:cymbal light.wav
192,192,171691,1,2,0:0:0:0:
320,192,171691,128,0,171847:0:0:0:0:
64,192,171847,1,8,0:0:0:0:
448,192,171847,128,0,172316:0:0:0:70:cymbal light.wav
64,192,172003,1,2,0:0:0:0:
192,192,172003,128,0,172316:0:0:0:0:
64,192,172316,128,2,172472:0:0:0:0:
320,192,172316,1,0,0:0:0:0:
192,192,172472,1,8,0:0:0:0:
320,192,172472,128,0,172628:0:0:0:70:cymbal light.wav
448,192,172628,128,0,172785:0:0:0:0:
64,192,172785,1,2,0:0:0:0:
192,192,172785,128,0,172941:0:0:0:70:cymbal light.wav
320,192,172941,128,2,173097:0:0:0:0:
448,192,172941,1,0,0:0:0:0:
64,192,173097,128,8,173410:0:0:0:0:
192,192,173097,1,0,0:0:0:70:cymbal light.wav
192,192,173410,1,2,0:0:0:0:
448,192,173410,128,0,173722:0:0:0:70:cymbal light.wav
64,192,173566,1,2,0:0:0:0:
192,192,173722,128,8,174035:0:0:0:0:
320,192,173722,1,0,0:0:0:70:cymbal light.wav
64,192,174035,1,2,0:0:0:0:
448,192,174035,128,0,174347:0:0:0:70:cymbal light.wav
192,192,174191,1,2,0:0:0:0:
64,192,174347,128,8,174503:0:0:0:0:
320,192,174347,1,0,0:0:0:70:cymbal light.wav
192,192,174503,128,2,174660:0:0:0:0:
448,192,174503,1,0,0:0:0:0:
448,192,174660,128,0,175285:0:0:0:70:cymbal light.wav
320,192,174816,1,2,0:0:0:0:
64,192,174972,1,8,0:0:0:0:
192,192,174972,1,0,0:0:0:70:cymbal light.wav
64,192,175285,1,2,0:0:0:0:
192,192,175285,128,0,175910:0:0:0:70:cymbal light.wav
320,192,175441,1,2,0:0:0:0:
64,192,175597,1,8,0:0:0:0:
448,192,175597,1,0,0:0:0:70:cymbal light.wav
320,192,175910,1,2,0:0:0:0:
448,192,175910,128,4,176222:0:0:0:0:
64,192,176222,1,8,0:0:0:0:
320,192,176222,128,0,176535:0:0:0:70:cymbal light.wav
64,192,176535,128,2,176691:0:0:0:0:
192,192,176535,1,0,0:0:0:70:cymbal light.wav
192,192,176691,128,2,176847:0:0:0:0:
448,192,176691,1,0,0:0:0:0:
64,192,176847,1,8,0:0:0:0:
320,192,176847,128,0,177316:0:0:0:70:cymbal light.wav
192,192,177003,1,2,0:0:0:0:
448,192,177003,128,0,177316:0:0:0:0:
64,192,177316,1,2,0:0:0:0:
192,192,177316,128,0,177472:0:0:0:0:
64,192,177472,128,8,177628:0:0:0:0:
448,192,177472,1,0,0:0:0:70:cymbal light.wav
320,192,177628,128,0,177785:0:0:0:0:
64,192,177785,1,2,0:0:0:0:
192,192,177785,128,0,177941:0:0:0:70:cymbal light.wav
320,192,177941,1,2,0:0:0:0:
448,192,177941,128,0,178097:0:0:0:0:
64,192,178097,128,8,178410:0:0:0:0:
192,192,178097,1,0,0:0:0:70:cymbal light.wav
320,192,178410,1,2,0:0:0:0:
448,192,178410,128,0,178722:0:0:0:70:cymbal light.wav
64,192,178566,1,2,0:0:0:0:
192,192,178722,128,8,179035:0:0:0:0:
320,192,178722,1,0,0:0:0:70:cymbal light.wav
64,192,179035,1,2,0:0:0:0:
448,192,179035,128,0,179191:0:0:0:70:cymbal light.wav
64,192,179191,128,2,179347:0:0:0:0:
320,192,179191,1,0,0:0:0:0:
192,192,179347,128,8,179503:0:0:0:0:
448,192,179347,1,0,0:0:0:70:cymbal light.wav
320,192,179503,1,2,0:0:0:0:
448,192,179503,128,0,179816:0:0:0:0:
64,192,179816,128,2,179972:0:0:0:0:
192,192,179816,1,0,0:0:0:0:
320,192,179972,128,8,180128:0:0:0:0:
448,192,179972,1,0,0:0:0:70:cymbal light.wav
192,192,180128,128,0,180285:0:0:0:0:
448,192,180285,1,2,0:0:0:0:
320,192,180363,1,0,0:0:0:0:
192,192,180441,1,2,0:0:0:0:
64,192,180519,1,0,0:0:0:0:
448,192,180597,1,8,0:0:0:0:
320,192,180675,1,0,0:0:0:0:
192,192,180753,1,0,0:0:0:0:
64,192,180831,1,0,0:0:0:0:
320,192,180910,128,2,182160:0:0:0:0:
448,192,180910,1,4,0:0:0:0:
64,192,181222,1,8,0:0:0:0:
192,192,181222,1,0,0:0:0:70:cymbal light.wav
448,192,181535,1,2,0:0:0:0:
64,192,181691,1,2,0:0:0:0:
192,192,181847,1,8,0:0:0:0:
448,192,181847,1,0,0:0:0:70:cymbal light.wav
64,192,182003,1,2,0:0:0:0:
192,192,182160,128,0,183410:0:0:0:70:cymbal light.wav
448,192,182316,1,2,0:0:0:0:
64,192,182472,1,8,0:0:0:0:
320,192,182472,1,0,0:0:0:70:cymbal light.wav
448,192,182628,1,0,0:0:0:0:
320,192,182785,1,2,0:0:0:0:
64,192,182941,1,2,0:0:0:0:
320,192,183097,1,8,0:0:0:0:
448,192,183097,1,0,0:0:0:70:cymbal light.wav
64,192,183410,128,2,184660:0:0:0:0:
448,192,183410,1,0,0:0:0:70:cymbal light.wav
192,192,183566,1,2,0:0:0:0:
320,192,183722,1,8,0:0:0:0:
448,192,183722,1,0,0:0:0:70:cymbal light.wav
448,192,184035,1,2,0:0:0:0:
192,192,184191,1,2,0:0:0:0:
320,192,184347,1,8,0:0:0:0:
448,192,184347,1,0,0:0:0:70:cymbal light.wav
192,192,184503,1,2,0:0:0:0:
320,192,184660,1,2,0:0:0:0:
448,192,184660,1,0,0:0:0:0:
192,192,184816,1,2,0:0:0:0:
448,192,184816,1,0,0:0:0:0:
192,192,184972,1,2,0:0:0:0:
320,192,184972,1,0,0:0:0:0:
64,192,185128,1,2,0:0:0:0:
320,192,185128,1,0,0:0:0:0:
64,192,185285,1,2,0:0:0:0:
448,192,185285,1,0,0:0:0:0:
192,192,185441,1,2,0:0:0:0:
448,192,185441,1,0,0:0:0:0:
192,192,185597,1,2,0:0:0:0:
320,192,185597,1,0,0:0:0:0:
64,192,185753,1,2,0:0:0:0:
320,192,185753,128,0,185910:0:0:0:0:
192,192,185910,128,2,186222:0:0:0:0:
448,192,185910,1,4,0:0:0:0:
64,192,186222,1,8,0:0:0:0:
448,192,186222,1,0,0:0:0:70:cymbal light.wav
192,192,186535,1,2,0:0:0:0:
320,192,186535,128,0,186691:0:0:0:70:cymbal light.wav
64,192,186691,1,2,0:0:0:0:
192,192,186847,1,8,0:0:0:0:
448,192,186847,1,0,0:0:0:70:cymbal light.wav
64,192,187003,128,2,187160:0:0:0:0:
320,192,187003,1,0,0:0:0:0:
448,192,187160,128,0,187472:0:0:0:70:cymbal light.wav
192,192,187316,1,2,0:0:0:0:
64,192,187472,1,8,0:0:0:0:
320,192,187472,1,0,0:0:0:70:cymbal light.wav
448,192,187785,1,2,0:0:0:0:
192,192,187785,128,0,187941:0:0:0:70:cymbal light.wav
320,192,187941,1,2,0:0:0:0:
64,192,188097,1,8,0:0:0:0:
448,192,188097,1,0,0:0:0:70:cymbal light.wav
320,192,188253,128,0,188410:0:0:0:0:
192,192,188410,1,2,0:0:0:0:
64,192,188410,128,0,188722:0:0:0:70:cymbal light.wav
448,192,188566,1,2,0:0:0:0:
192,192,188722,1,8,0:0:0:0:
320,192,188722,1,0,0:0:0:70:cymbal light.wav
64,192,189035,1,2,0:0:0:0:
320,192,189035,128,0,189191:0:0:0:70:cymbal light.wav
448,192,189191,1,2,0:0:0:0:
192,192,189347,1,8,0:0:0:0:
320,192,189347,1,0,0:0:0:70:cymbal light.wav
64,192,189503,128,2,189816:0:0:0:0:
448,192,189503,1,0,0:0:0:0:
192,192,189816,128,2,189972:0:0:0:0:
448,192,189816,1,0,0:0:0:0:
64,192,189972,1,8,0:0:0:0:
320,192,189972,128,0,190128:0:0:0:70:cymbal light.wav
448,192,190128,128,0,190285:0:0:0:0:
64,192,190285,128,2,190441:0:0:0:0:
320,192,190285,1,0,0:0:0:70:cymbal light.wav
192,192,190441,128,2,190597:0:0:0:0:
448,192,190441,1,0,0:0:0:0:
64,192,190597,1,8,0:0:0:0:
320,192,190597,128,0,190753:0:0:0:70:cymbal light.wav
192,192,190753,128,0,190910:0:0:0:0:
64,192,190910,1,2,0:0:0:0:
448,192,190910,128,4,191222:0:0:0:0:
192,192,191222,1,8,0:0:0:0:
320,192,191222,1,0,0:0:0:70:cymbal light.wav
64,192,191535,1,2,0:0:0:0:
320,192,191535,128,0,191691:0:0:0:70:cymbal light.wav
448,192,191691,1,2,0:0:0:0:
64,192,191847,1,8,0:0:0:0:
320,192,191847,1,0,0:0:0:70:cymbal light.wav
448,192,192003,128,2,192160:0:0:0:0:
192,192,192003,1,0,0:0:0:0:
64,192,192160,128,0,192472:0:0:0:70:cymbal light.wav
320,192,192316,1,2,0:0:0:0:
192,192,192472,1,8,0:0:0:0:
448,192,192472,1,0,0:0:0:70:cymbal light.wav
64,192,192785,1,2,0:0:0:0:
448,192,192785,128,0,192941:0:0:0:70:cymbal light.wav
192,192,192941,1,2,0:0:0:0:
64,192,193097,1,8,0:0:0:0:
320,192,193097,1,0,0:0:0:70:cymbal light.wav
192,192,193253,128,0,193410:0:0:0:0:
448,192,193410,1,0,0:0:0:70:cymbal light.wav
320,192,193410,128,2,193722:0:0:0:0:
64,192,193566,1,2,0:0:0:0:
192,192,193722,1,8,0:0:0:0:
448,192,193722,1,0,0:0:0:70:cymbal light.wav
64,192,194035,128,2,194191:0:0:0:0:
320,192,194035,1,0,0:0:0:70:cymbal light.wav
192,192,194191,1,2,0:0:0:0:
64,192,194347,1,8,0:0:0:0:
448,192,194347,1,0,0:0:0:70:cymbal light.wav
192,192,194503,1,2,0:0:0:0:
320,192,194503,128,0,194816:0:0:0:0:
192,192,194816,128,2,194972:0:0:0:0:
448,192,194816,1,0,0:0:0:0:
64,192,194972,1,8,0:0:0:0:
320,192,194972,128,0,195128:0:0:0:70:cymbal light.wav
448,192,195128,128,0,195910:0:0:0:0:
64,192,195285,1,2,0:0:0:0:
320,192,195441,1,2,0:0:0:0:
64,192,195597,1,8,0:0:0:0:
192,192,195597,1,0,0:0:0:70:cymbal light.wav
64,192,195910,128,2,196378:0:0:0:0:
320,192,195910,1,4,0:0:0:0:
192,192,196222,1,8,0:0:0:0:
320,192,196222,1,0,0:0:0:70:cymbal light.wav
448,192,196378,128,0,196847:0:0:0:0:
64,192,196535,1,2,0:0:0:0:
192,192,196691,1,2,0:0:0:0:
64,192,196847,1,8,0:0:0:0:
320,192,196847,128,0,197160:0:0:0:70:cymbal light.wav
448,192,197003,1,2,0:0:0:0:
64,192,197160,128,0,197316:0:0:0:70:cymbal light.wav
448,192,197316,1,2,0:0:0:0:
192,192,197472,128,8,197628:0:0:0:0:
320,192,197472,1,0,0:0:0:70:cymbal light.wav
64,192,197785,1,2,0:0:0:0:
448,192,197785,1,0,0:0:0:70:cymbal light.wav
192,192,197941,1,2,0:0:0:0:
320,192,198097,1,8,0:0:0:0:
448,192,198097,1,0,0:0:0:70:cymbal light.wav
64,192,198253,1,0,0:0:0:0:
320,192,198410,128,2,198722:0:0:0:0:
448,192,198410,1,0,0:0:0:70:cymbal light.wav
192,192,198566,1,2,0:0:0:0:
64,192,198722,1,8,0:0:0:0:
448,192,198722,1,0,0:0:0:70:cymbal light.wav
192,192,198878,128,0,199035:0:0:0:0:
64,192,199035,1,2,0:0:0:0:
320,192,199191,128,2,199347:0:0:0:0:
448,192,199191,1,0,0:0:0:0:
64,192,199347,1,8,0:0:0:0:
192,192,199347,1,0,0:0:0:70:cymbal light.wav
320,192,199503,1,2,0:0:0:0:
448,192,199503,128,0,200441:0:0:0:0:
192,192,199816,1,2,0:0:0:0:
64,192,199972,1,8,0:0:0:0:
320,192,199972,1,0,0:0:0:70:cymbal light.wav
192,192,200285,1,2,0:0:0:0:
64,192,200441,1,2,0:0:0:0:
320,192,200597,1,8,0:0:0:0:
448,192,200597,1,0,0:0:0:70:cymbal light.wav
192,192,200753,1,0,0:0:0:0:
64,192,200910,1,2,0:0:0:0:
448,192,200910,1,4,0:0:0:0:
320,192,201066,1,0,0:0:0:0:
192,192,201222,1,8,0:0:0:0:
448,192,201222,1,0,0:0:0:70:cymbal light.wav
64,192,201378,128,0,201691:0:0:0:0:
320,192,201535,1,2,0:0:0:0:
192,192,201691,1,2,0:0:0:0:
320,192,201847,1,8,0:0:0:0:
448,192,201847,1,0,0:0:0:70:cymbal light.wav
64,192,202003,1,2,0:0:0:0:
192,192,202003,1,4,0:0:0:0:
448,192,202003,1,0,0:0:0:0:
64,192,202316,1,2,0:0:0:0:
192,192,202316,1,4,0:0:0:0:
320,192,202316,1,0,0:0:0:0:
192,192,202472,1,2,0:0:0:0:
320,192,202472,1,4,0:0:0:0:
448,192,202472,1,0,0:0:0:0:
64,192,203410,1,2,0:0:0:0:
448,192,203410,1,0,0:0:0:0:
192,192,203410,1,4,0:0:0:0:
320,192,203566,1,0,0:0:0:0:
192,192,203878,1,2,0:0:0:0:
448,192,203878,1,0,0:0:0:0:
64,192,204035,1,8,0:0:0:0:
320,192,204035,1,0,0:0:0:70:cymbal light.wav
448,192,204035,1,0,0:0:0:0:
192,192,204191,1,0,0:0:0:0:
64,192,204503,1,2,0:0:0:0:
320,192,204503,1,0,0:0:0:0:
192,192,204660,1,2,0:0:0:0:
448,192,204660,1,0,0:0:0:70:cymbal light.wav
320,192,204816,1,0,0:0:0:0:
64,192,205128,128,0,205753:0:0:0:0:
192,192,205441,128,0,205753:0:0:0:0:
320,192,205597,128,0,205753:0:0:0:0:
64,192,205910,1,2,0:0:0:0:
448,192,205910,1,0,0:0:0:0:
320,192,205910,1,4,0:0:0:0:
192,192,206066,1,0,0:0:0:0:
64,192,206378,1,2,0:0:0:0:
320,192,206378,1,0,0:0:0:0:
64,192,206535,1,8,0:0:0:0:
192,192,206535,1,0,0:0:0:70:cymbal light.wav
448,192,206535,1,0,0:0:0:0:
320,192,206691,1,0,0:0:0:0:
192,192,207003,1,2,0:0:0:0:
448,192,207003,1,0,0:0:0:0:
64,192,207160,1,2,0:0:0:0:
320,192,207160,1,0,0:0:0:70:cymbal light.wav
192,192,207316,1,0,0:0:0:0:
448,192,207628,128,0,208253:0:0:0:0:
320,192,207941,128,0,208253:0:0:0:0:
192,192,208097,128,0,208253:0:0:0:0:
64,192,208410,1,2,0:0:0:0:
448,192,208410,1,0,0:0:0:0:
192,192,208410,1,4,0:0:0:0:
320,192,208566,1,0,0:0:0:0:
64,192,208878,1,2,0:0:0:0:
448,192,208878,1,0,0:0:0:0:
192,192,209035,1,8,0:0:0:0:
320,192,209035,1,0,0:0:0:70:cymbal light.wav
448,192,209035,1,0,0:0:0:0:
64,192,209191,1,0,0:0:0:0:
192,192,209503,1,2,0:0:0:0:
320,192,209503,1,0,0:0:0:0:
64,192,209660,1,2,0:0:0:0:
448,192,209660,1,0,0:0:0:70:cymbal light.wav
192,192,209816,1,0,0:0:0:0:
64,192,210128,128,0,210753:0:0:0:0:
448,192,210441,128,0,210753:0:0:0:0:
320,192,210597,128,0,210753:0:0:0:0:
64,192,210910,1,2,0:0:0:0:
448,192,210910,1,0,0:0:0:0:
192,192,210910,1,4,0:0:0:0:
320,192,211066,1,0,0:0:0:0:
320,192,211222,1,0,0:0:0:0:
64,192,211378,1,2,0:0:0:0:
192,192,211378,1,0,0:0:0:0:
64,192,211535,1,8,0:0:0:0:
320,192,211535,1,0,0:0:0:70:cymbal light.wav
448,192,211535,1,0,0:0:0:0:
192,192,211691,1,0,0:0:0:0:
192,192,211847,1,0,0:0:0:0:
64,192,212003,1,2,0:0:0:0:
448,192,212003,1,0,0:0:0:0:
192,192,212160,1,2,0:0:0:0:
320,192,212160,1,0,0:0:0:70:cymbal light.wav
448,192,212316,1,0,0:0:0:0:
64,192,212472,1,2,0:0:0:0:
448,192,212472,1,0,0:0:0:0:
320,192,212628,1,0,0:0:0:0:
64,192,212785,1,8,0:0:0:0:
192,192,212785,1,0,0:0:0:70:cymbal light.wav
448,192,212785,1,0,0:0:0:0:
320,192,212941,1,0,0:0:0:0:
64,192,213097,1,8,0:0:0:0:
192,192,213097,1,0,0:0:0:0:
320,192,213175,1,8,0:0:0:0:
448,192,213175,1,0,0:0:0:0:
64,192,213253,1,8,0:0:0:0:
192,192,213253,1,0,0:0:0:0:
320,192,213331,1,8,0:0:0:0:
448,192,213331,1,0,0:0:0:0:
64,192,213410,1,2,0:0:0:0:
192,192,213410,1,4,0:0:0:0:
320,192,213566,1,0,0:0:0:0:
64,192,213722,1,8,0:0:0:0:
192,192,213722,1,0,0:0:0:70:cymbal light.wav
448,192,213722,1,0,0:0:0:0:
320,192,213878,1,0,0:0:0:0:
64,192,214035,1,2,0:0:0:0:
192,192,214035,1,0,0:0:0:70:cymbal light.wav
192,192,214191,1,2,0:0:0:0:
64,192,214347,1,8,0:0:0:0:
320,192,214347,1,0,0:0:0:70:cymbal light.wav
448,192,214347,1,0,0:0:0:0:
192,192,214503,1,0,0:0:0:0:
320,192,214660,1,2,0:0:0:0:
448,192,214660,1,0,0:0:0:70:cymbal light.wav
448,192,214816,1,2,0:0:0:0:
64,192,214972,1,8,0:0:0:0:
192,192,214972,1,0,0:0:0:70:cymbal light.wav
320,192,214972,1,0,0:0:0:0:
448,192,215128,1,0,0:0:0:0:
64,192,215285,1,2,0:0:0:0:
192,192,215285,1,0,0:0:0:70:cymbal light.wav
320,192,215441,1,2,0:0:0:0:
64,192,215597,1,8,0:0:0:0:
320,192,215597,1,0,0:0:0:70:cymbal light.wav
448,192,215597,1,0,0:0:0:0:
192,192,215753,1,0,0:0:0:0:
64,192,215910,1,2,0:0:0:0:
448,192,215910,1,0,0:0:0:70:cymbal light.wav
64,192,216066,1,2,0:0:0:0:
192,192,216222,1,8,0:0:0:0:
320,192,216222,1,0,0:0:0:70:cymbal light.wav
448,192,216222,1,0,0:0:0:0:
64,192,216378,1,0,0:0:0:0:
192,192,216535,1,2,0:0:0:0:
320,192,216535,1,0,0:0:0:70:cymbal light.wav
320,192,216691,1,2,0:0:0:0:
64,192,216847,1,8,0:0:0:0:
192,192,216847,1,0,0:0:0:70:cymbal light.wav
448,192,216847,1,0,0:0:0:0:
320,192,217003,1,0,0:0:0:0:
64,192,217160,1,2,0:0:0:0:
448,192,217160,1,0,0:0:0:70:cymbal light.wav
448,192,217316,1,2,0:0:0:0:
64,192,217472,1,8,0:0:0:0:
192,192,217472,1,0,0:0:0:70:cymbal light.wav
320,192,217472,1,0,0:0:0:0:
448,192,217628,1,0,0:0:0:0:
64,192,217785,1,2,0:0:0:0:
320,192,217785,1,0,0:0:0:70:cymbal light.wav
192,192,217941,1,2,0:0:0:0:
64,192,218097,1,8,0:0:0:0:
192,192,218097,1,0,0:0:0:70:cymbal light.wav
448,192,218097,1,0,0:0:0:0:
320,192,218253,1,0,0:0:0:0:
64,192,218410,1,2,0:0:0:0:
448,192,218410,1,0,0:0:0:0:
320,192,218410,1,4,0:0:0:0:
192,192,218566,1,0,0:0:0:0:
64,192,218722,1,8,0:0:0:0:
320,192,218722,1,0,0:0:0:70:cymbal light.wav
448,192,218722,1,0,0:0:0:0:
192,192,218878,1,0,0:0:0:0:
64,192,219035,1,2,0:0:0:0:
320,192,219035,1,0,0:0:0:70:cymbal light.wav
320,192,219191,1,2,0:0:0:0:
64,192,219347,1,8,0:0:0:0:
192,192,219347,1,0,0:0:0:70:cymbal light.wav
448,192,219347,1,0,0:0:0:0:
320,192,219503,1,0,0:0:0:0:
192,192,219660,1,2,0:0:0:0:
448,192,219660,1,0,0:0:0:70:cymbal light.wav
192,192,219816,1,2,0:0:0:0:
64,192,219972,1,8,0:0:0:0:
320,192,219972,1,0,0:0:0:70:cymbal light.wav
448,192,219972,1,0,0:0:0:0:
192,192,220128,1,0,0:0:0:0:
64,192,220285,1,2,0:0:0:0:
320,192,220285,1,0,0:0:0:70:cymbal light.wav
448,192,220441,1,2,0:0:0:0:
64,192,220597,1,8,0:0:0:0:
192,192,220597,1,0,0:0:0:70:cymbal light.wav
448,192,220597,1,0,0:0:0:0:
320,192,220753,1,0,0:0:0:0:
64,192,220910,1,2,0:0:0:0:
448,192,220910,1,0,0:0:0:70:cymbal light.wav
64,192,221066,1,2,0:0:0:0:
192,192,221222,1,8,0:0:0:0:
320,192,221222,1,0,0:0:0:70:cymbal light.wav
448,192,221222,1,0,0:0:0:0:
64,192,221378,1,0,0:0:0:0:
192,192,221535,1,2,0:0:0:0:
320,192,221535,1,0,0:0:0:70:cymbal light.wav
320,192,221691,1,2,0:0:0:0:
64,192,221847,1,8,0:0:0:0:
192,192,221847,1,0,0:0:0:70:cymbal light.wav
448,192,221847,1,0,0:0:0:0:
320,192,222003,1,0,0:0:0:0:
192,192,222160,1,0,0:0:0:0:
448,192,222316,1,0,0:0:0:0:
64,192,222472,1,8,0:0:0:0:
192,192,222550,1,2,0:0:0:0:
448,192,222628,1,2,0:0:0:0:
320,192,222706,1,8,0:0:0:0:
192,192,222785,1,8,0:0:0:0:
64,192,222863,1,8,0:0:0:0:
320,192,222941,1,8,0:0:0:0:
448,192,223019,1,8,0:0:0:0:
64,192,223097,1,8,0:0:0:0:
192,192,223175,1,8,0:0:0:0:
448,192,223253,1,8,0:0:0:0:
320,192,223331,1,8,0:0:0:0:
64,192,223410,128,2,225753:0:0:0:0:
192,192,223410,128,0,225753:0:0:0:0:
448,192,225753,1,2,0:0:0:0:
320,192,225831,1,2,0:0:0:0:
64,192,225910,1,2,0:0:0:0:
192,192,225910,1,0,0:0:0:0:
