osu file format v14

[General]
AudioFilename: audio.mp3
AudioLeadIn: 0
PreviewTime: 58253
Countdown: 0
SampleSet: Soft
StackLeniency: 0.7
Mode: 3
LetterboxInBreaks: 0
SpecialStyle: 0
WidescreenStoryboard: 0

[Editor]
DistanceSpacing: 0.8
BeatDivisor: 2
GridSize: 32
TimelineZoom: 0.8

[Metadata]
Title:Taketori Hishou
TitleUnicode:竹取飛翔
Artist:Dark PHOENiX
ArtistUnicode:Dark PHOENiX
Creator:Madoka2574
Version:Easy
Source:東方永夜抄 ~ Imperishable Night.
Tags:東方Project Arrow Realize 蓬莱山輝夜 ほうらいさん かぐや Houraisan Kaguya Lunatic Princess とうほうえいやしょう Touhou Eiyashou
BeatmapID:1280966
BeatmapSetID:606334

[Difficulty]
HPDrainRate:7
CircleSize:4
OverallDifficulty:7
ApproachRate:5
SliderMultiplier:1.4
SliderTickRate:1

[Events]
//Background and Video events
0,0,"Kaguya1.JPG",0,0
//Break Periods
//Storyboard Layer 0 (Background)
//Storyboard Layer 1 (Fail)
//Storyboard Layer 2 (Pass)
//Storyboard Layer 3 (Foreground)
//Storyboard Sound Samples
Sample,58097,0,"LR_Drum Finish.wav",70

[TimingPoints]
910,312.5,4,2,1,25,1,0
28410,-100,4,2,1,25,0,1
38410,-100,4,2,1,25,0,0
68410,-100,4,2,1,25,0,1
73410,-100,4,2,1,25,0,0
115910,-100,4,2,1,25,0,1
145597,-100,4,2,1,25,0,0
155910,-100,4,2,1,25,0,1
160910,-100,4,2,1,25,0,0
213410,-100,4,2,1,25,0,1
223410,-100,4,2,1,25,0,0

[HitObjects]
64,192,910,5,0,0:0:0:70:0_G#4_192_1440.wav
192,192,1222,1,0,0:0:0:70:0_A#6_192_480.wav
320,192,1535,1,0,0:0:0:70:0_G6_192_480.wav
64,192,1847,1,0,0:0:0:70:0_F6_192_480.wav
448,192,2160,1,0,0:0:0:70:0_A#4_192_1440.wav
192,192,2472,1,0,0:0:0:70:0_A#6_192_480.wav
320,192,2785,1,0,0:0:0:70:0_G6_192_480.wav
64,192,3097,1,0,0:0:0:70:0_F6_192_480.wav
192,192,3410,1,0,0:0:0:70:0_G4_192_1440.wav
448,192,3722,1,0,0:0:0:70:0_A#6_192_480.wav
64,192,4035,1,0,0:0:0:70:0_G6_192_480.wav
320,192,4347,1,0,0:0:0:70:0_D7_192_480.wav
448,192,4660,128,0,5285:0:0:0:70:0_C5_192_1440.wav
192,192,4972,1,0,0:0:0:70:0_D7_192_480.wav
64,192,5285,128,0,5910:0:0:0:70:0_A#4_192_1440.wav
320,192,5597,1,0,0:0:0:70:0_A#6_192_480.wav
448,192,5910,1,0,0:0:0:70:0_G#4_192_1440.wav
192,192,6222,1,0,0:0:0:70:0_A#6_192_480.wav
320,192,6535,1,0,0:0:0:70:0_G6_192_480.wav
64,192,6847,1,0,0:0:0:70:0_F6_192_480.wav
448,192,7160,1,0,0:0:0:70:0_A#4_192_1440.wav
192,192,7472,1,0,0:0:0:70:0_A#6_192_480.wav
320,192,7785,1,0,0:0:0:70:0_G6_192_480.wav
192,192,8097,1,0,0:0:0:70:0_F6_192_480.wav
64,192,8410,1,0,0:0:0:70:0_G4_192_1440.wav
320,192,8722,1,0,0:0:0:70:0_A#6_192_480.wav
192,192,9035,1,0,0:0:0:70:0_G6_192_480.wav
448,192,9347,1,0,0:0:0:70:0_D7_192_480.wav
320,192,9660,128,0,10285:0:0:0:70:0_C5_192_1440.wav
192,192,9972,1,0,0:0:0:70:0_D7_192_480.wav
64,192,10285,128,0,10910:0:0:0:70:0_A#4_192_1440.wav
448,192,10597,1,0,0:0:0:70:0_A#6_192_480.wav
192,192,10910,1,0,0:0:0:70:0_G#3_192_1440.wav
320,192,11222,1,0,0:0:0:70:0_A#6_192_480.wav
448,192,11535,1,0,0:0:0:70:0_G6_192_480.wav
64,192,11847,1,0,0:0:0:70:0_F6_192_480.wav
320,192,12160,1,0,0:0:0:70:0_A#3_192_1440.wav
192,192,12472,1,0,0:0:0:70:0_A#6_192_480.wav
448,192,12785,1,0,0:0:0:70:0_G6_192_480.wav
192,192,13097,1,0,0:0:0:70:0_F6_192_480.wav
64,192,13410,1,0,0:0:0:70:0_G3_192_1440.wav
320,192,13722,1,0,0:0:0:70:0_A#6_192_480.wav
448,192,14035,1,0,0:0:0:70:0_G6_192_480.wav
192,192,14347,1,0,0:0:0:70:0_D7_192_480.wav
64,192,14660,128,0,15285:0:0:0:70:0_C4_192_1440.wav
320,192,14972,1,0,0:0:0:70:0_D7_192_480.wav
448,192,15285,128,0,15910:0:0:0:70:0_A#3_192_1440.wav
192,192,15597,1,0,0:0:0:70:0_A#6_192_480.wav
320,192,15910,1,0,0:0:0:70:0_G#3_192_1440.wav
64,192,16222,1,0,0:0:0:70:0_A#6_192_480.wav
448,192,16535,1,0,0:0:0:70:0_G6_192_480.wav
192,192,16847,1,0,0:0:0:70:0_F6_192_480.wav
320,192,17160,1,0,0:0:0:70:0_A#3_192_1440.wav
64,192,17472,1,0,0:0:0:70:0_A#6_192_480.wav
192,192,17785,1,0,0:0:0:70:0_C7_192_480.wav
320,192,18097,1,0,0:0:0:70:0_D#7_192_480.wav
64,192,18410,1,2,0:0:0:0:
448,192,18410,1,4,0:0:0:0:
192,192,18878,1,2,0:0:0:0:
448,192,19035,1,8,0:0:0:0:
320,192,19503,1,2,0:0:0:0:
64,192,19660,1,2,0:0:0:0:
192,192,19972,1,2,0:0:0:0:
320,192,20285,1,8,0:0:0:0:
192,192,20910,1,2,0:0:0:0:
448,192,20910,1,4,0:0:0:0:
64,192,21378,1,2,0:0:0:0:
320,192,21535,1,8,0:0:0:0:
192,192,22003,1,2,0:0:0:0:
448,192,22160,1,2,0:0:0:0:
320,192,22472,1,2,0:0:0:0:
192,192,22785,1,8,0:0:0:0:
64,192,23410,1,2,0:0:0:0:
320,192,23410,1,4,0:0:0:0:
192,192,23878,1,2,0:0:0:0:
448,192,24035,1,8,0:0:0:0:
320,192,24503,1,2,0:0:0:0:
64,192,24660,1,2,0:0:0:0:
192,192,24972,1,2,0:0:0:0:
448,192,25285,1,8,0:0:0:0:
192,192,25910,1,2,0:0:0:0:
320,192,25910,1,4,0:0:0:0:
448,192,26378,1,2,0:0:0:0:
64,192,26535,1,8,0:0:0:0:
192,192,27003,1,2,0:0:0:0:
448,192,27160,1,2,0:0:0:0:
320,192,27472,1,2,0:0:0:0:
64,192,27785,1,8,0:0:0:0:
320,192,28097,128,8,28410:0:0:0:0:
64,192,28410,1,2,0:0:0:0:
448,192,28410,1,4,0:0:0:0:
192,192,28722,1,8,0:0:0:0:
320,192,29035,1,2,0:0:0:0:
64,192,29347,1,8,0:0:0:0:
448,192,29660,1,2,0:0:0:0:
192,192,29972,1,8,0:0:0:0:
320,192,30285,1,2,0:0:0:0:
64,192,30597,1,8,0:0:0:0:
192,192,30910,1,2,0:0:0:0:
320,192,31222,1,8,0:0:0:0:
448,192,31535,1,2,0:0:0:0:
192,192,31847,1,8,0:0:0:0:
64,192,32160,1,2,0:0:0:0:
320,192,32472,1,8,0:0:0:0:
192,192,32785,1,2,0:0:0:0:
448,192,33097,1,8,0:0:0:0:
192,192,33410,1,2,0:0:0:0:
320,192,33410,1,4,0:0:0:0:
64,192,33722,1,8,0:0:0:0:
320,192,34035,1,2,0:0:0:0:
192,192,34347,1,8,0:0:0:0:
448,192,34660,1,2,0:0:0:0:
64,192,34972,1,8,0:0:0:0:
448,192,35285,1,2,0:0:0:0:
320,192,35597,1,8,0:0:0:0:
64,192,35910,1,2,0:0:0:0:
448,192,36222,1,8,0:0:0:0:
192,192,36535,1,2,0:0:0:0:
320,192,36847,1,8,0:0:0:0:
448,192,37160,128,8,38410:0:0:0:0:
64,192,38410,1,6,0:0:0:0:
320,192,38722,1,2,0:0:0:0:
192,192,39035,1,8,0:0:0:0:
64,192,39503,1,2,0:0:0:0:
192,192,39816,1,2,0:0:0:0:
320,192,39972,1,2,0:0:0:0:
448,192,40285,1,8,0:0:0:0:
192,192,40910,1,2,0:0:0:0:
64,192,41222,1,2,0:0:0:0:
320,192,41535,1,8,0:0:0:0:
448,192,42003,1,2,0:0:0:0:
192,192,42316,1,2,0:0:0:0:
320,192,42472,1,2,0:0:0:0:
64,192,42785,1,8,0:0:0:0:
448,192,43410,1,2,0:0:0:0:
192,192,43722,1,2,0:0:0:0:
320,192,44035,1,8,0:0:0:0:
448,192,44503,1,2,0:0:0:0:
320,192,44816,1,2,0:0:0:0:
192,192,44972,1,2,0:0:0:0:
64,192,45285,1,8,0:0:0:0:
320,192,45910,1,2,0:0:0:0:
448,192,46222,1,2,0:0:0:0:
192,192,46535,1,8,0:0:0:0:
64,192,47003,1,2,0:0:0:0:
320,192,47316,1,2,0:0:0:0:
192,192,47472,1,2,0:0:0:0:
448,192,47785,1,8,0:0:0:0:
192,192,48097,1,8,0:0:0:0:
320,192,48253,1,8,0:0:0:0:
64,192,48410,1,2,0:0:0:0:
448,192,48410,1,4,0:0:0:0:
192,192,48722,1,8,0:0:0:0:
448,192,48878,1,0,0:0:0:0:
64,192,49035,1,2,0:0:0:0:
320,192,49191,1,2,0:0:0:0:
192,192,49503,1,2,0:0:0:0:
64,192,49816,1,2,0:0:0:0:
320,192,49972,1,8,0:0:0:0:
448,192,50285,1,2,0:0:0:0:
192,192,50597,1,8,0:0:0:0:
320,192,50753,1,0,0:0:0:0:
64,192,50910,1,2,0:0:0:0:
448,192,51222,1,8,0:0:0:0:
192,192,51378,1,0,0:0:0:0:
320,192,51535,1,2,0:0:0:0:
64,192,51691,1,2,0:0:0:0:
320,192,51847,1,8,0:0:0:0:
192,192,52003,1,2,0:0:0:0:
448,192,52160,1,0,0:0:0:0:
64,192,52472,1,8,0:0:0:0:
320,192,52785,1,2,0:0:0:0:
192,192,53097,1,8,0:0:0:0:
320,192,53253,1,0,0:0:0:0:
64,192,53410,1,2,0:0:0:0:
448,192,53410,1,4,0:0:0:0:
320,192,53722,1,8,0:0:0:0:
64,192,53878,1,0,0:0:0:0:
448,192,54035,1,2,0:0:0:0:
192,192,54191,1,2,0:0:0:0:
448,192,54503,1,2,0:0:0:0:
320,192,54816,1,2,0:0:0:0:
192,192,54972,1,8,0:0:0:0:
64,192,55285,1,2,0:0:0:0:
320,192,55597,1,8,0:0:0:0:
192,192,55753,1,2,0:0:0:0:
448,192,55910,1,0,0:0:0:0:
64,192,56222,1,8,0:0:0:0:
320,192,56378,1,0,0:0:0:0:
192,192,56535,1,2,0:0:0:0:
448,192,56691,1,2,0:0:0:0:
64,192,56847,1,8,0:0:0:0:
192,192,57003,1,2,0:0:0:0:
448,192,57160,1,8,0:0:0:0:
320,192,57472,1,2,0:0:0:0:
192,192,57785,1,2,0:0:0:0:
64,192,58097,1,8,0:0:0:0:
320,192,58410,1,2,0:0:0:0:
448,192,58410,1,0,0:0:0:70:LR_Drum Finish.wav
192,192,58722,1,8,0:0:0:0:
320,192,59035,1,2,0:0:0:0:
64,192,59347,1,8,0:0:0:0:
448,192,59660,1,2,0:0:0:0:
192,192,59972,1,8,0:0:0:0:
64,192,60285,1,2,0:0:0:0:
320,192,60597,1,8,0:0:0:0:
192,192,60910,1,2,0:0:0:0:
448,192,61222,1,8,0:0:0:0:
64,192,61535,1,2,0:0:0:0:
192,192,61691,1,2,0:0:0:0:
320,192,61847,1,8,0:0:0:0:
448,192,62003,128,2,62316:0:0:0:0:
64,192,62472,1,8,0:0:0:0:
192,192,62785,1,2,0:0:0:0:
320,192,63097,1,8,0:0:0:0:
64,192,63410,1,2,0:0:0:0:
448,192,63410,1,0,0:0:0:70:LR_Drum Finish.wav
192,192,63722,1,8,0:0:0:0:
320,192,64035,1,2,0:0:0:0:
64,192,64347,1,8,0:0:0:0:
448,192,64660,1,2,0:0:0:0:
192,192,64972,1,8,0:0:0:0:
64,192,65285,1,2,0:0:0:0:
320,192,65597,1,8,0:0:0:0:
448,192,65910,1,2,0:0:0:0:
192,192,66222,1,8,0:0:0:0:
448,192,66535,1,2,0:0:0:0:
320,192,66691,1,2,0:0:0:0:
192,192,66847,1,8,0:0:0:0:
64,192,67003,128,2,67316:0:0:0:0:
448,192,67472,1,8,0:0:0:0:
192,192,67785,1,2,0:0:0:0:
320,192,68097,1,8,0:0:0:0:
64,192,68410,1,2,0:0:0:0:
192,192,68410,1,0,0:0:0:70:LR_Drum Finish.wav
448,192,68722,1,8,0:0:0:0:
320,192,69035,1,2,0:0:0:0:
64,192,69347,1,8,0:0:0:0:
448,192,69660,1,2,0:0:0:0:
192,192,69972,1,8,0:0:0:0:
64,192,70285,1,2,0:0:0:0:
320,192,70597,1,8,0:0:0:0:
448,192,70910,1,2,0:0:0:0:
320,192,71222,1,8,0:0:0:0:
64,192,71535,1,2,0:0:0:0:
192,192,71691,1,2,0:0:0:0:
320,192,71847,1,8,0:0:0:0:
448,192,72003,128,2,72316:0:0:0:0:
64,192,72472,1,8,0:0:0:0:
320,192,72785,1,2,0:0:0:0:
192,192,73097,1,8,0:0:0:0:
64,192,73410,1,2,0:0:0:0:
448,192,73410,1,0,0:0:0:70:LR_Drum Finish.wav
192,192,73566,1,0,0:0:0:0:
320,192,73722,1,8,0:0:0:0:
64,192,73878,128,0,74191:0:0:0:0:
448,192,74191,1,2,0:0:0:0:
192,192,74347,1,8,0:0:0:0:
448,192,74660,1,2,0:0:0:0:
320,192,74816,1,2,0:0:0:0:
192,192,74972,1,8,0:0:0:0:
448,192,75128,128,0,75441:0:0:0:0:
64,192,75441,1,2,0:0:0:0:
320,192,75597,1,8,0:0:0:0:
64,192,75910,1,6,0:0:0:0:
448,192,76066,1,6,0:0:0:0:
192,192,76378,1,6,0:0:0:0:
320,192,76691,1,6,0:0:0:0:
64,192,77003,1,6,0:0:0:0:
192,192,77316,1,6,0:0:0:0:
448,192,77472,1,6,0:0:0:0:
448,192,78253,1,8,0:0:0:0:
192,192,78410,1,6,0:0:0:0:
320,192,78722,1,8,0:0:0:0:
64,192,79035,1,2,0:0:0:0:
320,192,79191,1,2,0:0:0:0:
320,192,79503,1,2,0:0:0:0:
192,192,79816,1,2,0:0:0:0:
448,192,79972,1,8,0:0:0:0:
64,192,80128,1,0,0:0:0:0:
448,192,80285,1,2,0:0:0:0:
192,192,80441,1,2,0:0:0:0:
320,192,80597,1,8,0:0:0:0:
64,192,80910,1,2,0:0:0:0:
320,192,81222,1,8,0:0:0:0:
64,192,81535,1,2,0:0:0:0:
192,192,81691,1,2,0:0:0:0:
320,192,81847,1,8,0:0:0:0:
448,192,82003,128,2,82316:0:0:0:0:
192,192,82316,1,2,0:0:0:0:
320,192,82472,1,8,0:0:0:0:
64,192,82628,1,0,0:0:0:0:
448,192,82785,128,2,82941:0:0:0:0:
192,192,83097,128,8,83253:0:0:0:0:
448,192,83410,1,6,0:0:0:0:
64,192,83722,1,8,0:0:0:0:
320,192,84035,1,2,0:0:0:0:
64,192,84191,1,2,0:0:0:0:
64,192,84503,1,2,0:0:0:0:
320,192,84816,1,2,0:0:0:0:
192,192,84972,1,8,0:0:0:0:
448,192,85128,1,0,0:0:0:0:
192,192,85285,1,2,0:0:0:0:
320,192,85441,1,2,0:0:0:0:
64,192,85597,1,8,0:0:0:0:
448,192,85910,1,2,0:0:0:0:
192,192,86222,1,8,0:0:0:0:
448,192,86535,1,2,0:0:0:0:
192,192,86847,1,8,0:0:0:0:
320,192,87003,1,2,0:0:0:0:
64,192,87160,128,0,87785:0:0:0:0:
448,192,87472,1,8,0:0:0:0:
320,192,87785,128,2,88410:0:0:0:0:
192,192,88097,1,8,0:0:0:0:
64,192,88410,1,6,0:0:0:0:
448,192,88722,1,8,0:0:0:0:
192,192,89035,1,2,0:0:0:0:
448,192,89191,1,2,0:0:0:0:
448,192,89503,1,2,0:0:0:0:
192,192,89816,1,2,0:0:0:0:
320,192,89972,1,8,0:0:0:0:
64,192,90128,1,0,0:0:0:0:
320,192,90285,1,2,0:0:0:0:
192,192,90441,1,2,0:0:0:0:
448,192,90597,1,8,0:0:0:0:
64,192,90910,1,2,0:0:0:0:
448,192,91222,1,8,0:0:0:0:
192,192,91535,1,2,0:0:0:0:
448,192,91691,1,2,0:0:0:0:
320,192,91847,1,8,0:0:0:0:
64,192,92003,128,2,92316:0:0:0:0:
448,192,92316,1,2,0:0:0:0:
192,192,92472,1,8,0:0:0:0:
320,192,92628,1,0,0:0:0:0:
64,192,92785,128,2,92941:0:0:0:0:
448,192,93097,128,8,93253:0:0:0:0:
64,192,93410,1,6,0:0:0:0:
192,192,93722,1,8,0:0:0:0:
448,192,94035,1,2,0:0:0:0:
192,192,94191,1,2,0:0:0:0:
192,192,94503,1,2,0:0:0:0:
320,192,94816,1,2,0:0:0:0:
64,192,94972,1,8,0:0:0:0:
448,192,95128,1,0,0:0:0:0:
64,192,95285,1,2,0:0:0:0:
320,192,95441,1,2,0:0:0:0:
192,192,95597,1,8,0:0:0:0:
448,192,95910,1,2,0:0:0:0:
192,192,96222,1,8,0:0:0:0:
448,192,96535,1,2,0:0:0:0:
64,192,96847,1,8,0:0:0:0:
192,192,97003,1,2,0:0:0:0:
448,192,97160,1,2,0:0:0:0:
320,192,97472,1,2,0:0:0:0:
320,192,97785,1,2,0:0:0:0:
192,192,98097,1,2,0:0:0:0:
64,192,98410,1,2,0:0:0:0:
448,192,98410,1,4,0:0:0:0:
192,192,98722,1,8,0:0:0:0:
320,192,99035,1,2,0:0:0:0:
192,192,99191,1,2,0:0:0:0:
64,192,99503,1,2,0:0:0:0:
448,192,99503,1,0,0:0:0:0:
320,192,99972,1,8,0:0:0:0:
192,192,100285,1,2,0:0:0:0:
320,192,100441,1,2,0:0:0:0:
64,192,100753,1,0,0:0:0:0:
448,192,100753,1,0,0:0:0:0:
192,192,101222,1,8,0:0:0:0:
320,192,101535,1,2,0:0:0:0:
192,192,101691,1,2,0:0:0:0:
64,192,102003,128,2,102316:0:0:0:0:
448,192,102316,1,2,0:0:0:0:
192,192,102472,1,8,0:0:0:0:
320,192,102785,1,2,0:0:0:0:
192,192,103097,1,8,0:0:0:0:
64,192,103410,1,2,0:0:0:0:
448,192,103410,1,4,0:0:0:0:
320,192,103722,1,8,0:0:0:0:
192,192,104035,1,2,0:0:0:0:
320,192,104191,1,2,0:0:0:0:
64,192,104503,1,2,0:0:0:0:
448,192,104503,1,0,0:0:0:0:
192,192,104972,1,8,0:0:0:0:
320,192,105285,1,2,0:0:0:0:
192,192,105441,1,2,0:0:0:0:
64,192,105753,1,0,0:0:0:0:
448,192,105753,1,0,0:0:0:0:
320,192,106222,1,8,0:0:0:0:
192,192,106535,1,2,0:0:0:0:
320,192,106691,1,2,0:0:0:0:
64,192,107003,128,2,107316:0:0:0:0:
448,192,107316,1,2,0:0:0:0:
192,192,107472,1,8,0:0:0:0:
320,192,107628,128,0,108410:0:0:0:0:
64,192,108410,1,2,0:0:0:0:
448,192,108410,1,4,0:0:0:0:
192,192,108878,1,0,0:0:0:0:
320,192,109347,1,8,0:0:0:0:
192,192,109660,1,0,0:0:0:0:
448,192,109816,1,2,0:0:0:0:
64,192,109972,1,8,0:0:0:0:
320,192,110285,1,2,0:0:0:0:
64,192,110441,1,2,0:0:0:0:
320,192,110597,1,8,0:0:0:0:
192,192,110753,1,0,0:0:0:0:
448,192,110910,1,2,0:0:0:0:
192,192,111378,1,0,0:0:0:0:
320,192,111691,1,2,0:0:0:0:
448,192,112003,128,2,112941:0:0:0:0:
192,192,112941,1,2,0:0:0:0:
320,192,113097,1,8,0:0:0:0:
64,192,113253,1,0,0:0:0:0:
448,192,113410,1,6,0:0:0:0:
320,192,113566,1,0,0:0:0:0:
64,192,113722,1,8,0:0:0:0:
192,192,113878,1,0,0:0:0:0:
320,192,114191,1,2,0:0:0:0:
448,192,114347,1,8,0:0:0:0:
192,192,114503,1,6,0:0:0:0:
320,192,114816,1,6,0:0:0:0:
64,192,114972,1,6,0:0:0:0:
320,192,115910,1,6,0:0:0:0:
64,192,116222,1,8,0:0:0:0:
448,192,116222,1,0,0:0:0:0:
192,192,116535,1,2,0:0:0:0:
320,192,116847,1,8,0:0:0:0:
448,192,116847,1,0,0:0:0:0:
192,192,117160,1,2,0:0:0:0:
64,192,117472,1,8,0:0:0:0:
320,192,117472,1,0,0:0:0:0:
448,192,117785,1,2,0:0:0:0:
192,192,118097,1,8,0:0:0:0:
320,192,118097,1,0,0:0:0:0:
64,192,118410,1,2,0:0:0:0:
192,192,118722,1,8,0:0:0:0:
448,192,118722,1,0,0:0:0:0:
320,192,119035,1,2,0:0:0:0:
64,192,119347,1,8,0:0:0:0:
448,192,119347,1,0,0:0:0:0:
192,192,119660,1,2,0:0:0:0:
64,192,119972,1,8,0:0:0:0:
320,192,119972,1,0,0:0:0:0:
448,192,120285,1,2,0:0:0:0:
192,192,120597,1,8,0:0:0:0:
320,192,120597,1,0,0:0:0:0:
448,192,120910,1,6,0:0:0:0:
64,192,121222,1,8,0:0:0:0:
192,192,121222,1,0,0:0:0:0:
320,192,121535,1,2,0:0:0:0:
64,192,121847,1,8,0:0:0:0:
448,192,121847,1,0,0:0:0:0:
320,192,122160,1,2,0:0:0:0:
192,192,122472,1,8,0:0:0:0:
448,192,122472,1,0,0:0:0:0:
64,192,122785,1,2,0:0:0:0:
192,192,123097,1,8,0:0:0:0:
320,192,123097,1,0,0:0:0:0:
448,192,123410,1,2,0:0:0:0:
64,192,123722,1,8,0:0:0:0:
192,192,123722,1,0,0:0:0:0:
320,192,124035,1,2,0:0:0:0:
64,192,124347,1,8,0:0:0:0:
448,192,124347,1,0,0:0:0:0:
192,192,124660,1,2,0:0:0:0:
320,192,124972,1,8,0:0:0:0:
448,192,124972,1,0,0:0:0:0:
64,192,125285,1,2,0:0:0:0:
448,192,125597,128,8,125910:0:0:0:0:
192,192,125910,1,6,0:0:0:0:
64,192,126222,1,8,0:0:0:0:
448,192,126222,1,0,0:0:0:0:
320,192,126535,1,2,0:0:0:0:
64,192,126847,1,8,0:0:0:0:
192,192,126847,1,0,0:0:0:0:
320,192,127160,1,2,0:0:0:0:
192,192,127472,1,8,0:0:0:0:
448,192,127472,1,0,0:0:0:0:
64,192,127785,1,2,0:0:0:0:
320,192,128097,1,8,0:0:0:0:
448,192,128097,1,0,0:0:0:0:
192,192,128410,1,2,0:0:0:0:
64,192,128722,1,8,0:0:0:0:
320,192,128722,1,0,0:0:0:0:
448,192,129035,1,2,0:0:0:0:
192,192,129347,1,8,0:0:0:0:
320,192,129347,1,0,0:0:0:0:
64,192,129660,1,2,0:0:0:0:
192,192,129972,1,8,0:0:0:0:
448,192,129972,1,0,0:0:0:0:
320,192,130285,1,2,0:0:0:0:
64,192,130597,1,8,0:0:0:0:
448,192,130597,1,0,0:0:0:0:
192,192,130910,1,6,0:0:0:0:
64,192,131222,1,8,0:0:0:0:
320,192,131222,1,0,0:0:0:0:
192,192,131535,1,2,0:0:0:0:
320,192,131847,1,8,0:0:0:0:
448,192,131847,1,0,0:0:0:0:
64,192,132160,1,2,0:0:0:0:
192,192,132472,1,8,0:0:0:0:
448,192,132472,1,0,0:0:0:0:
320,192,132785,1,2,0:0:0:0:
64,192,133097,1,8,0:0:0:0:
448,192,133097,1,0,0:0:0:0:
320,192,133410,1,2,0:0:0:0:
64,192,133722,1,8,0:0:0:0:
192,192,133722,1,0,0:0:0:0:
448,192,134035,1,2,0:0:0:0:
64,192,134347,1,8,0:0:0:0:
320,192,134347,1,0,0:0:0:0:
192,192,134660,1,2,0:0:0:0:
320,192,134972,1,8,0:0:0:0:
448,192,134972,1,0,0:0:0:0:
64,192,135285,1,2,0:0:0:0:
192,192,135597,1,8,0:0:0:0:
320,192,135597,1,0,0:0:0:0:
64,192,135910,1,2,0:0:0:0:
448,192,135910,1,4,0:0:0:0:
320,192,136222,1,8,0:0:0:0:
192,192,136535,1,2,0:0:0:0:
320,192,136847,1,8,0:0:0:0:
448,192,137160,1,2,0:0:0:0:
192,192,137472,1,8,0:0:0:0:
320,192,137785,1,2,0:0:0:0:
64,192,138097,1,8,0:0:0:0:
192,192,138410,1,2,0:0:0:0:
448,192,138722,1,8,0:0:0:0:
320,192,139035,1,2,0:0:0:0:
64,192,139347,1,8,0:0:0:0:
192,192,139660,1,2,0:0:0:0:
448,192,139972,1,8,0:0:0:0:
192,192,140285,1,2,0:0:0:0:
320,192,140597,1,8,0:0:0:0:
64,192,140910,1,2,0:0:0:0:
448,192,140910,1,4,0:0:0:0:
320,192,141222,1,8,0:0:0:0:
192,192,141535,1,2,0:0:0:0:
448,192,141847,1,8,0:0:0:0:
64,192,142160,1,2,0:0:0:0:
320,192,142472,1,8,0:0:0:0:
448,192,142785,1,2,0:0:0:0:
192,192,143097,1,8,0:0:0:0:
64,192,143410,1,2,0:0:0:0:
448,192,143722,1,8,0:0:0:0:
192,192,144035,1,2,0:0:0:0:
320,192,144347,1,8,0:0:0:0:
64,192,144660,128,8,145128:0:0:0:0:
448,192,145128,128,8,145597:0:0:0:0:
192,192,145597,1,8,0:0:0:0:
64,192,145910,1,2,0:0:0:0:
320,192,145910,1,0,0:0:0:70:LR_Drum Finish.wav
448,192,146222,1,8,0:0:0:0:
192,192,146535,1,2,0:0:0:0:
320,192,146847,1,8,0:0:0:0:
64,192,147160,1,2,0:0:0:0:
192,192,147472,1,8,0:0:0:0:
448,192,147785,1,2,0:0:0:0:
320,192,148097,1,8,0:0:0:0:
64,192,148410,1,2,0:0:0:0:
192,192,148722,1,8,0:0:0:0:
448,192,149035,1,2,0:0:0:0:
320,192,149191,1,2,0:0:0:0:
192,192,149347,1,8,0:0:0:0:
64,192,149503,128,2,149816:0:0:0:0:
320,192,149972,1,8,0:0:0:0:
448,192,150285,1,2,0:0:0:0:
192,192,150597,1,8,0:0:0:0:
64,192,150910,1,2,0:0:0:0:
320,192,150910,1,0,0:0:0:70:LR_Drum Finish.wav
448,192,151222,1,8,0:0:0:0:
64,192,151535,1,2,0:0:0:0:
192,192,151847,1,8,0:0:0:0:
448,192,152160,1,2,0:0:0:0:
320,192,152472,1,8,0:0:0:0:
192,192,152785,1,2,0:0:0:0:
64,192,153097,1,8,0:0:0:0:
448,192,153410,1,2,0:0:0:0:
320,192,153722,1,8,0:0:0:0:
64,192,154035,1,2,0:0:0:0:
192,192,154191,1,2,0:0:0:0:
320,192,154347,1,8,0:0:0:0:
448,192,154503,128,2,154816:0:0:0:0:
64,192,154972,1,8,0:0:0:0:
192,192,155285,1,2,0:0:0:0:
320,192,155597,1,8,0:0:0:0:
192,192,155910,1,2,0:0:0:0:
448,192,155910,1,0,0:0:0:70:LR_Drum Finish.wav
64,192,156222,1,8,0:0:0:0:
320,192,156535,1,2,0:0:0:0:
192,192,156847,1,8,0:0:0:0:
448,192,157160,1,2,0:0:0:0:
64,192,157472,1,8,0:0:0:0:
192,192,157785,1,2,0:0:0:0:
320,192,158097,1,8,0:0:0:0:
448,192,158410,1,2,0:0:0:0:
64,192,158722,1,8,0:0:0:0:
448,192,159035,1,2,0:0:0:0:
320,192,159191,1,2,0:0:0:0:
192,192,159347,1,8,0:0:0:0:
64,192,159503,128,2,159816:0:0:0:0:
448,192,159972,1,8,0:0:0:0:
64,192,160285,1,2,0:0:0:0:
320,192,160597,1,8,0:0:0:0:
448,192,160910,1,0,0:0:0:70:LR_Drum Finish.wav
192,192,160910,1,2,0:0:0:0:
64,192,161066,1,0,0:0:0:0:
320,192,161222,1,8,0:0:0:0:
192,192,161378,128,0,161691:0:0:0:0:
448,192,161691,1,2,0:0:0:0:
320,192,161847,1,8,0:0:0:0:
64,192,162160,1,2,0:0:0:0:
448,192,162316,1,2,0:0:0:0:
192,192,162472,1,8,0:0:0:0:
320,192,162628,128,0,162941:0:0:0:0:
64,192,162941,1,2,0:0:0:0:
192,192,163097,1,8,0:0:0:0:
448,192,163410,1,6,0:0:0:0:
64,192,163566,1,6,0:0:0:0:
320,192,163878,1,6,0:0:0:0:
192,192,164191,1,6,0:0:0:0:
448,192,164503,1,6,0:0:0:0:
64,192,164816,1,6,0:0:0:0:
320,192,164972,1,6,0:0:0:0:
64,192,165753,1,8,0:0:0:0:
448,192,165910,1,6,0:0:0:0:
192,192,166222,1,8,0:0:0:0:
320,192,166535,1,2,0:0:0:0:
192,192,166691,1,2,0:0:0:0:
192,192,167003,1,2,0:0:0:0:
320,192,167316,1,2,0:0:0:0:
64,192,167472,1,8,0:0:0:0:
448,192,167628,1,0,0:0:0:0:
64,192,167785,1,2,0:0:0:0:
320,192,167941,1,2,0:0:0:0:
192,192,168097,1,8,0:0:0:0:
448,192,168410,1,2,0:0:0:0:
64,192,168722,1,8,0:0:0:0:
448,192,169035,1,2,0:0:0:0:
192,192,169191,1,2,0:0:0:0:
320,192,169347,1,8,0:0:0:0:
64,192,169503,128,2,169816:0:0:0:0:
192,192,169816,1,2,0:0:0:0:
448,192,169972,1,8,0:0:0:0:
320,192,170128,1,0,0:0:0:0:
192,192,170285,128,2,170441:0:0:0:0:
448,192,170597,128,8,170753:0:0:0:0:
64,192,170910,1,6,0:0:0:0:
320,192,171222,1,8,0:0:0:0:
192,192,171535,1,2,0:0:0:0:
320,192,171691,1,2,0:0:0:0:
320,192,172003,1,2,0:0:0:0:
192,192,172316,1,2,0:0:0:0:
448,192,172472,1,8,0:0:0:0:
64,192,172628,1,0,0:0:0:0:
448,192,172785,1,2,0:0:0:0:
192,192,172941,1,2,0:0:0:0:
320,192,173097,1,8,0:0:0:0:
448,192,173410,1,2,0:0:0:0:
64,192,173722,1,8,0:0:0:0:
448,192,174035,1,2,0:0:0:0:
192,192,174347,1,8,0:0:0:0:
320,192,174503,1,2,0:0:0:0:
448,192,174660,128,0,175285:0:0:0:0:
64,192,174972,1,8,0:0:0:0:
192,192,175285,128,2,175910:0:0:0:0:
320,192,175597,1,8,0:0:0:0:
448,192,175910,1,6,0:0:0:0:
64,192,176222,1,8,0:0:0:0:
320,192,176535,1,2,0:0:0:0:
64,192,176691,1,2,0:0:0:0:
64,192,177003,1,2,0:0:0:0:
448,192,177316,1,2,0:0:0:0:
192,192,177472,1,8,0:0:0:0:
320,192,177628,1,0,0:0:0:0:
192,192,177785,1,2,0:0:0:0:
448,192,177941,1,2,0:0:0:0:
64,192,178097,1,8,0:0:0:0:
448,192,178410,1,2,0:0:0:0:
192,192,178722,1,8,0:0:0:0:
64,192,179035,1,2,0:0:0:0:
320,192,179191,1,2,0:0:0:0:
192,192,179347,1,8,0:0:0:0:
448,192,179503,128,2,179816:0:0:0:0:
320,192,179816,1,2,0:0:0:0:
192,192,179972,1,8,0:0:0:0:
448,192,180128,1,0,0:0:0:0:
64,192,180285,128,2,180441:0:0:0:0:
320,192,180597,128,8,180753:0:0:0:0:
64,192,180910,1,6,0:0:0:0:
448,192,181222,1,8,0:0:0:0:
192,192,181535,1,2,0:0:0:0:
448,192,181691,1,2,0:0:0:0:
448,192,182003,1,2,0:0:0:0:
64,192,182316,1,2,0:0:0:0:
320,192,182472,1,8,0:0:0:0:
192,192,182628,1,0,0:0:0:0:
320,192,182785,1,2,0:0:0:0:
64,192,182941,1,2,0:0:0:0:
448,192,183097,1,8,0:0:0:0:
192,192,183410,1,2,0:0:0:0:
448,192,183722,1,8,0:0:0:0:
192,192,184035,1,2,0:0:0:0:
448,192,184347,1,8,0:0:0:0:
320,192,184503,1,2,0:0:0:0:
64,192,184660,1,2,0:0:0:0:
192,192,184972,1,2,0:0:0:0:
192,192,185285,1,2,0:0:0:0:
320,192,185597,1,2,0:0:0:0:
64,192,185910,1,2,0:0:0:0:
448,192,185910,1,4,0:0:0:0:
192,192,186222,1,8,0:0:0:0:
320,192,186535,1,2,0:0:0:0:
192,192,186691,1,2,0:0:0:0:
64,192,187003,1,2,0:0:0:0:
448,192,187003,1,0,0:0:0:0:
320,192,187472,1,8,0:0:0:0:
192,192,187785,1,2,0:0:0:0:
320,192,187941,1,2,0:0:0:0:
64,192,188253,1,0,0:0:0:0:
448,192,188253,1,0,0:0:0:0:
192,192,188722,1,8,0:0:0:0:
320,192,189035,1,2,0:0:0:0:
192,192,189191,1,2,0:0:0:0:
448,192,189503,128,2,189816:0:0:0:0:
64,192,189816,1,2,0:0:0:0:
320,192,189972,1,8,0:0:0:0:
192,192,190285,1,2,0:0:0:0:
320,192,190597,1,8,0:0:0:0:
64,192,190910,1,2,0:0:0:0:
448,192,190910,1,4,0:0:0:0:
320,192,191222,1,8,0:0:0:0:
192,192,191535,1,2,0:0:0:0:
320,192,191691,1,2,0:0:0:0:
64,192,192003,1,2,0:0:0:0:
448,192,192003,1,0,0:0:0:0:
192,192,192472,1,8,0:0:0:0:
320,192,192785,1,2,0:0:0:0:
192,192,192941,1,2,0:0:0:0:
64,192,193253,1,0,0:0:0:0:
448,192,193253,1,0,0:0:0:0:
320,192,193722,1,8,0:0:0:0:
192,192,194035,1,2,0:0:0:0:
320,192,194191,1,2,0:0:0:0:
448,192,194503,128,2,194816:0:0:0:0:
64,192,194816,1,2,0:0:0:0:
320,192,194972,1,8,0:0:0:0:
192,192,195128,128,0,195910:0:0:0:0:
64,192,195910,1,2,0:0:0:0:
448,192,195910,1,4,0:0:0:0:
192,192,196378,1,0,0:0:0:0:
320,192,196847,1,8,0:0:0:0:
64,192,197160,1,0,0:0:0:0:
192,192,197472,1,8,0:0:0:0:
448,192,197785,1,2,0:0:0:0:
320,192,197941,1,2,0:0:0:0:
64,192,198097,1,8,0:0:0:0:
192,192,198253,1,0,0:0:0:0:
448,192,198410,1,2,0:0:0:0:
320,192,198878,1,0,0:0:0:0:
192,192,199191,1,2,0:0:0:0:
64,192,199503,128,2,200441:0:0:0:0:
448,192,200441,1,2,0:0:0:0:
192,192,200597,1,8,0:0:0:0:
320,192,200753,1,0,0:0:0:0:
64,192,200910,1,6,0:0:0:0:
192,192,201066,1,0,0:0:0:0:
448,192,201222,1,8,0:0:0:0:
320,192,201378,1,0,0:0:0:0:
192,192,201691,1,2,0:0:0:0:
64,192,201847,1,8,0:0:0:0:
320,192,202003,1,6,0:0:0:0:
192,192,202316,1,6,0:0:0:0:
448,192,202472,1,6,0:0:0:0:
64,192,203410,1,2,0:0:0:0:
448,192,203410,1,4,0:0:0:0:
320,192,203878,1,2,0:0:0:0:
192,192,204035,1,8,0:0:0:0:
448,192,204503,1,2,0:0:0:0:
64,192,204660,1,2,0:0:0:0:
192,192,204972,1,2,0:0:0:0:
448,192,205285,1,8,0:0:0:0:
64,192,205910,1,2,0:0:0:0:
320,192,205910,1,4,0:0:0:0:
448,192,206378,1,2,0:0:0:0:
192,192,206535,1,8,0:0:0:0:
64,192,207003,1,2,0:0:0:0:
320,192,207160,1,2,0:0:0:0:
448,192,207472,1,2,0:0:0:0:
192,192,207785,1,8,0:0:0:0:
64,192,208410,1,2,0:0:0:0:
448,192,208410,1,4,0:0:0:0:
192,192,208878,1,2,0:0:0:0:
320,192,209035,1,8,0:0:0:0:
448,192,209503,1,2,0:0:0:0:
192,192,209660,1,2,0:0:0:0:
320,192,209972,1,2,0:0:0:0:
64,192,210285,1,8,0:0:0:0:
320,192,210910,1,2,0:0:0:0:
448,192,210910,1,4,0:0:0:0:
192,192,211378,1,2,0:0:0:0:
448,192,211535,1,8,0:0:0:0:
320,192,212003,1,2,0:0:0:0:
64,192,212160,1,2,0:0:0:0:
192,192,212472,1,2,0:0:0:0:
320,192,212785,1,8,0:0:0:0:
448,192,213097,128,8,213410:0:0:0:0:
64,192,213410,1,2,0:0:0:0:
192,192,213410,1,4,0:0:0:0:
320,192,213722,1,8,0:0:0:0:
192,192,214035,1,2,0:0:0:0:
448,192,214347,1,8,0:0:0:0:
64,192,214660,1,2,0:0:0:0:
320,192,214972,1,8,0:0:0:0:
448,192,215285,1,2,0:0:0:0:
64,192,215597,1,8,0:0:0:0:
320,192,215910,1,2,0:0:0:0:
192,192,216222,1,8,0:0:0:0:
448,192,216535,1,2,0:0:0:0:
64,192,216847,1,8,0:0:0:0:
448,192,217160,1,2,0:0:0:0:
192,192,217472,1,8,0:0:0:0:
320,192,217785,1,2,0:0:0:0:
64,192,218097,1,8,0:0:0:0:
192,192,218410,1,2,0:0:0:0:
320,192,218410,1,4,0:0:0:0:
448,192,218722,1,8,0:0:0:0:
192,192,219035,1,2,0:0:0:0:
320,192,219347,1,8,0:0:0:0:
64,192,219660,1,2,0:0:0:0:
448,192,219972,1,8,0:0:0:0:
64,192,220285,1,2,0:0:0:0:
192,192,220597,1,8,0:0:0:0:
448,192,220910,1,2,0:0:0:0:
64,192,221222,1,8,0:0:0:0:
320,192,221535,1,2,0:0:0:0:
192,192,221847,1,8,0:0:0:0:
448,192,222160,1,0,0:0:0:0:
64,192,222316,1,0,0:0:0:0:
320,192,222628,1,2,0:0:0:0:
192,192,222941,1,8,0:0:0:0:
448,192,223097,1,8,0:0:0:0:
64,192,223410,128,2,225910:0:0:0:0:
192,192,223410,128,0,225910:0:0:0:0:
