osu file format v14

[General]
AudioFilename: stir.mp3
AudioLeadIn: 0
PreviewTime: 139728
Countdown: 0
SampleSet: Normal
StackLeniency: 0.7
Mode: 0
LetterboxInBreaks: 0
WidescreenStoryboard: 1

[Editor]
DistanceSpacing: 1
BeatDivisor: 4
GridSize: 8
TimelineZoom: 1

[Metadata]
Title:Shunshun Shuugetsu
TitleUnicode:蠢々秋月
Artist:Dark PHOENiX
ArtistUnicode:Dark PHOENiX
Creator:Trust
Version:Normal
Source:東方永夜抄 ~ Imperishable Night
Tags:東方Project touhou wriggle nightbug video game instrumental rock Eiyashou Mooned Insect stage 1 boss theme zun Team Shanghai Alice th8 stirring an autumn moon
BeatmapID:2274146
BeatmapSetID:1086990

[Difficulty]
HPDrainRate:3
CircleSize:3.5
OverallDifficulty:4
ApproachRate:5
SliderMultiplier:0.999999999999999
SliderTickRate:1

[Events]
//Background and Video events
0,0,"stirbg.jpg",0,0
//Break Periods
2,40977,49474
//Storyboard Layer 0 (Background)
//Storyboard Layer 1 (Fail)
//Storyboard Layer 2 (Pass)
//Storyboard Layer 3 (Foreground)
//Storyboard Layer 4 (Overlay)
//Storyboard Sound Samples

[TimingPoints]
1190,309.278350515464,4,1,0,60,1,0
139746,-100,4,1,0,60,0,1
178097,1237.11340206186,4,1,0,60,1,0
179643,355.029585798817,4,1,0,60,1,0
182162,333.333333333333,4,1,0,60,1,0
182995,-100,4,1,0,5,0,0
183078,-100,4,1,0,60,0,0

[Colours]
Combo1 : 183,255,155
Combo2 : 138,117,236
Combo3 : 252,150,88
Combo4 : 255,247,138

[HitObjects]
48,101,1190,6,0,P|98:127|144:125,1,99.9999999999999,2|8,0:2|0:0,0:0:0:0:
185,104,1653,1,0,1:0:0:0:
185,104,1808,2,0,B|217:128|217:128|225:200,1,99.9999999999999,2|8,0:2|0:0,0:0:0:0:
288,264,2427,2,0,P|337:264|380:288,1,99.9999999999999,2|8,0:2|0:0,0:0:0:0:
424,265,2891,1,0,1:0:0:0:
424,265,3045,2,0,L|444:156,1,99.9999999999999,2|0,0:2|0:0,0:0:0:0:
458,67,3664,6,0,P|498:51|514:35,2,50,2|0|8,0:2|0:0|0:0,0:0:0:0:
368,112,4282,2,0,P|361:154|367:176,2,50,2|0|8,0:2|1:0|0:0,0:0:0:0:
296,40,4901,1,2,0:2:0:0:
200,72,5210,1,8,0:0:0:0:
120,8,5519,2,0,P|99:59|113:124,1,99.9999999999999,2|8,0:2|0:0,0:0:0:0:
154,188,6138,6,0,L|134:301,1,99.9999999999999,2|8,0:2|0:0,0:0:0:0:
167,326,6602,1,0,0:0:0:0:
167,326,6757,2,0,B|207:349|207:349|281:336,1,99.9999999999999,2|8,0:2|0:0,0:0:0:0:
357,315,7375,2,0,P|360:266|388:223,1,99.9999999999999,2|8,0:2|0:0,0:0:0:0:
429,197,7839,1,0,0:0:0:0:
429,197,7994,2,0,B|441:158|441:158|425:97,1,99.9999999999999,2|0,0:2|0:0,0:0:0:0:
338,51,8612,6,0,L|349:2,2,50,2|0|8,0:2|0:0|0:0,0:0:0:0:
260,114,9231,2,0,L|271:162,2,50,2|0|8,0:2|0:0|0:0,0:0:0:0:
167,75,9849,1,2,0:2:0:0:
85,133,10159,2,0,P|69:162|72:240,1,99.9999999999999,8|2,0:0|0:2,0:0:0:0:
80,275,10622,1,0,0:0:0:0:
80,275,10777,1,8,0:0:0:0:
166,324,11086,6,0,B|199:288|199:288|207:215,1,99.9999999999999,4|8,0:0|0:0,0:0:0:0:
248,213,11550,1,0,0:2:0:0:
248,213,11705,2,0,P|301:218|345:193,1,99.9999999999999,2|8,0:2|0:0,0:0:0:0:
375,102,12324,2,0,P|322:97|278:122,1,99.9999999999999,2|8,0:2|0:0,0:0:0:0:
232,117,12787,1,0,0:2:0:0:
232,117,12942,2,0,P|203:79|201:24,1,99.9999999999999,2|8,0:2|0:0,0:0:0:0:
102,4,13561,6,0,L|32:13,2,50,2|0|8,0:2|0:2|0:0,0:0:0:0:
70,98,14179,2,0,L|0:107,2,50,2|0|8,0:2|0:0|0:0,0:0:0:0:
155,149,14798,2,0,B|173:181|173:181|163:247,1,99.9999999999999,2|8,0:2|0:0,0:0:0:0:
227,320,15416,2,0,L|293:309,1,50,2|0,0:2|0:0,0:0:0:0:
326,303,15726,1,8,0:0:0:0:
397,373,16035,6,0,P|423:323|417:267,1,99.9999999999999,2|8,0:2|0:0,0:0:0:0:
404,233,16499,1,0,0:2:0:0:
404,233,16653,2,0,B|364:210|364:210|296:206,1,99.9999999999999,2|8,0:2|0:0,0:0:0:0:
211,225,17272,1,2,0:2:0:0:
144,150,17581,2,0,L|156:93,1,50,8|0,0:0|0:2,0:0:0:0:
165,51,17891,2,0,P|218:57|269:26,1,99.9999999999999,2|8,0:2|0:0,0:0:0:0:
358,34,18509,6,0,L|421:24,2,50,2|0|8,0:2|0:2|0:0,0:0:0:0:
331,130,19128,2,0,L|281:137,2,50,2|0|8,0:2|0:0|0:0,0:0:0:0:
414,185,19746,2,0,L|398:254,1,50,4|4,0:3|0:3,0:0:0:0:
388,281,20055,1,4,0:3:0:0:
293,313,20365,1,4,0:3:0:0:
198,345,20674,1,4,0:3:0:0:
113,291,20983,6,0,B|96:247|96:247|113:178,1,99.9999999999999,6|10,0:0|0:0,0:0:0:0:
149,166,21447,2,0,L|253:140,1,99.9999999999999,2|2,0:0|0:0,0:0:0:0:
330,199,22066,1,2,0:0:0:0:
399,127,22375,1,2,0:0:0:0:
399,127,22530,2,0,L|410:66,1,50,10|2,0:0|0:0,0:0:0:0:
444,44,22839,2,0,B|491:66|491:66|511:175,1,150,2|0,0:0|0:0,0:0:0:0:
479,197,23458,6,0,P|435:239|424:285,1,99.9999999999999,2|10,0:0|0:0,0:0:0:0:
329,245,24076,2,0,P|284:265|234:261,1,99.9999999999999,2|10,0:0|0:0,0:0:0:0:
189,172,24695,2,0,L|209:111,2,50,2|2|10,0:0|0:0|0:0,0:0:0:0:
92,146,25313,2,0,L|72:85,2,50,2|2|10,0:0|0:0|0:0,0:0:0:0:
31,225,25932,6,0,P|19:291|43:338,1,99.9999999999999,6|10,0:0|0:0,0:0:0:0:
73,345,26396,2,0,B|127:351|127:351|184:325,1,99.9999999999999,2|2,0:0|0:0,0:0:0:0:
253,293,27014,1,2,0:0:0:0:
341,245,27324,1,2,0:0:0:0:
341,245,27478,2,0,L|349:183,1,50,10|2,0:0|0:0,0:0:0:0:
301,175,27787,2,0,B|268:140|268:140|255:34,1,150,2|0,0:0|0:0,0:0:0:0:
302,19,28406,6,0,P|346:14|406:40,1,99.9999999999999,2|10,0:0|0:0,0:0:0:0:
494,7,29025,2,0,P|510:48|500:112,1,99.9999999999999,0|10,0:0|0:0,0:0:0:0:
475,198,29643,1,8,0:0:0:0:
383,157,29952,1,8,0:0:0:0:
293,201,30262,2,0,L|285:262,1,50,8|8,0:0|0:0,0:0:0:0:
276,299,30571,1,8,0:0:0:0:
212,375,30880,6,0,P|180:326|184:265,1,99.9999999999999,6|10,0:0|0:0,0:0:0:0:
194,238,31344,2,0,P|189:188|160:148,1,99.9999999999999,2|2,0:0|0:0,0:0:0:0:
78,90,31963,1,2,0:0:0:0:
169,50,32272,1,2,0:0:0:0:
169,50,32427,2,0,L|180:-7,1,50,10|0,0:0|0:0,0:0:0:0:
225,17,32736,2,0,B|266:50|266:50|311:27|368:42,1,150,2|0,0:0|0:0,0:0:0:0:
403,65,33354,6,0,L|431:170,1,99.9999999999999,2|10,0:0|0:0,0:0:0:0:
506,225,33973,2,0,L|478:330,1,99.9999999999999,2|10,0:0|0:0,0:0:0:0:
381,305,34592,2,0,L|364:240,2,50,2|2|10,0:0|0:0|0:0,0:0:0:0:
284,329,35210,2,0,L|267:394,2,50,2|2|10,0:0|0:0|0:0,0:0:0:0:
203,269,35829,6,0,P|193:218|209:170,1,99.9999999999999,6|10,0:0|0:0,0:0:0:0:
175,134,36293,2,0,B|140:155|140:155|69:138,1,99.9999999999999,2|2,0:0|0:0,0:0:0:0:
8,75,36911,1,2,0:0:0:0:
102,42,37220,1,2,0:0:0:0:
102,42,37375,2,0,L|161:26,1,50,10|2,0:0|0:0,0:0:0:0:
196,49,37684,2,0,P|248:73|305:62,1,99.9999999999999,2|10,0:0|0:0,0:0:0:0:
387,48,38303,6,0,L|397:-7,2,50,2|2|10,0:0|0:0|0:0,0:0:0:0:
457,118,38921,2,0,L|447:173,1,50,2|2,0:0|0:0,0:0:0:0:
438,216,39231,1,10,0:0:0:0:
256,192,39540,12,4,40777,0:0:0:0:
156,116,50674,6,0,L|173:218,1,99.9999999999999,4|8,0:0|0:0,0:0:0:0:
221,223,51138,2,0,P|265:219|323:246,1,99.9999999999999,2|0,0:2|0:0,0:0:0:0:
392,304,51757,1,2,0:2:0:0:
500,200,52220,1,8,0:0:0:0:
468,104,52530,1,2,0:2:0:0:
397,175,52839,1,8,0:0:0:0:
367,79,53148,6,0,B|349:41|349:41|301:12|229:30,2,150,2|2|8,0:2|0:2|0:0,0:0:0:0:
280,130,54385,2,0,P|263:182|277:245,1,99.9999999999999,2|8,0:2|0:0,0:0:0:0:
200,294,55004,2,0,P|174:252|170:203,1,99.9999999999999,2|8,0:2|0:0,0:0:0:0:
196,106,55622,5,2,0:2:0:0:
123,41,55932,1,8,0:0:0:0:
123,41,56086,2,0,B|76:74|76:74|59:177,1,150,2|8,0:2|0:0,0:0:0:0:
114,251,56860,1,2,0:2:0:0:
202,205,57169,2,0,P|260:208|298:236,1,99.9999999999999,8|2,0:0|0:2,0:0:0:0:
358,306,57787,1,8,0:0:0:0:
443,253,58097,6,0,L|459:192,1,50,2|0,0:2|0:0,0:0:0:0:
472,157,58406,2,0,P|417:161|364:122,1,99.9999999999999,8|8,0:0|0:0,0:0:0:0:
305,72,59025,1,8,0:0:0:0:
209,102,59334,2,0,L|185:149,2,50,2|0|8,0:2|0:3|0:0,0:0:0:0:
281,171,59952,2,0,L|293:233,1,50,8|0,0:0|0:0,0:0:0:0:
304,268,60262,1,8,0:0:0:0:
215,314,60571,6,0,P|157:291|106:302,1,99.9999999999999,4|8,0:0|0:0,0:0:0:0:
73,280,61035,1,0,0:0:0:0:
73,280,61190,2,0,B|48:245|48:245|42:166,1,99.9999999999999,2|8,0:2|0:0,0:0:0:0:
105,110,61808,2,0,B|130:145|130:145|136:224,1,99.9999999999999,2|8,0:2|0:0,0:0:0:0:
182,217,62272,1,0,0:0:0:0:
182,217,62427,2,0,P|240:194|291:205,1,99.9999999999999,2|8,0:2|0:0,0:0:0:0:
364,244,63045,6,0,L|375:293,2,50,2|0|8,0:2|0:0|0:0,0:0:0:0:
456,206,63664,2,0,L|467:154,1,50,2|0,0:2|0:0,0:0:0:0:
478,108,63973,1,8,0:0:0:0:
380,127,64282,2,0,B|347:105|347:105|323:29,1,99.9999999999999,2|8,0:2|0:0,0:0:0:0:
233,78,64901,2,0,L|222:130,1,50,2|0,0:2|0:0,0:0:0:0:
211,176,65210,1,8,0:0:0:0:
131,115,65519,6,0,P|81:110|36:130,1,99.9999999999999,2|8,0:2|0:0,0:0:0:0:
18,177,65983,1,0,0:0:0:0:
18,177,66138,2,0,L|26:276,1,99.9999999999999,2|8,0:2|0:0,0:0:0:0:
116,321,66757,2,0,P|165:316|210:336,1,99.9999999999999,2|8,0:2|0:0,0:0:0:0:
251,365,67220,1,0,0:0:0:0:
251,365,67375,2,0,L|259:265,1,99.9999999999999,2|8,0:2|0:0,0:0:0:0:
205,181,67994,6,0,P|154:203|145:212,2,50,2|0|8,0:2|0:0|0:0,0:0:0:0:
304,168,68612,2,0,P|348:201|360:204,2,50,2|0|8,0:2|0:0|0:0,0:0:0:0:
241,89,69231,2,0,P|245:18|272:-13,1,99.9999999999999,2|8,0:2|0:0,0:0:0:0:
352,36,69849,2,0,L|411:26,1,50,2|0,0:2|0:0,0:0:0:0:
450,18,70159,1,8,0:0:0:0:
500,104,70468,6,0,P|496:175|469:206,1,99.9999999999999,2|8,0:2|0:0,0:0:0:0:
437,222,70932,1,0,0:0:0:0:
437,222,71086,2,0,B|418:260|418:260|430:334,1,99.9999999999999,2|8,0:2|0:0,0:0:0:0:
330,342,71705,2,0,B|311:304|311:304|323:230,1,99.9999999999999,2|8,0:2|0:0,0:0:0:0:
282,214,72169,1,0,0:0:0:0:
282,214,72324,2,0,P|234:219|185:193,1,99.9999999999999,2|8,0:2|0:0,0:0:0:0:
101,147,72942,6,0,L|78:207,2,50,2|0|8,0:2|0:0|0:0,0:0:0:0:
187,96,73561,2,0,L|169:49,2,50,2|0|8,0:2|0:0|0:0,0:0:0:0:
277,137,74179,2,0,B|296:173|296:173|285:246,1,99.9999999999999,2|8,0:2|0:0,0:0:0:0:
384,254,74798,2,0,L|444:236,1,50,2|0,0:2|0:0,0:0:0:0:
480,228,75107,1,8,0:0:0:0:
418,149,75416,6,0,P|407:116|432:50,1,99.9999999999999,2|8,0:2|0:0,0:0:0:0:
390,20,75880,1,0,0:0:0:0:
390,20,76035,2,0,B|352:41|352:41|278:33,1,99.9999999999999,2|8,0:2|0:0,0:0:0:0:
230,110,76653,2,0,P|177:135|126:123,1,99.9999999999999,2|8,0:2|0:0,0:0:0:0:
91,110,77117,1,0,0:0:0:0:
91,110,77272,2,0,L|70:220,1,99.9999999999999,2|8,0:2|0:0,0:0:0:0:
156,260,77891,6,0,L|167:313,1,50,2|0,0:2|0:0,0:0:0:0:
176,360,78200,1,8,0:0:0:0:
272,336,78509,1,2,0:2:0:0:
328,256,78818,1,8,0:0:0:0:
424,232,79128,2,0,P|456:168|432:80,2,150,4|4|4,0:3|0:3|0:3,0:0:0:0:
328,256,80365,5,4,0:0:0:0:
248,192,80674,2,0,B|232:160|240:120|240:120|272:48,1,150,10|2,0:0|0:0,0:0:0:0:
176,24,81447,1,0,0:0:0:0:
176,24,81602,2,0,B|140:29|113:59|113:59|73:128,2,150,2|2|10,0:0|0:0|0:0,0:0:0:0:
270,50,82839,6,0,P|350:66|414:18,1,150,2|2,0:0|0:0,0:0:0:0:
458,116,83612,1,2,0:0:0:0:
458,116,83767,1,10,0:0:0:0:
384,184,84076,2,0,P|330:245|339:324,1,150,2|2,0:0|0:0,0:0:0:0:
192,352,85004,2,0,L|200:288,1,50,10|2,0:0|0:0,0:0:0:0:
208,256,85313,5,2,0:2:0:0:
128,200,85622,2,0,B|104:173|101:132|101:132|113:54,2,150,8|2|2,0:0|0:0|0:0,0:0:0:0:
224,160,86860,1,8,0:0:0:0:
224,160,87014,2,0,P|272:144|320:152,1,99.9999999999999,2|0,0:0|0:0,0:0:0:0:
360,168,87478,1,8,0:0:0:0:
432,96,87787,6,0,P|461:160|434:240,2,150,2|2|8,0:0|0:0|0:0,0:0:0:0:
336,92,89025,2,0,P|290:97|234:69,1,99.9999999999999,2|10,0:0|0:0,0:0:0:0:
205,42,89488,1,2,0:0:0:0:
109,71,89798,2,0,L|94:124,1,50,2|8,0:0|0:0,0:0:0:0:
124,159,90107,6,0,B|135:198|135:198|113:269,1,99.9999999999999,6|2,0:0|0:0,0:0:0:0:
100,302,90571,1,10,0:0:0:0:
189,350,90880,1,2,0:0:0:0:
189,350,91035,1,2,0:0:0:0:
269,290,91344,2,0,P|275:244|246:185,1,99.9999999999999,2|2,0:0|0:0,0:0:0:0:
227,153,91808,1,10,0:0:0:0:
304,90,92117,2,0,L|316:24,1,50,2|2,0:2|0:0,0:0:0:0:
407,8,92581,6,0,L|425:109,1,99.9999999999999,2|2,0:0|0:0,0:0:0:0:
465,135,93045,1,10,0:0:0:0:
393,204,93354,1,2,0:2:0:0:
393,204,93509,1,2,0:0:0:0:
299,169,93818,2,0,P|246:174|203:208,1,99.9999999999999,2|2,0:0|0:0,0:0:0:0:
176,238,94282,1,10,0:0:0:0:
82,202,94592,2,0,L|68:138,1,50,2|2,0:0|0:0,0:0:0:0:
159,106,95055,6,0,B|187:84|187:84|197:19,1,99.9999999999999,6|2,0:0|0:0,0:0:0:0:
244,3,95519,1,10,0:0:0:0:
338,42,95829,1,2,0:2:0:0:
338,42,95983,1,2,0:0:0:0:
431,7,96293,2,0,B|459:29|459:29|469:94,1,99.9999999999999,2|2,0:0|0:0,0:0:0:0:
506,125,96757,1,10,0:0:0:0:
425,184,97066,2,0,P|381:170|356:169,1,50,2|0,0:0|0:0,0:0:0:0:
277,172,97530,6,0,P|232:205|139:199,1,150,2|8,0:0|0:0,0:0:0:0:
72,127,98303,1,0,0:0:0:0:
72,127,98458,2,0,L|84:18,2,99.9999999999999,2|0|0,0:0|0:0|0:0,0:0:0:0:
31,157,99231,1,10,0:0:0:0:
55,253,99540,1,2,0:0:0:0:
55,253,99695,2,0,L|70:312,1,50,10|10,0:0|0:0,0:0:0:0:
94,343,100004,6,0,P|141:317|202:322,1,99.9999999999999,6|2,0:0|0:0,0:0:0:0:
233,333,100468,1,10,0:0:0:0:
313,274,100777,2,0,L|325:216,1,50,2|10,0:0|0:0,0:0:0:0:
227,194,101241,2,0,B|201:166|201:166|190:101,1,99.9999999999999,2|2,0:0|0:0,0:0:0:0:
183,55,101705,1,8,0:0:0:0:
273,15,102014,1,2,0:0:0:0:
273,15,102169,1,2,0:0:0:0:
339,89,102478,6,0,P|380:107|446:94,1,99.9999999999999,2|2,0:0|0:0,0:0:0:0:
481,86,102942,1,10,0:0:0:0:
500,183,103251,2,0,L|490:250,1,50,2|10,0:0|0:0,0:0:0:0:
431,312,103715,2,0,B|384:328|384:328|336:314,1,99.9999999999999,2|2,0:0|0:0,0:0:0:0:
290,291,104179,1,10,0:0:0:0:
334,201,104488,1,2,0:0:0:0:
334,201,104643,1,2,0:0:0:0:
291,110,104952,6,0,B|244:94|244:94|196:108,1,99.9999999999999,6|2,0:0|0:0,0:0:0:0:
148,123,105416,1,10,0:0:0:0:
60,172,105726,2,0,L|51:221,1,50,2|2,0:0|0:0,0:0:0:0:
109,303,106190,2,0,P|149:283|214:286,1,99.9999999999999,2|2,0:0|0:0,0:0:0:0:
251,297,106653,2,0,B|273:325|273:325|354:338,1,99.9999999999999,10|2,0:0|0:0,0:0:0:0:
420,280,107272,1,10,0:0:0:0:
331,233,107581,6,0,B|307:163|307:163|333:76,1,150,2|2,0:0|0:0,0:0:0:0:
234,55,108354,1,2,0:0:0:0:
146,103,108664,1,2,0:0:0:0:
146,103,108818,2,0,L|81:88,2,50,8|0|8,0:0|0:0|0:0,0:0:0:0:
199,187,109437,2,0,L|247:175,2,50,8|0|8,0:0|0:0|0:0,0:0:0:0:
129,258,110055,5,4,0:0:0:0:
36,219,110365,1,4,0:0:0:0:
304,161,112066,6,0,L|325:221,2,50,2|2|6,0:0|0:0|0:0,0:0:0:0:
214,116,112684,2,0,L|225:53,1,50,6|6,0:0|0:0,0:0:0:0:
321,38,113148,1,6,0:0:0:0:
502,194,114385,2,0,B|515:244|515:244|508:295|457:338,1,150,6|2,0:0|2:0,0:0:0:0:
420,345,115004,6,0,L|353:332,1,50,6|6,0:0|0:0,0:0:0:0:
299,265,115468,1,6,0:0:0:0:
108,124,116860,2,0,B|94:184|94:184|122:272,1,150,6|2,0:0|2:0,0:0:0:0:
138,315,117478,5,6,0:0:0:0:
138,315,117633,1,6,0:0:0:0:
235,338,117942,1,6,0:0:0:0:
252,239,118251,1,6,0:0:0:0:
348,261,118561,2,0,P|419:270|482:207,1,150,6|8,0:0|0:0,0:0:0:0:
492,123,119334,2,0,L|467:25,1,99.9999999999999,8|8,0:0|0:0,0:0:0:0:
371,54,119952,6,0,L|335:162,1,99.9999999999999,12|8,0:2|0:0,0:0:0:0:
291,161,120416,2,0,P|247:165|189:138,1,99.9999999999999,2|0,0:2|0:0,0:0:0:0:
120,80,121035,1,2,0:2:0:0:
12,184,121499,1,8,0:0:0:0:
44,280,121808,1,2,0:2:0:0:
115,209,122117,1,8,0:0:0:0:
145,305,122427,6,0,B|163:343|163:343|211:372|283:354,2,150,2|2|8,0:2|0:2|0:0,0:0:0:0:
232,254,123664,2,0,P|249:202|235:139,1,99.9999999999999,2|8,0:2|0:0,0:0:0:0:
312,90,124282,2,0,P|338:132|342:181,1,99.9999999999999,2|8,0:2|0:0,0:0:0:0:
316,278,124901,5,4,0:0:0:0:
389,343,125210,1,8,0:0:0:0:
389,343,125365,2,0,B|436:310|436:310|456:206,1,150,2|8,0:2|0:0,0:0:0:0:
398,133,126138,1,2,0:2:0:0:
310,179,126447,2,0,P|252:176|214:148,1,99.9999999999999,8|2,0:0|0:2,0:0:0:0:
154,78,127066,1,8,0:0:0:0:
73,137,127375,6,0,P|36:196|49:278,1,150,2|2,0:2|0:2,0:0:0:0:
181,337,128303,1,8,0:0:0:0:
181,337,128458,2,0,P|229:312|293:317,1,99.9999999999999,2|8,0:2|0:0,0:0:0:0:
310,277,128921,2,0,P|358:304|422:297,2,99.9999999999999,8|8|12,0:0|0:0|0:0,0:0:0:0:
271,184,129849,6,0,L|257:64,1,99.9999999999999,2|8,0:2|0:0,0:0:0:0:
215,61,130313,2,0,B|181:82|181:82|162:160,1,99.9999999999999,2|0,0:2|0:0,0:0:0:0:
145,238,130932,1,2,0:2:0:0:
256,360,131396,1,8,0:0:0:0:
352,344,131705,2,0,L|368:240,1,99.9999999999999,2|8,0:2|0:0,0:0:0:0:
464,232,132324,6,0,B|488:184|488:184|472:80,2,150,2|2|8,0:2|0:2|0:0,0:0:0:0:
367,245,133561,2,0,P|304:224|271:229,1,99.9999999999999,2|8,0:2|0:0,0:0:0:0:
216,144,134179,2,0,P|179:199|175:232,1,99.9999999999999,2|8,0:2|0:0,0:0:0:0:
104,296,134798,5,4,0:0:0:0:
24,232,135107,1,8,0:0:0:0:
24,232,135262,2,0,B|0:192|0:192|8:120,1,99.9999999999999,2|0,0:2|0:0,0:0:0:0:
32,96,135726,1,8,0:0:0:0:
128,64,136035,2,0,L|144:120,1,50,2|0,0:2|0:0,0:0:0:0:
168,152,136344,1,8,0:0:0:0:
256,104,136653,1,2,0:2:0:0:
344,152,136963,1,8,0:0:0:0:
256,200,137272,6,0,L|256:320,2,99.9999999999999,2|8|8,0:2|0:0|0:0,0:0:0:0:
256,104,138200,1,8,0:0:0:0:
352,80,138509,2,0,P|400:48|416:8,1,99.9999999999999,8|8,0:0|0:0,0:0:0:0:
506,52,139128,1,8,0:0:0:0:
483,149,139437,1,8,0:0:0:0:
452,244,139746,6,0,P|402:218|356:220,1,99.9999999999999,4|8,0:0|0:0,0:0:0:0:
316,244,140210,1,0,0:0:0:0:
316,244,140365,2,0,B|284:220|284:220|276:148,1,99.9999999999999,2|8,0:2|0:0,0:0:0:0:
200,96,140983,2,0,P|151:96|108:72,1,99.9999999999999,2|8,0:2|0:0,0:0:0:0:
88,119,141447,1,0,0:0:0:0:
88,119,141602,2,0,L|80:231,1,99.9999999999999,2|8,0:2|0:0,0:0:0:0:
48,312,142220,6,0,P|8:328|-8:344,2,50,2|0|8,0:2|0:0|0:0,0:0:0:0:
144,272,142839,2,0,P|163:234|164:211,2,50,2|0|8,0:2|0:0|0:0,0:0:0:0:
216,344,143458,1,2,0:2:0:0:
312,312,143767,1,8,0:0:0:0:
392,376,144076,2,0,P|413:325|399:260,1,99.9999999999999,2|8,0:2|0:0,0:0:0:0:
358,196,144695,6,0,L|378:83,1,99.9999999999999,2|8,0:2|0:0,0:0:0:0:
345,58,145159,1,0,0:0:0:0:
345,58,145313,2,0,B|305:35|305:35|231:48,1,99.9999999999999,2|8,0:2|0:0,0:0:0:0:
155,69,145932,2,0,P|152:118|124:161,1,99.9999999999999,2|8,0:2|0:0,0:0:0:0:
83,187,146396,1,0,0:0:0:0:
83,187,146550,2,0,B|71:226|71:226|87:287,1,99.9999999999999,2|8,0:2|0:0,0:0:0:0:
174,333,147169,6,0,L|163:382,2,50,2|0|8,0:2|0:0|0:0,0:0:0:0:
252,270,147787,2,0,L|241:222,2,50,2|0|8,0:2|0:0|0:0,0:0:0:0:
345,309,148406,1,2,0:2:0:0:
427,251,148715,2,0,P|443:222|440:144,1,99.9999999999999,8|2,0:0|0:2,0:0:0:0:
432,109,149179,1,0,0:0:0:0:
432,109,149334,1,8,0:0:0:0:
346,60,149643,6,0,B|313:96|313:96|305:169,1,99.9999999999999,4|8,0:0|0:0,0:0:0:0:
264,171,150107,1,0,0:0:0:0:
264,171,150262,2,0,P|211:166|167:191,1,99.9999999999999,2|8,0:2|0:0,0:0:0:0:
137,282,150880,2,0,P|190:287|234:262,1,99.9999999999999,2|8,0:2|0:0,0:0:0:0:
280,267,151344,1,0,0:0:0:0:
280,267,151499,2,0,P|309:305|311:360,1,99.9999999999999,2|8,0:2|0:0,0:0:0:0:
410,380,152117,6,0,L|480:371,2,50,2|0|8,0:2|0:0|0:0,0:0:0:0:
442,286,152736,2,0,L|512:277,2,50,2|0|8,0:2|0:0|0:0,0:0:0:0:
357,235,153354,2,0,B|339:203|339:203|349:137,1,99.9999999999999,2|8,0:2|0:0,0:0:0:0:
285,64,153973,2,0,L|219:75,1,50,2|0,0:2|0:0,0:0:0:0:
186,81,154282,1,8,0:0:0:0:
115,11,154592,6,0,P|89:61|95:117,1,99.9999999999999,4|8,0:0|0:0,0:0:0:0:
108,151,155055,1,0,0:0:0:0:
108,151,155210,2,0,B|148:174|148:174|216:178,1,99.9999999999999,2|8,0:2|0:0,0:0:0:0:
301,159,155829,1,2,0:2:0:0:
368,234,156138,2,0,L|356:291,1,50,8|0,0:0|0:0,0:0:0:0:
347,333,156447,2,0,P|294:327|243:358,1,99.9999999999999,2|8,0:2|0:0,0:0:0:0:
176,288,157066,6,0,L|144:184,1,99.9999999999999,2|8,0:2|0:0,0:0:0:0:
232,136,157684,2,0,L|240:16,1,99.9999999999999,2|8,0:2|0:0,0:0:0:0:
338,17,158303,2,0,P|434:5|485:52,2,150,4|4|8,0:3|0:3|0:0,0:0:0:0:
399,93,159540,6,0,B|416:137|416:137|399:206,1,99.9999999999999,6|10,0:0|0:0,0:0:0:0:
363,218,160004,2,0,L|259:244,1,99.9999999999999,2|2,0:0|0:0,0:0:0:0:
182,185,160622,1,2,0:0:0:0:
113,257,160932,1,2,0:0:0:0:
113,257,161086,2,0,L|102:318,1,50,10|2,0:0|0:0,0:0:0:0:
68,340,161396,2,0,B|21:318|21:318|1:209,1,150,2|0,0:0|0:0,0:0:0:0:
33,187,162014,6,0,P|77:145|88:99,1,99.9999999999999,2|10,0:0|0:0,0:0:0:0:
183,139,162633,2,0,P|228:119|278:123,1,99.9999999999999,2|10,0:0|0:0,0:0:0:0:
323,212,163251,2,0,L|303:273,2,50,2|2|10,0:0|0:0|0:0,0:0:0:0:
420,238,163870,2,0,L|440:299,2,50,2|2|8,0:0|0:0|0:0,0:0:0:0:
481,159,164488,6,0,P|493:93|469:46,1,99.9999999999999,6|10,0:0|0:0,0:0:0:0:
439,39,164952,2,0,B|385:33|385:33|328:59,1,99.9999999999999,2|2,0:0|0:0,0:0:0:0:
259,91,165571,1,2,0:0:0:0:
171,139,165880,1,2,0:0:0:0:
171,139,166035,2,0,L|163:201,1,50,10|2,0:0|0:0,0:0:0:0:
211,209,166344,2,0,B|244:244|244:244|257:350,1,150,2|0,0:0|0:0,0:0:0:0:
210,365,166963,6,0,P|166:370|106:344,1,99.9999999999999,2|10,0:0|0:0,0:0:0:0:
18,377,167581,2,0,P|2:336|12:272,1,99.9999999999999,2|10,0:0|0:0,0:0:0:0:
37,186,168200,1,2,0:0:0:0:
129,227,168509,1,8,0:0:0:0:
219,183,168818,2,0,L|227:122,1,50,2|0,0:0|0:0,0:0:0:0:
236,85,169128,1,8,0:0:0:0:
300,9,169437,6,0,P|332:58|328:119,1,99.9999999999999,6|10,0:0|0:0,0:0:0:0:
318,146,169901,2,0,P|323:196|352:236,1,99.9999999999999,2|2,0:0|0:0,0:0:0:0:
434,294,170519,1,2,0:0:0:0:
343,334,170829,1,2,0:0:0:0:
343,334,170983,2,0,L|332:391,1,50,10|2,0:0|0:0,0:0:0:0:
287,367,171293,2,0,B|246:334|246:334|201:357|144:342,1,150,0|0,0:0|0:0,0:0:0:0:
109,319,171911,6,0,L|81:214,1,99.9999999999999,2|8,0:0|0:0,0:0:0:0:
6,159,172530,2,0,L|34:54,1,99.9999999999999,2|10,0:0|0:0,0:0:0:0:
131,79,173148,2,0,L|148:144,2,50,2|2|10,0:0|0:0|0:0,0:0:0:0:
228,55,173767,2,0,L|245:-10,2,50,2|2|10,0:0|0:0|0:0,0:0:0:0:
309,115,174385,6,0,P|319:166|303:214,1,99.9999999999999,6|10,0:0|0:0,0:0:0:0:
337,250,174849,2,0,B|372:229|372:229|443:246,1,99.9999999999999,2|2,0:0|0:0,0:0:0:0:
504,309,175468,1,2,0:0:0:0:
410,342,175777,1,2,0:0:0:0:
410,342,175932,2,0,L|351:358,1,50,10|2,0:0|0:0,0:0:0:0:
316,335,176241,2,0,P|264:311|207:322,1,99.9999999999999,2|10,0:0|0:0,0:0:0:0:
125,336,176860,6,0,L|115:391,2,50,2|2|10,0:0|0:0|0:0,0:0:0:0:
55,266,177478,2,0,L|65:211,1,50,2|2,0:0|0:0,0:0:0:0:
74,168,177787,1,10,0:0:0:0:
169,141,178097,5,6,0:0:0:0:
256,192,178406,12,4,182162,0:0:0:0:
