osu file format v14

[General]
AudioFilename: stir.mp3
AudioLeadIn: 0
PreviewTime: 139728
Countdown: 0
SampleSet: Normal
StackLeniency: 0.7
Mode: 0
LetterboxInBreaks: 0
WidescreenStoryboard: 0

[Editor]
DistanceSpacing: 1.1
BeatDivisor: 4
GridSize: 8
TimelineZoom: 2.4

[Metadata]
Title:Shunshun Shuugetsu
TitleUnicode:蠢々秋月
Artist:Dark PHOENiX
ArtistUnicode:Dark PHOENiX
Creator:Trust
Version:Lunatic
Source:東方永夜抄 ~ Imperishable Night
Tags:東方Project touhou wriggle nightbug video game instrumental rock Eiyashou Mooned Insect stage 1 boss theme zun Team Shanghai Alice th8 stirring an autumn moon
BeatmapID:2273016
BeatmapSetID:1086990

[Difficulty]
HPDrainRate:7
CircleSize:4
OverallDifficulty:8
ApproachRate:9
SliderMultiplier:1.7
SliderTickRate:1

[Events]
//Background and Video events
0,0,"stirbg.jpg",0,0
//Break Periods
//Storyboard Layer 0 (Background)
//Storyboard Layer 1 (Fail)
//Storyboard Layer 2 (Pass)
//Storyboard Layer 3 (Foreground)
//Storyboard Layer 4 (Overlay)
//Storyboard Sound Samples

[TimingPoints]
1190,309.278350515464,4,1,0,60,1,0
20983,-90.9090909090909,4,1,0,60,0,0
40777,-100,4,1,0,60,0,0
139746,-100,4,1,0,60,0,1
159385,-90.9090909090909,4,1,0,60,0,1
178097,1237.11340206186,4,1,0,60,1,0
179643,355.029585798817,4,1,0,60,1,0
182162,333.333333333333,4,1,0,60,1,0
182995,-100,4,1,0,5,0,0
183078,-100,4,1,0,60,0,0

[Colours]
Combo1 : 183,255,155
Combo2 : 138,117,236
Combo3 : 252,150,88
Combo4 : 255,247,138

[HitObjects]
108,314,1035,5,0,0:2:0:0:
108,314,1112,1,0,0:2:0:0:
108,314,1190,2,0,P|105:225|114:211,1,85,2|0,0:2|0:0,0:0:0:0:
259,220,1499,2,0,P|183:267|166:266,1,85,8|0,0:0|1:0,0:0:0:0:
98,108,1808,2,0,P|143:88|151:189,1,170,2|8,0:2|0:0,0:0:0:0:
84,247,2272,5,0,0:0:0:0:
84,247,2349,1,0,0:0:0:0:
84,247,2427,2,0,L|-4:234,1,85,2|0,0:2|0:0,0:0:0:0:
174,177,2736,2,0,L|187:265,1,85,8|0,0:0|1:0,0:0:0:0:
159,76,3045,1,2,0:2:0:0:
25,160,3200,2,0,B|60:196|60:196|115:158|183:180,1,170
241,103,3664,6,0,P|270:168|264:210,1,85,2|0,0:2|0:0,0:0:0:0:
145,254,3973,2,0,P|151:212|174:176,1,85,8|0,0:0|0:0,0:0:0:0:
174,176,4205,1,0,0:0:0:0:
174,176,4282,1,2,0:2:0:0:
242,253,4437,1,0,1:0:0:0:
332,110,4592,2,0,P|315:52|282:25,1,85,8|0,0:0|0:0,0:0:0:0:
242,253,4901,6,0,P|293:286|345:288,1,85,2|0,0:2|0:0,0:0:0:0:
412,183,5210,1,8,0:0:0:0:
320,191,5365,1,0,0:0:0:0:
448,272,5519,2,0,P|481:245|501:208,1,85,2|0,0:2|0:0,0:0:0:0:
404,61,5829,1,8,0:0:0:0:
313,58,5983,1,0,0:0:0:0:
244,119,6138,6,0,P|215:165|214:219,1,85,2|0,0:2|0:0,0:0:0:0:
368,257,6447,2,0,P|350:218|319:190,1,85,8|0,0:0|0:0,0:0:0:0:
159,297,6757,2,0,P|107:308|16:225,1,170,2|8,0:2|0:0,0:0:0:0:
122,59,7220,5,0,0:0:0:0:
137,71,7298,1,0,0:0:0:0:
151,83,7375,2,0,L|139:172,1,85,2|0,0:2|0:0,0:0:0:0:
213,224,7684,2,0,P|269:189|309:189,1,85,8|0,0:0|0:0,0:0:0:0:
351,117,7994,1,2,0:2:0:0:
350,267,8148,2,0,P|266:246|297:181,1,170
430,290,8612,6,0,L|417:380,1,85,2|0,0:2|0:0,0:0:0:0:
286,186,8921,2,0,L|273:101,1,85,8|0,0:0|0:0,0:0:0:0:
273,101,9153,1,0,0:0:0:0:
273,101,9231,1,2,0:2:0:0:
373,131,9385,1,0,0:0:0:0:
211,251,9540,2,0,B|182:229|182:229|158:156,1,85,8|0,0:0|0:0,0:0:0:0:
310,29,9849,6,0,B|305:65|305:65|254:122,1,85,2|0,0:2|0:0,0:0:0:0:
68,59,10159,2,0,B|101:44|101:44|176:60,2,85,8|0|2,0:0|0:0|0:2,0:0:0:0:
0,11,10622,1,0,0:0:0:0:
136,214,10777,2,0,P|164:156|154:105,1,85,8|0,0:0|0:0,0:0:0:0:
164,137,11009,1,0,0:0:0:0:
164,137,11086,6,2,L|146:45,1,85,4|0,0:0|0:0,0:2:0:0:
308,156,11396,2,2,L|291:239,1,85,8|0,0:0|0:2,0:2:0:0:
241,75,11705,2,2,P|327:56|409:120,1,170,2|8,0:2|0:0,0:2:0:0:
493,229,12169,5,0,0:0:0:0:
479,241,12246,1,0,0:0:0:0:
463,252,12324,2,2,L|446:169,1,85,2|0,0:2|0:0,0:2:0:0:
286,280,12633,2,2,L|302:196,1,85,8|0,0:0|0:2,0:2:0:0:
371,62,12942,2,2,P|276:69|220:7,1,170,2|8,0:2|0:0,0:2:0:0:
225,21,13406,1,0,0:0:0:0:
403,153,13561,6,2,P|402:218|377:254,1,85,2|0,0:2|0:2,0:2:0:0:
242,213,13870,2,0,P|298:181|342:185,1,85,8|0,0:0|0:2,0:0:0:0:
317,180,14102,1,0,0:0:0:0:
317,180,14179,1,2,0:2:0:0:
314,275,14334,1,0,0:0:0:0:
152,220,14488,2,0,P|159:173|183:142,1,85,8|0,0:0|0:2,0:0:0:0:
299,43,14798,6,0,P|254:60|215:55,1,85,2|0,0:2|0:0,0:0:0:0:
138,8,15107,1,8,0:0:0:0:
44,19,15262,1,0,0:0:0:0:
13,138,15416,1,2,0:2:0:0:
105,130,15571,1,0,0:0:0:0:
180,188,15726,2,0,L|165:277,1,85,8|0,0:0|0:0,0:0:0:0:
23,227,16035,6,0,L|8:138,1,85,2|0,0:2|0:2,0:0:0:0:
255,78,16344,2,0,P|239:153|207:179,1,85,8|0,0:0|0:2,0:0:0:0:
154,254,16653,2,0,B|105:227|105:227|83:100,1,170,2|8,0:2|0:0,0:0:0:0:
178,50,17117,1,0,0:0:0:0:
178,50,17195,1,0,0:0:0:0:
178,50,17272,6,0,P|229:57|262:88,1,85,2|0,0:2|0:0,0:0:0:0:
280,250,17581,2,2,P|260:202|270:158,1,85,8|0,0:0|0:2,0:2:0:0:
509,177,17891,2,0,B|440:221|440:221|352:197,1,170,2|8,0:2|0:0,0:0:0:0:
426,117,18354,1,0,0:0:0:0:
509,281,18509,6,0,L|493:379,1,85,2|0,0:2|0:2,0:0:0:0:
280,250,18818,2,0,L|264:152,1,85,8|0,0:0|0:2,0:0:0:0:
266,166,19050,1,0,0:0:0:0:
266,166,19128,1,2,0:2:0:0:
182,221,19282,1,0,0:0:0:0:
340,331,19437,2,0,B|366:309|366:309|379:234,1,85,8|0,0:0|0:0,0:0:0:0:
487,151,19746,6,0,L|543:147,2,42.5,4|8|4,0:3|0:3|0:3,0:0:0:0:
394,158,20055,1,4,0:3:0:0:
344,75,20210,1,4,0:3:0:0:
432,70,20365,1,4,0:3:0:0:
487,151,20519,1,4,0:3:0:0:
447,238,20674,1,4,0:3:0:0:
359,245,20829,1,8,0:0:0:0:
335,248,20906,1,8,0:0:0:0:
309,250,20983,6,2,B|259:212|259:212|233:53,1,187.000005706787,6|10,0:0|0:0,0:0:0:0:
103,0,21447,2,2,B|137:46|137:46|118:173,1,187.000005706787
94,261,21911,1,8,0:0:0:0:
295,211,22066,6,2,B|362:196|362:196|403:225|403:225|481:209,1,187.000005706787
351,375,22530,2,2,B|332:331|332:331|347:267,1,93.5000028533936,10|2,0:0|0:0,0:0:0:0:
317,118,22839,2,2,B|294:114|274:103|274:103|274:128|274:128|210:112|155:142,1,187.000005706787,2|10,0:0|0:0,0:0:0:0:
41,160,23303,5,0,0:0:0:0:
41,160,23380,1,0,0:0:0:0:
41,160,23458,2,2,P|64:108|42:51,1,93.5000028533936
167,22,23767,2,2,P|149:76|157:116,1,93.5000028533936,10|2,0:0|0:0,0:0:0:0:
155,112,23999,1,0,0:0:0:0:
155,112,24076,1,2,0:0:0:0:
76,30,24231,1,2,0:0:0:0:
249,72,24385,2,2,B|265:107|265:107|255:167,1,93.5000028533936,10|2,0:0|0:0,0:0:0:0:
170,296,24695,6,2,L|143:200,1,93.5000028533936
256,162,25004,2,2,L|256:261,1,93.5000028533936,10|2,0:0|0:0,0:0:0:0:
342,296,25313,2,2,L|369:200,1,93.5000028533936
429,316,25622,1,10,0:0:0:0:
286,359,25777,1,0,0:0:0:0:
264,364,25854,1,0,0:0:0:0:
241,368,25932,6,2,B|190:343|161:276|161:276|179:195,1,187.000005706787,6|10,0:0|0:0,0:0:0:0:
326,232,26396,2,2,B|377:207|410:149|410:149|386:60,1,187.000005706787
313,129,26860,1,8,0:0:0:0:
512,187,27014,6,2,L|455:-8,1,187.000005706787
313,129,27478,1,10,0:0:0:0:
394,82,27633,1,2,0:0:0:0:
309,40,27787,2,2,B|266:7|219:24|219:24|211:56|211:56|172:74|159:128,1,187.000005706787,2|10,0:0|0:0,0:0:0:0:
79,231,28251,1,0,0:0:0:0:
79,231,28329,1,0,0:0:0:0:
79,231,28406,6,2,B|55:203|55:203|44:121,1,93.5000028533936
174,257,28715,2,2,B|161:291|161:291|90:342,1,93.5000028533936,10|2,0:0|0:0,0:0:0:0:
114,324,28947,1,0,0:0:0:0:
114,324,29025,1,0,0:0:0:0:
79,231,29179,1,2,0:0:0:0:
254,304,29334,2,2,L|410:290,1,140.25000428009,10|0,0:0|2:0,0:0:0:0:
393,291,29643,6,0,B|415:339|415:339|406:391,1,93.5000028533936,8|0,0:0|0:0,0:0:0:0:
289,225,29952,2,0,B|269:184|269:184|280:120,1,93.5000028533936,8|0,0:0|0:0,0:0:0:0:
483,161,30262,5,8,0:0:0:0:
483,161,30416,1,8,0:0:0:0:
483,161,30571,1,8,0:0:0:0:
321,300,30726,5,8,0:0:0:0:
304,318,30803,1,8,0:0:0:0:
288,335,30880,2,2,P|249:313|259:168,1,187.000005706787,6|10,0:0|0:0,0:0:0:0:
7,177,31344,2,2,P|95:184|145:110,1,187.000005706787
59,105,31808,1,10,0:0:0:0:
242,185,31963,6,2,B|257:117|257:117|228:76|228:76|243:-1,1,187.000005706787
432,44,32427,2,0,L|315:64,1,93.5000028533936,10|0,0:0|0:0,0:0:0:0:
242,185,32736,2,2,B|287:210|287:210|297:244|297:244|340:209|403:213,1,187.000005706787,2|10,0:0|0:0,0:0:0:0:
504,258,33200,5,0,0:0:0:0:
504,258,33277,1,0,0:0:0:0:
504,258,33354,2,2,B|514:304|514:304|490:361,1,93.5000028533936
321,322,33664,2,2,B|362:288|362:288|420:281,1,93.5000028533936,10|2,0:0|0:0,0:0:0:0:
401,283,33896,1,0,0:0:0:0:
401,283,33973,1,2,0:0:0:0:
495,346,34128,1,2,0:0:0:0:
401,283,34282,2,2,L|421:184,1,93.5000028533936,10|2,0:0|0:0,0:0:0:0:
512,150,34592,6,2,L|485:53,1,93.5000028533936
390,91,34901,2,2,L|322:26,1,93.5000028533936,10|2,0:0|0:0,0:0:0:0:
252,95,35210,2,2,L|150:66,1,93.5000028533936
62,42,35519,1,10,0:0:0:0:
79,188,35674,5,0,0:0:0:0:
88,209,35751,1,0,0:0:0:0:
97,230,35829,2,2,B|148:190|148:190|164:48,1,187.000005706787,6|10,0:0|0:0,0:0:0:0:
284,0,36293,2,2,B|342:41|342:41|363:165,1,187.000005706787
444,210,36757,1,10,0:0:0:0:
333,318,36911,6,2,B|299:246|318:192|318:192|370:148,1,187.000005706787
217,244,37375,2,2,L|122:230,1,93.5000028533936,10|2,0:0|0:0,0:0:0:0:
0,332,37684,2,2,B|40:387|109:361|109:361|200:330,1,187.000005706787,2|10,0:0|0:0,0:0:0:0:
217,244,38148,5,0,0:0:0:0:
217,244,38226,1,0,0:0:0:0:
217,244,38303,2,2,B|223:195|223:195|199:139,1,93.5000028533936
34,73,38612,2,2,B|74:107|74:107|135:110,1,93.5000028533936,10|2,0:0|0:0,0:0:0:0:
114,109,38844,1,0,0:0:0:0:
114,109,38921,1,2,0:0:0:0:
215,59,39076,1,2,0:0:0:0:
315,193,39231,2,2,L|300:301,1,93.5000028533936,10|2,0:0|0:0,0:0:0:0:
376,346,39540,5,4,0:3:0:0:
399,338,39617,1,4,0:3:0:0:
418,323,39695,1,4,0:3:0:0:
429,300,39772,1,4,0:3:0:0:
431,275,39849,1,4,0:3:0:0:
424,251,39927,1,4,0:3:0:0:
414,228,40004,1,4,0:3:0:0:
416,203,40081,1,4,0:3:0:0:
424,179,40159,6,0,L|461:130,3,46.7500014266968,4|4|4|4,0:3|0:3|0:3|0:3,0:0:0:0:
389,100,40468,2,0,L|405:46,3,46.7500014266968,4|4|4|4,0:3|0:3|0:3|0:3,0:0:0:0:
309,98,40777,6,0,B|301:141|301:141|233:175|153:128,1,170,4|8,0:0|0:0,0:0:0:0:
90,57,41241,2,0,B|98:14|98:14|166:-20|246:27,1,170,2|0,0:2|0:0,0:0:0:0:
178,141,41705,1,8,0:0:0:0:
63,233,41860,6,0,B|16:194|16:194|0:60,1,170,2|0,0:2|0:0,0:0:0:0:
215,188,42324,2,0,B|222:235|222:235|205:278,1,85,8|0,0:0|0:2,0:0:0:0:
92,113,42633,2,0,B|85:66|85:66|102:23,1,85,2|0,0:2|0:0,0:0:0:0:
319,129,42942,2,0,B|326:176|326:176|309:219,1,85,8|0,0:0|0:0,0:0:0:0:
221,346,43251,6,0,B|206:283|206:283|176:257|176:257|159:187,1,170,2|8,0:2|0:0,0:0:0:0:
335,44,43715,2,0,B|320:108|320:108|289:134|289:134|275:196,1,170,2|0,0:2|0:0,0:0:0:0:
389,264,44179,1,8,0:0:0:0:
474,162,44334,6,0,L|464:118,2,42.5,0|0|2,0:2|0:0|0:2,0:0:0:0:
497,251,44643,1,2,0:2:0:0:
386,355,44798,5,8,0:0:0:0:
402,270,44952,1,0,0:2:0:0:
306,145,45107,2,0,B|289:174|289:174|298:234,1,85,2|0,0:2|0:0,0:0:0:0:
227,384,45416,2,0,B|238:353|238:353|216:284,1,85,8|0,0:0|0:0,0:0:0:0:
99,278,45726,6,0,B|139:222|139:222|107:173|124:111,1,170,4|8,0:0|0:0,0:0:0:0:
0,11,46190,2,0,B|56:51|56:51|112:19|160:35,1,170,2|0,0:2|0:0,0:0:0:0:
248,104,46653,2,0,L|272:200,1,85,8|0,0:0|0:0,0:0:0:0:
400,240,46963,6,0,L|420:157,1,85,2|0,0:2|0:0,0:0:0:0:
268,186,47272,2,0,L|160:216,1,85,8|0,0:0|0:0,0:0:0:0:
420,157,47581,2,0,L|528:187,1,85,2|0,0:2|0:0,0:0:0:0:
427,352,47891,2,0,P|389:292|411:224,1,127.5,8|0,0:0|2:0,0:0:0:0:
399,239,48200,6,0,P|328:296|320:320,1,85,2|0,0:2|0:0,0:0:0:0:
279,370,48509,1,8,0:0:0:0:
184,336,48664,2,0,B|128:288|128:232|128:232|145:179,1,170,2|0,0:2|0:0,0:0:0:0:
224,235,49128,5,8,0:0:0:0:
43,343,49282,1,2,0:2:0:0:
0,242,49437,5,4,0:0:0:0:
94,268,49592,1,4,0:3:0:0:
112,283,49669,1,8,0:3:0:0:
130,299,49746,2,0,P|139:359|118:407,1,85,4|4,0:3|0:3,0:0:0:0:
6,208,50055,2,0,P|-3:148|18:100,1,85,4|4,0:3|0:3,0:0:0:0:
223,105,50365,2,0,P|175:142|123:148,1,85,4|4,0:3|0:3,0:0:0:0:
64,68,50674,6,0,B|125:53|125:53|149:13|149:13|219:-3,1,170,4|8,0:0|0:0,0:0:0:0:
433,117,51138,2,0,B|371:102|371:102|347:62|347:62|277:45,1,170,2|0,0:2|0:0,0:0:0:0:
433,117,51602,1,8,0:0:0:0:
460,216,51757,6,0,B|278:162,1,170,2|0,0:2|0:0,0:0:0:0:
156,196,52220,2,0,B|146:242|146:242|158:280,1,85,8|0,0:0|0:0,0:0:0:0:
294,249,52530,2,0,B|307:206|307:206|296:167,1,85,2|0,0:2|0:0,0:0:0:0:
156,196,52839,2,0,L|34:220,1,85,8|0,0:0|0:0,0:0:0:0:
0,135,53148,6,0,B|-7:59|61:24|61:24|106:45,1,170,2|8,0:2|0:0,0:0:0:0:
232,148,53612,2,0,B|264:163|264:163|332:128|325:52,1,170,2|0,0:2|0:0,0:0:0:0:
117,67,54076,1,8,0:0:0:0:
83,203,54231,5,0,0:2:0:0:
96,221,54308,1,0,0:2:0:0:
109,239,54385,2,0,L|211:224,1,85,2|2,0:2|0:2,0:0:0:0:
340,316,54695,2,0,L|238:301,1,85,8|2,0:0|0:2,0:0:0:0:
193,226,55004,1,2,0:2:0:0:
255,303,55159,1,0,0:0:0:0:
290,213,55313,2,0,L|336:112,1,85,8|0,0:0|0:0,0:0:0:0:
279,5,55622,6,0,B|255:47|255:47|182:34|129:72,1,170,2|8,0:2|0:0,0:0:0:0:
65,207,56086,2,0,B|89:165|89:165|162:178|215:140,1,170,2|0,0:2|0:0,0:0:0:0:
282,96,56550,1,8,0:0:0:0:
364,132,56705,1,0,0:0:0:0:
289,179,56860,5,2,0:2:0:0:
206,145,57014,1,0,0:0:0:0:
134,206,57169,2,0,B|129:250|129:250|146:294,1,85,8|0,0:0|0:0,0:0:0:0:
308,269,57478,2,0,B|272:242|272:242|225:235,1,85,2|0,0:2|0:0,0:0:0:0:
164,380,57787,2,0,B|205:362|205:362|234:325,1,85,8|0,0:0|0:0,0:0:0:0:
204,142,58097,5,2,0:2:0:0:
204,142,58251,1,0,0:0:0:0:
257,65,58406,2,0,B|291:83|291:83|364:71,1,85,8|0,0:0|0:0,0:0:0:0:
147,215,58715,2,0,B|113:197|113:197|40:209,1,85,8|0,0:0|0:0,0:0:0:0:
184,55,59025,1,8,0:0:0:0:
305,93,59179,5,0,0:0:0:0:
327,99,59257,1,0,0:0:0:0:
349,108,59334,2,0,L|369:180,2,42.5,2|0|0,0:2|0:3|0:3,0:0:0:0:
222,342,59643,2,0,P|199:290|211:237,1,85,8|0,0:0|0:0,0:0:0:0:
423,201,59952,2,0,L|537:218,1,85,8|0,0:0|0:0,0:0:0:0:
200,263,60262,2,0,L|115:275,1,85,8|0,0:0|0:0,0:0:0:0:
30,195,60571,6,0,L|9:100,1,85,4|0,0:0|0:0,0:0:0:0:
218,180,60880,2,0,L|199:262,1,85,8|0,0:0|0:0,0:0:0:0:
110,103,61190,2,0,B|187:59|187:59|288:71,1,170,2|8,0:2|0:0,0:0:0:0:
357,160,61653,5,0,0:0:0:0:
357,160,61731,1,0,0:0:0:0:
357,160,61808,2,0,P|345:211|361:274,1,85,2|0,0:2|0:0,0:0:0:0:
499,151,62117,2,0,P|491:93|457:51,1,85,8|0,0:0|0:0,0:0:0:0:
268,69,62427,2,0,B|250:117|250:117|331:114|369:177,1,170,2|8,0:2|0:0,0:0:0:0:
272,220,62891,1,0,0:0:0:0:
155,109,63045,6,0,L|187:26,1,85,2|0,0:2|0:0,0:0:0:0:
118,193,63354,1,8,0:0:0:0:
186,256,63509,1,0,0:0:0:0:
204,270,63586,1,0,0:0:0:0:
221,285,63664,2,0,B|252:260|252:260|283:194,1,85,2|0,0:2|0:0,0:0:0:0:
99,297,63973,2,0,B|105:336|105:336|146:396,1,85,8|0,0:0|0:0,0:0:0:0:
39,213,64282,5,2,0:2:0:0:
127,185,64437,1,0,0:0:0:0:
261,138,64592,1,8,0:0:0:0:
169,121,64746,1,0,0:0:0:0:
221,296,64901,2,0,B|266:223|266:223|261:133,1,170,2|8,0:2|0:0,0:0:0:0:
352,261,65365,1,0,0:0:0:0:
169,121,65519,6,0,L|161:21,1,85,2|0,0:2|0:0,0:0:0:0:
361,96,65829,2,0,L|354:180,1,85,8|0,0:0|0:0,0:0:0:0:
220,293,66138,2,0,B|170:250|170:250|160:140,1,170,2|8,0:2|0:0,0:0:0:0:
226,44,66602,5,0,0:0:0:0:
237,26,66679,1,0,0:0:0:0:
251,6,66757,2,0,P|280:53|273:103,1,85,2|0,0:2|0:0,0:0:0:0:
160,146,67066,2,0,P|131:99|138:49,1,85,8|0,0:0|0:0,0:0:0:0:
353,149,67375,2,0,B|335:202|335:202|265:201|229:262,1,170,2|8,0:2|0:0,0:0:0:0:
325,300,67839,1,0,0:0:0:0:
353,149,67994,6,0,B|326:41,1,85,2|0,0:2|0:0,0:0:0:0:
427,263,68303,2,0,B|466:160,1,85,8|0,0:0|0:0,0:0:0:0:
457,183,68535,1,0,0:0:0:0:
457,183,68612,1,2,0:2:0:0:
353,149,68767,1,0,0:0:0:0:
442,99,68921,2,0,P|436:37|403:-5,1,85,8|0,0:0|0:0,0:0:0:0:
277,188,69231,6,0,L|371:138,1,85,2|0,0:2|0:0,0:0:0:0:
167,66,69540,2,0,L|179:150,1,85,8|0,0:0|0:0,0:0:0:0:
318,273,69849,2,0,B|277:293|277:293|150:255,1,170,2|8,0:2|0:0,0:0:0:0:
318,273,70313,1,0,0:0:0:0:
149,352,70468,6,0,L|65:387,1,85,2|0,0:2|0:0,0:0:0:0:
157,257,70777,2,0,L|122:173,1,85,8|0,0:0|0:0,0:0:0:0:
61,52,71086,2,0,B|44:113|44:113|101:64|175:88,1,170,2|8,0:2|0:0,0:0:0:0:
287,156,71550,5,0,0:0:0:0:
276,175,71628,1,0,0:0:0:0:
264,195,71705,2,0,P|237:143|251:88,1,85,2|0,0:2|0:0,0:0:0:0:
380,17,72014,2,0,P|348:66|293:81,1,85,8|0,0:0|0:0,0:0:0:0:
142,166,72324,2,0,B|109:219|142:286|142:286|199:299,1,170,2|8,0:2|0:0,0:0:0:0:
231,377,72787,1,0,0:0:0:0:
325,286,72942,6,0,B|343:313|343:313|336:373,1,85,2|0,0:2|0:0,0:0:0:0:
413,248,73251,2,0,B|395:221|395:221|402:161,1,85,8|0,0:0|0:0,0:0:0:0:
401,168,73483,1,0,0:0:0:0:
401,168,73561,1,2,0:2:0:0:
497,208,73715,1,0,0:0:0:0:
325,286,73870,2,0,L|230:273,1,85,8|0,0:0|0:0,0:0:0:0:
81,363,74179,6,0,P|131:352|160:323,1,85,2|0,0:2|0:0,0:0:0:0:
165,145,74488,2,0,P|149:193|160:233,1,85,8|0,0:0|0:0,0:0:0:0:
325,286,74798,2,0,B|355:197|288:197|331:87,1,170,2|8,0:2|0:0,0:0:0:0:
419,150,75262,1,0,0:0:0:0:
232,240,75416,6,0,P|190:246|151:231,1,85,2|0,0:2|0:0,0:0:0:0:
106,142,75726,2,0,L|129:28,1,85,8|0,0:0|0:0,0:0:0:0:
7,166,76035,2,0,L|41:-1,1,170,2|8,0:2|0:0,0:0:0:0:
208,12,76499,5,0,0:0:0:0:
224,26,76576,1,0,0:0:0:0:
242,40,76653,2,0,B|265:81|265:81|260:152,1,85,2|0,0:2|0:0,0:0:0:0:
137,250,76963,2,0,B|161:209|161:209|224:178,1,85,8|0,0:0|0:0,0:0:0:0:
340,225,77272,2,0,B|328:284|328:284|354:322|354:322|341:384,1,170,2|8,0:2|0:0,0:0:0:0:
247,343,77736,1,0,0:0:0:0:
427,247,77891,6,0,L|446:156,1,85,2|0,0:2|0:0,0:0:0:0:
291,74,78200,2,0,L|273:157,1,85,8|0,0:0|0:0,0:0:0:0:
272,157,78432,1,0,0:0:0:0:
272,157,78509,1,2,0:2:0:0:
186,79,78664,1,0,0:0:0:0:
339,0,78818,2,0,B|370:21|370:21|385:83,1,85,8|0,0:0|0:0,0:0:0:0:
453,130,79128,5,4,0:3:0:0:
438,149,79205,1,4,0:3:0:0:
426,171,79282,1,4,0:3:0:0:
421,194,79360,1,4,0:3:0:0:
425,218,79437,1,4,0:3:0:0:
438,239,79514,1,4,0:3:0:0:
453,259,79592,5,4,0:3:0:0:
429,252,79669,1,4,0:3:0:0:
407,239,79746,1,4,0:3:0:0:
382,233,79824,1,4,0:3:0:0:
357,235,79901,1,4,0:3:0:0:
334,245,79978,1,4,0:3:0:0:
312,256,80055,2,0,L|294:314,1,42.5,4|4,0:3|0:3,0:0:0:0:
240,221,80210,2,0,L|227:180,1,42.5,4|4,0:3|0:3,0:0:0:0:
171,276,80365,6,0,P|114:274|73:247,1,85,4|0,0:0|0:0,0:0:0:0:
119,170,80674,2,0,B|106:109|106:109|77:90|77:90|65:18,1,170,10|0,0:0|0:0,0:0:0:0:
294,69,81138,2,0,B|282:141|282:141|253:160|253:160|240:221,1,170,2|0,0:0|0:0,0:0:0:0:
388,337,81602,6,0,B|441:294|425:237|425:237|402:153,1,170,2|8,0:0|0:0,0:0:0:0:
184,305,82066,2,0,B|130:262|146:205|146:205|169:121,1,170,2|0,0:0|0:0,0:0:0:0:
249,111,82530,1,10,0:0:0:0:
324,169,82684,1,2,0:0:0:0:
161,152,82839,6,2,B|142:88|142:88|186:-24,1,170,2|10,0:0|0:0,0:0:0:0:
59,128,83303,2,2,B|78:192|78:192|34:304,1,170
194,228,83767,2,2,P|239:221|289:242,1,85,10|2,0:0|0:0,0:0:0:0:
408,330,84076,6,2,P|385:273|418:159,1,170,2|10,0:0|0:0,0:0:0:0:
276,73,84540,2,2,P|299:130|266:244,1,170
132,343,85004,2,2,L|150:240,1,85,10|2,0:0|0:0,0:0:0:0:
33,169,85313,6,2,L|47:252,1,85,2|2,0:2|0:2,0:2:0:0:
146,259,85622,2,0,P|210:273|237:305,1,85,8|0,0:0|0:0,0:0:0:0:
150,355,85932,1,2,0:2:0:0:
71,201,86086,2,0,P|126:165|167:169,1,85,2|8,0:0|0:0,0:0:0:0:
225,117,86396,1,0,0:0:0:0:
73,81,86550,6,0,P|77:21|174:33,1,170,2|8,0:0|0:0,0:0:0:0:
225,117,87014,2,0,P|300:132|325:55,1,170,2|0,0:0|0:0,0:0:0:0:
416,155,87478,2,2,L|404:248,1,85,8|0,0:0|0:0,0:0:0:0:
491,300,87787,2,2,L|516:99,1,170,2|10,0:0|0:0,0:0:0:0:
288,203,88251,6,2,L|309:371,1,170
405,239,88715,2,2,L|416:155,1,85,8|0,0:0|0:0,0:0:0:0:
271,44,89025,2,2,B|249:96|249:96|291:210,1,170,2|10,0:0|0:0,0:0:0:0:
119,355,89488,2,2,B|164:320|164:320|184:201,1,170
82,246,89952,1,8,0:0:0:0:
264,352,90107,6,2,B|326:339|326:339|364:365|364:365|435:351,1,170,6|2,0:0|0:0,0:0:0:0:
241,244,90571,2,10,B|179:231|179:231|141:257|141:257|70:243,1,170,10|2,0:0|0:0,0:0:0:0:
120,160,91035,1,2,0:0:0:0:
208,328,91190,1,8,0:0:0:0:
336,256,91344,6,2,B|390:185|337:166|375:92,1,170
208,200,91808,2,2,B|153:129|206:110|168:36,1,170,10|2,0:0|0:2,0:0:0:0:
46,99,92272,1,2,0:0:0:0:
101,310,92581,6,2,B|156:325|156:325|213:341|256:288,1,170
309,183,93045,2,2,B|352:130|409:146|409:146|493:169,1,170,10|2,0:0|0:2,0:0:0:0:
463,160,93509,1,2,0:0:0:0:
160,280,93818,6,2,B|143:219|78:208|78:208|135:175,1,170
211,137,94282,1,10,0:0:0:0:
388,355,94592,1,2,0:0:0:0:
452,290,94746,1,2,0:0:0:0:
412,205,94901,1,8,0:0:0:0:
274,261,95055,6,2,P|270:207|301:89,1,170,6|2,0:0|0:0,0:0:0:0:
487,181,95519,2,2,P|491:127|460:9,1,170,10|2,0:0|0:2,0:0:0:0:
382,133,95983,2,2,P|335:151|291:149,1,85,2|10,0:0|0:0,0:0:0:0:
211,37,96293,6,2,B|271:6|271:6|323:0|367:33,1,170
132,0,96757,2,2,P|122:42|127:84,1,85,10|2,0:0|0:0,0:0:0:0:
229,239,97066,1,2,0:0:0:0:
152,292,97220,1,0,0:0:0:0:
144,202,97375,1,8,0:0:0:0:
313,274,97530,6,2,B|353:237|353:237|370:99,1,170
268,146,97994,1,8,0:0:0:0:
175,170,98148,2,2,P|159:88|191:11,1,170
268,146,98612,1,8,0:0:0:0:
91,212,98767,6,2,B|51:235|51:235|90:300|191:280,1,170,0|0,0:0|0:0,0:0:0:0:
259,260,99231,2,2,B|313:266|340:226|340:226|331:276|365:319,1,170,10|2,0:0|0:0,0:0:0:0:
432,248,99695,5,10,0:0:0:0:
264,176,99849,1,10,0:0:0:0:
479,332,100004,6,2,P|526:244|492:173,1,170,6|2,0:0|0:0,0:0:0:0:
345,148,100468,2,2,P|323:68|368:0,1,170,10|2,0:0|0:0,0:0:0:0:
433,244,100932,1,10,0:0:0:0:
512,100,101086,1,8,0:0:0:0:
345,148,101241,6,2,B|285:136|285:136|247:162|247:162|185:149,1,170
316,232,101705,1,8,0:0:0:0:
292,5,102014,1,2,0:0:0:0:
219,67,102169,2,2,L|130:49,1,85,2|8,0:0|0:0,0:0:0:0:
19,206,102478,6,2,P|84:151|186:192,1,170
253,294,102942,2,2,P|342:310|404:256,1,170,10|2,0:0|0:0,0:0:0:0:
491,310,103406,2,2,P|500:286|544:226,1,85,10|10,0:0|0:0,0:0:0:0:
401,264,103715,6,2,B|353:233|343:164|343:164|359:107,1,170
494,6,104179,2,2,B|507:54|507:54|497:123|449:154,1,170,10|2,0:0|0:0,0:0:0:0:
356,115,104643,1,2,0:0:0:0:
434,63,104798,1,8,0:0:0:0:
512,223,104952,6,2,B|475:270|475:270|413:234|340:262,1,170,6|2,0:0|0:0,0:0:0:0:
254,374,105416,2,2,B|291:329|291:329|348:366|421:336,1,170,10|2,0:0|0:0,0:0:0:0:
512,223,105880,1,2,0:0:0:0:
224,186,106190,6,2,B|217:133|174:104|174:104|166:40|215:13,1,170
127,189,106653,2,2,P|75:221|30:230,1,85,10|2,0:0|0:0,0:0:0:0:
268,73,106963,2,2,P|327:84|375:115,1,85
70,114,107272,2,2,P|16:84|-14:50,1,85,10|2,0:0|0:0,0:0:0:0:
291,164,107581,6,2,P|318:218|315:339,1,170,2|10,0:0|0:0,0:0:0:0:
153,377,108045,2,0,P|148:292|181:215,1,170,2|2,0:0|0:0,0:0:0:0:
319,325,108664,1,2,0:0:0:0:
319,325,108818,6,0,P|371:350|396:376,1,85,8|0,0:0|0:0,0:0:0:0:
439,166,109128,2,0,P|415:200|380:224,1,85,8|0,0:0|0:0,0:0:0:0:
132,224,109437,2,0,P|97:200|73:166,1,85,8|0,0:0|0:0,0:0:0:0:
193,325,109746,2,0,P|141:350|116:376,1,85,8|0,0:0|0:0,0:0:0:0:
256,240,110055,5,4,0:0:0:0:
256,240,110365,1,4,0:0:0:0:
120,184,112066,5,2,0:0:0:0:
256,256,112220,1,2,0:0:0:0:
392,184,112375,1,6,0:0:0:0:
320,368,112684,5,6,0:0:0:0:
192,368,112839,1,6,0:0:0:0:
256,77,113148,1,6,0:0:0:0:
200,88,114385,2,4,B|272:80|304:144|304:144|248:184|256:272,1,255,6|2,0:0|2:0,0:0:0:0:
255,256,115004,5,6,0:0:0:0:
152,168,115159,1,6,0:0:0:0:
445,259,115468,1,6,0:0:0:0:
8,312,116860,6,6,B|16:232|72:200|72:200|104:272|184:264,1,255,6|2,0:0|2:0,0:0:0:0:
168,160,117478,5,6,0:0:0:0:
104,376,117633,1,6,0:0:0:0:
356,292,117942,1,6,0:0:0:0:
165,264,118251,1,6,0:0:0:0:
309,117,118561,6,2,B|358:105|399:136|399:136|438:104|447:58,1,170,6|2,0:0|0:0,0:0:0:0:
337,209,119025,2,0,P|339:255|373:301,1,85,8|0,0:0|0:0,0:0:0:0:
507,246,119334,2,0,P|466:224|409:231,1,85,8|0,0:0|0:0,0:0:0:0:
390,376,119643,2,0,P|428:351|451:298,1,85,8|8,0:0|0:0,0:0:0:0:
447,318,119875,1,8,0:0:0:0:
447,318,119952,6,0,L|470:130,1,170,12|8,0:2|0:0,0:0:0:0:
272,26,120416,2,0,L|292:194,1,170,2|0,0:2|0:0,0:0:0:0:
292,194,120880,1,8,0:0:0:0:
248,305,121035,6,0,B|200:253|200:253|187:136,1,170,2|0,0:2|0:0,0:0:0:0:
110,86,121499,2,0,P|69:110|41:147,1,85,8|0,0:0|0:0,0:0:0:0:
261,94,121808,2,0,P|284:52|290:6,1,85,2|0,0:2|0:0,0:0:0:0:
137,171,122117,2,0,P|137:218|155:261,1,85,8|0,0:0|0:0,0:0:0:0:
224,320,122427,6,0,B|256:281|241:222|241:222|312:278,1,170,2|8,0:2|0:0,0:0:0:0:
285,148,122891,2,0,B|338:190|338:190|323:131|354:92,1,170,2|0,0:2|0:0,0:0:0:0:
433,155,123354,1,8,0:0:0:0:
338,190,123509,5,2,0:2:0:0:
317,196,123586,1,2,0:2:0:0:
296,203,123664,2,0,P|288:254|307:298,1,85,2|2,0:2|0:2,0:0:0:0:
204,384,123973,2,0,P|212:333|193:289,1,85,8|2,0:0|0:2,0:0:0:0:
40,292,124282,1,2,0:2:0:0:
118,345,124437,1,0,0:0:0:0:
201,302,124592,2,0,L|212:214,1,85,8|0,0:0|0:0,0:0:0:0:
262,109,124901,6,0,B|310:145|310:145|335:269,1,170,4|8,0:0|0:0,0:0:0:0:
412,352,125365,2,0,B|460:316|460:316|485:192,1,170,2|0,0:2|0:0,0:0:0:0:
331,252,125829,2,0,B|295:282|243:284|243:284|156:243,1,170,8|2,0:0|0:2,0:0:0:0:
30,143,126293,5,0,0:0:0:0:
30,143,126447,2,0,P|85:111|119:110,1,85,8|0,0:0|0:0,0:0:0:0:
172,249,126757,2,0,P|116:217|98:188,1,85,2|0,0:2|0:0,0:0:0:0:
200,73,127066,2,0,P|200:136|184:166,1,85,8|0,0:0|0:0,0:0:0:0:
7,295,127375,6,0,B|-24:347|-24:347|40:325|112:364,1,170,2|8,0:2|0:0,0:0:0:0:
168,304,127839,2,0,B|211:329|275:307|275:307|244:359,1,170,2|0,0:2|0:0,0:0:0:0:
351,369,128303,1,8,0:0:0:0:
316,197,128458,1,2,0:2:0:0:
421,306,128612,5,4,0:0:0:0:
351,369,128767,1,8,0:0:0:0:
328,340,128844,1,8,0:0:0:0:
328,304,128921,1,8,0:0:0:0:
484,280,129076,1,8,0:0:0:0:
457,305,129153,1,8,0:0:0:0:
421,306,129231,1,8,0:0:0:0:
316,197,129385,1,8,0:0:0:0:
445,100,129540,2,0,L|423:210,1,85,12|2,0:0|0:2,0:0:0:0:
263,112,129849,6,0,L|246:28,1,85,2|0,0:2|0:0,0:0:0:0:
352,57,130159,1,8,0:0:0:0:
215,201,130313,2,0,B|169:167|169:167|144:31,1,170,2|0,0:2|0:0,0:0:0:0:
263,112,130777,1,8,0:0:0:0:
91,238,130932,6,0,B|137:272|137:272|162:408,1,170,2|0,0:2|0:0,0:0:0:0:
263,323,131396,2,0,L|343:272,1,85,8|0,0:0|0:0,0:0:0:0:
91,238,131705,2,0,L|21:189,1,85,2|0,0:2|0:0,0:0:0:0:
248,201,132014,2,0,L|289:121,1,85,8|0,0:0|0:0,0:0:0:0:
128,0,132324,6,0,L|158:186,1,170,2|8,0:2|0:0,0:0:0:0:
324,265,132787,2,0,B|370:281|370:281|433:236|408:142,1,170,2|0,0:2|0:0,0:0:0:0:
414,174,133251,1,8,0:0:0:0:
324,265,133406,5,2,0:2:0:0:
307,252,133483,1,2,0:2:0:0:
290,240,133561,2,0,B|281:201|281:201|305:141,1,85,2|2,0:2|0:2,0:0:0:0:
449,59,133870,2,0,B|419:86|419:86|355:95,1,85,8|2,0:0|0:2,0:0:0:0:
241,27,134179,1,2,0:2:0:0:
271,116,134334,1,0,0:0:0:0:
198,180,134488,2,0,P|126:152|90:150,1,85,8|0,0:0|0:0,0:0:0:0:
0,148,134798,6,0,P|28:91|-17:-7,1,170,4|8,0:0|0:0,0:0:0:0:
118,151,135262,2,0,P|90:208|135:306,1,170,2|0,0:2|0:0,0:0:0:0:
306,369,135726,2,0,L|321:255,1,85,8|0,0:0|0:0,0:0:0:0:
232,195,136035,6,0,L|220:279,1,85,2|0,0:2|0:0,0:0:0:0:
422,309,136344,2,0,P|460:236|432:158,2,170,8|2|8,0:0|0:2|0:0,0:0:0:0:
229,199,137272,5,2,0:2:0:0:
229,199,137427,1,0,0:0:0:0:
289,134,137581,2,0,P|318:190|310:237,1,85,8|0,0:0|0:0,0:0:0:0:
142,177,137891,2,0,P|175:123|220:107,1,85,8|0,0:0|0:0,0:0:0:0:
255,288,138200,2,0,P|192:285|155:254,1,85,8|0,0:0|0:0,0:0:0:0:
174,274,138432,1,0,0:0:0:0:
174,274,138509,6,0,L|189:215,2,42.5,8|8|8,0:0|0:0|0:0,0:0:0:0:
358,248,138818,1,8,0:0:0:0:
335,166,138973,1,4,0:3:0:0:
139,165,139128,1,8,0:0:0:0:
154,82,139282,1,4,0:3:0:0:
388,83,139437,1,8,0:0:0:0:
365,1,139592,1,4,0:3:0:0:
244,139,139746,6,0,P|244:196|272:237,1,85,4|0,0:0|0:0,0:0:0:0:
414,175,140055,2,0,B|384:157|384:157|319:168,1,85,8|0,0:0|0:0,0:0:0:0:
183,278,140365,2,0,B|146:313|146:313|71:276|89:199,1,170,2|8,0:2|0:0,0:0:0:0:
119,76,140829,5,0,0:0:0:0:
140,81,140906,1,0,0:0:0:0:
161,87,140983,2,0,P|179:138|170:178,1,85,2|0,0:2|0:0,0:0:0:0:
86,220,141293,2,0,L|-4:202,1,85,8|0,0:0|0:0,0:0:0:0:
174,167,141602,2,0,B|197:186|197:186|212:261,2,85,2|0|8,0:2|0:0|0:0,0:0:0:0:
36,96,142066,1,0,0:0:0:0:
159,0,142220,6,0,P|186:43|183:95,1,85,2|0,0:2|0:0,0:0:0:0:
315,170,142530,2,0,P|288:127|291:75,1,85,8|0,0:0|0:0,0:0:0:0:
286,93,142762,1,0,0:0:0:0:
286,93,142839,1,2,0:2:0:0:
208,187,142994,1,0,0:0:0:0:
379,103,143148,2,0,L|480:116,1,85,8|0,0:0|0:0,0:0:0:0:
308,0,143458,6,0,L|223:10,1,85,2|0,0:2|0:0,0:0:0:0:
88,55,143767,2,0,P|141:92|175:137,1,85,8|0,0:0|0:0,0:0:0:0:
20,288,144076,2,0,P|2:233|66:144,1,170,2|8,0:2|0:0,0:0:0:0:
106,237,144540,1,0,0:0:0:0:
211,303,144695,6,0,P|263:294|305:268,1,85,2|0,0:2|0:0,0:0:0:0:
163,176,145004,2,0,P|122:209|99:253,1,85,8|0,0:0|0:0,0:0:0:0:
363,335,145313,2,0,P|381:280|317:191,1,170,2|8,0:2|0:0,0:0:0:0:
217,88,145777,5,0,0:0:0:0:
217,88,145854,1,0,0:0:0:0:
217,88,145932,2,0,L|202:-15,1,85,2|0,0:2|0:0,0:0:0:0:
334,108,146241,2,0,L|321:192,1,85,8|0,0:0|0:0,0:0:0:0:
71,125,146550,2,0,P|118:80|225:94,1,170,2|8,0:2|0:0,0:0:0:0:
157,163,147014,1,0,0:0:0:0:
6,79,147169,6,0,P|9:37|38:-9,1,85,2|0,0:2|0:0,0:0:0:0:
217,88,147478,2,0,P|182:64|156:16,1,85,8|0,0:0|0:0,0:0:0:0:
160,28,147710,1,0,0:0:0:0:
160,28,147787,1,2,0:2:0:0:
254,0,147942,1,0,0:0:0:0:
362,112,148097,2,0,B|343:139|343:139|281:155,1,85,8|0,0:0|0:0,0:0:0:0:
108,132,148406,6,0,B|140:134|140:134|185:180,1,85,2|0,0:2|0:0,0:0:0:0:
252,336,148715,2,0,B|238:306|238:306|255:244,1,85,8|0,0:0|0:0,0:0:0:0:
361,209,149025,2,0,L|330:320,1,85,2|0,0:2|0:0,0:0:0:0:
252,336,149334,1,8,0:0:0:0:
161,290,149488,1,0,0:0:0:0:
338,290,149643,6,4,L|461:290,1,85,4|0,0:0|0:0,0:0:0:0:
251,208,149952,2,0,L|166:208,1,85,8|0,0:0|0:0,0:0:0:0:
361,209,150262,2,0,B|393:128|393:128|356:27,1,170,2|8,0:2|0:0,0:0:0:0:
166,132,150726,5,0,0:0:0:0:
150,149,150803,1,0,0:0:0:0:
133,165,150880,2,0,B|119:123|119:123|134:84,1,85,2|0,0:2|0:0,0:0:0:0:
290,84,151190,2,0,B|303:126|303:126|289:165,1,85,8|0,0:0|0:0,0:0:0:0:
57,199,151499,2,0,B|28:121|28:121|60:40,1,170,2|8,0:2|0:0,0:0:0:0:
289,164,151963,1,0,0:0:0:0:
203,100,152117,6,0,P|205:48|232:10,1,85,2|0,0:2|0:0,0:0:0:0:
368,60,152427,2,0,P|321:84|275:79,1,85,8|0,0:0|0:0,0:0:0:0:
289,83,152659,1,0,0:0:0:0:
289,83,152736,1,2,0:2:0:0:
221,20,152891,1,0,0:0:0:0:
368,60,153045,2,0,L|467:87,1,85,8|0,0:0|0:0,0:0:0:0:
267,154,153354,6,0,L|202:99,1,85,2|0,0:2|0:0,0:0:0:0:
409,165,153664,2,0,L|444:242,1,85,8|0,0:0|0:0,0:0:0:0:
128,167,153973,2,0,P|103:103|152:13,1,170,2|8,0:2|0:0,0:0:0:0:
202,99,154437,1,0,0:0:0:0:
179,248,154592,6,0,P|124:280|74:293,1,85,4|0,0:0|0:0,0:0:0:0:
128,167,154901,2,0,P|68:145|26:115,1,85,8|0,0:0|0:0,0:0:0:0:
250,179,155210,2,0,B|290:236|264:294|264:294|314:269,1,170,2|8,0:2|0:0,0:0:0:0:
410,234,155674,5,0,0:0:0:0:
432,240,155751,1,0,0:0:0:0:
454,247,155829,2,0,P|458:297|422:346,1,85,2|0,0:2|0:0,0:0:0:0:
253,374,156138,2,0,P|249:324|285:275,1,85,8|0,0:0|0:0,0:0:0:0:
353,184,156447,2,0,B|399:138|399:138|384:18,1,170,2|8,0:2|0:0,0:0:0:0:
303,107,156911,1,0,0:0:0:0:
485,84,157066,6,0,L|476:-3,1,85,2|0,0:2|0:0,0:0:0:0:
303,107,157375,2,0,L|311:191,1,85,8|0,0:0|0:0,0:0:0:0:
311,191,157607,1,0,0:0:0:0:
311,191,157684,1,2,0:2:0:0:
402,142,157839,1,0,0:0:0:0:
211,7,157994,2,0,B|203:53|203:53|228:113,1,85,8|0,0:0|0:0,0:0:0:0:
174,239,158303,6,4,L|201:206,1,42.5,4|4,0:3|0:3,0:3:0:0:
100,265,158458,2,4,L|58:259,1,42.5,4|4,0:3|0:3,0:3:0:0:
160,313,158612,2,4,L|176:353,1,42.5,4|4,0:3|0:3,0:3:0:0:
115,191,158767,6,4,L|90:127,1,42.5,4|4,0:3|0:3,0:3:0:0:
89,341,158921,2,4,L|62:374,1,42.5,4|4,0:3|0:3,0:3:0:0:
235,288,159076,2,4,L|277:294,1,42.5,4|4,0:3|0:3,0:3:0:0:
100,265,159231,5,8,0:0:0:0:
325,360,159385,2,0,P|378:341|384:341,1,46.7500014266968
379,257,159540,6,2,B|390:214|361:174|361:174|378:125|450:123,1,187.000005706787,6|10,0:0|0:0,0:0:0:0:
264,156,160004,2,2,B|254:198|283:238|283:238|263:282|200:284,1,187.000005706787
280,359,160468,1,8,0:0:0:0:
171,197,160622,6,2,P|162:109|211:6,1,187.000005706787
324,152,161086,2,2,P|334:193|363:240,1,93.5000028533936,10|2,0:0|0:0,0:0:0:0:
506,180,161396,2,2,B|493:150|504:121|504:121|478:122|478:122|493:60|447:10,1,187.000005706787,2|8,0:0|0:0,0:0:0:0:
332,3,161860,5,0,0:0:0:0:
332,3,161937,1,0,0:0:0:0:
332,3,162014,2,0,B|315:37|315:37|329:104,1,93.5000028533936,2|0,0:0|0:0,0:0:0:0:
228,164,162324,2,2,B|245:130|245:130|233:56,1,93.5000028533936,10|2,0:0|0:0,0:0:0:0:
236,75,162555,1,0,0:0:0:0:
236,75,162633,1,2,0:0:0:0:
308,222,162787,1,2,0:0:0:0:
147,97,162942,2,2,L|133:1,1,93.5000028533936,10|2,0:0|0:0,0:0:0:0:
81,221,163251,6,2,P|64:272|69:320,1,93.5000028533936
239,332,163561,2,2,P|187:312|163:283,1,93.5000028533936,10|2,0:0|0:0,0:0:0:0:
261,240,163870,2,2,P|320:224|351:195,1,93.5000028533936
389,133,164179,1,8,0:0:0:0:
275,323,164334,5,0,0:0:0:0:
252,327,164411,1,0,0:0:0:0:
228,329,164488,2,2,P|184:295|212:160,1,187.000005706787,6|10,0:0|0:0,0:0:0:0:
384,138,164952,2,2,P|372:193|247:235,1,187.000005706787
291,147,165416,1,8,0:0:0:0:
450,238,165571,6,2,B|497:201|497:201|467:131|507:66,1,187.000005706787
359,10,166035,2,2,P|385:61|376:123,1,93.5000028533936,10|2,0:0|0:0,0:0:0:0:
197,185,166344,2,2,B|182:140|198:99|198:99|260:113|310:67,1,187.000005706787,2|10,0:0|0:0,0:0:0:0:
229,12,166808,5,0,0:0:0:0:
229,12,166885,1,0,0:0:0:0:
229,12,166963,2,2,P|165:9|126:-14,1,93.5000028533936
202,116,167272,2,2,P|269:113|301:92,1,93.5000028533936,10|2,0:0|0:0,0:0:0:0:
290,100,167504,1,0,0:0:0:0:
290,100,167581,1,2,0:0:0:0:
329,11,167736,1,2,0:0:0:0:
133,44,167891,2,2,P|106:111|109:156,1,93.5000028533936,10|2,0:0|0:0,0:0:0:0:
200,307,168200,6,2,L|234:192,1,93.5000028533936,2|0,0:0|0:0,0:0:0:0:
453,149,168509,2,0,L|426:246,1,93.5000028533936,8|0,0:0|0:0,0:0:0:0:
331,380,168818,2,0,P|304:313|307:268,1,93.5000028533936,2|0,0:0|0:0,0:0:0:0:
387,120,169128,1,8,0:0:0:0:
240,234,169282,5,0,0:0:0:0:
232,256,169360,1,0,0:0:0:0:
221,276,169437,2,2,P|132:296|55:221,1,187.000005706787,6|10,0:0|0:0,0:0:0:0:
69,97,169901,2,2,P|139:41|228:62,1,187.000005706787
163,145,170365,1,10,0:0:0:0:
299,192,170519,6,2,B|373:208|373:208|404:246|404:246|479:263,1,187.000005706787
260,341,170983,2,2,L|159:364,1,93.5000028533936,10|2,0:0|0:0,0:0:0:0:
105,194,171293,2,2,B|139:176|150:147|150:147|175:168|175:168|212:126|270:130,1,187.000005706787,0|8,0:0|0:0,0:0:0:0:
395,161,171757,5,0,0:0:0:0:
395,161,171834,1,0,0:0:0:0:
395,161,171911,2,2,P|405:210|431:252,1,93.5000028533936,2|0,0:0|0:0,0:0:0:0:
281,226,172220,2,2,P|231:204|177:209,1,93.5000028533936,8|2,0:0|0:0,0:0:0:0:
193,205,172452,1,0,0:0:0:0:
193,205,172530,1,2,0:0:0:0:
132,288,172684,1,2,0:0:0:0:
281,226,172839,2,2,P|299:164|288:111,1,93.5000028533936,10|2,0:0|0:0,0:0:0:0:
178,8,173148,6,2,L|207:114,1,93.5000028533936
425,203,173458,2,2,L|451:105,1,93.5000028533936,10|2,0:0|0:0,0:0:0:0:
377,0,173767,2,2,P|356:61|365:111,1,93.5000028533936
492,256,174076,1,10,0:0:0:0:
360,251,174231,5,0,0:0:0:0:
343,266,174308,1,0,0:0:0:0:
326,283,174385,2,2,P|274:248|281:127,1,187.000005706787,6|10,0:0|0:0,0:0:0:0:
114,0,174849,2,2,P|166:35|157:152,1,187.000005706787
106,231,175313,1,10,0:0:0:0:
267,148,175468,6,2,B|358:122|355:191|468:147,1,187.000005706787
400,72,175932,2,2,P|379:19|391:-34,1,93.5000028533936,10|2,0:0|0:0,0:0:0:0:
308,233,176241,2,2,P|329:282|317:336,2,93.5000028533936,2|2|10,0:0|0:0|0:0,0:0:0:0:
115,283,176705,5,0,0:0:0:0:
130,300,176782,1,0,0:0:0:0:
146,317,176860,2,2,L|251:287,1,93.5000028533936
422,358,177169,2,2,L|314:328,1,93.5000028533936,10|2,0:0|0:0,0:0:0:0:
332,333,177401,1,0,0:0:0:0:
332,333,177478,1,2,0:0:0:0:
228,375,177633,1,2,0:0:0:0:
355,252,177787,1,10,0:0:0:0:
193,222,177942,1,0,0:0:0:0:
224,244,178019,1,0,0:0:0:0:
257,242,178097,6,0,B|271:207|271:207|248:172|248:172|240:124|278:68,1,170,6|4,0:0|0:0,0:0:0:0:
342,20,179643,1,4,0:0:0:0:
139,87,179998,1,4,0:0:0:0:
383,131,180353,1,4,0:0:0:0:
106,197,180708,1,4,0:0:0:0:
106,197,180885,1,4,0:0:0:0:
256,192,180974,12,4,182162,0:0:0:0:
256,192,182245,12,0,182995,0:0:0:0:
192,231,183078,6,4,L|205:284,3,42.5,4|4|4|4,0:3|0:3|0:3|0:3,0:3:0:0:
