osu file format v14

[General]
AudioFilename: stir.mp3
AudioLeadIn: 0
PreviewTime: 139728
Countdown: 0
SampleSet: Normal
StackLeniency: 0.7
Mode: 0
LetterboxInBreaks: 0
WidescreenStoryboard: 1

[Editor]
DistanceSpacing: 1.16
BeatDivisor: 4
GridSize: 8
TimelineZoom: 2

[Metadata]
Title:Shunshun Shuugetsu
TitleUnicode:蠢々秋月
Artist:Dark PHOENiX
ArtistUnicode:Dark PHOENiX
Creator:Trust
Version:Hard
Source:東方永夜抄 ~ Imperishable Night
Tags:東方Project touhou wriggle nightbug video game instrumental rock Eiyashou Mooned Insect stage 1 boss theme zun Team Shanghai Alice th8 stirring an autumn moon
BeatmapID:2275189
BeatmapSetID:1086990

[Difficulty]
HPDrainRate:5
CircleSize:4
OverallDifficulty:6
ApproachRate:8
SliderMultiplier:1.3
SliderTickRate:1

[Events]
//Background and Video events
0,0,"stirbg.jpg",0,0
//Break Periods
2,40977,49924
//Storyboard Layer 0 (Background)
//Storyboard Layer 1 (Fail)
//Storyboard Layer 2 (Pass)
//Storyboard Layer 3 (Foreground)
//Storyboard Layer 4 (Overlay)
//Storyboard Sound Samples

[TimingPoints]
1190,309.278350515464,4,1,0,60,1,0
139746,-100,4,1,0,60,0,1
178097,1237.11340206186,4,1,0,60,1,0
179643,355.029585798817,4,1,0,60,1,0
182162,333.333333333333,4,1,0,60,1,0
182995,-100,4,1,0,5,0,0
183078,-100,4,1,0,60,0,0

[Colours]
Combo1 : 183,255,155
Combo2 : 138,117,236
Combo3 : 252,150,88
Combo4 : 255,247,138

[HitObjects]
237,232,1035,5,0,0:2:0:0:
237,232,1112,1,0,0:2:0:0:
237,232,1190,2,0,P|263:275|269:316,1,65,2|0,0:2|0:0,0:0:0:0:
341,290,1499,2,0,P|328:338|304:372,1,65,8|0,0:0|1:0,0:0:0:0:
252,384,1808,2,0,L|104:361,1,130,2|8,0:2|0:0,0:0:0:0:
77,303,2272,5,0,0:0:0:0:
77,303,2349,1,0,0:0:0:0:
77,303,2427,2,0,P|86:249|109:219,1,65,2|0,0:2|0:0,0:0:0:0:
30,195,2736,2,0,P|74:163|112:158,1,65,8|0,0:0|1:0,0:0:0:0:
152,192,3045,2,0,P|199:218|295:191,1,130,2|8,0:2|0:0,0:0:0:0:
370,96,3664,6,0,L|380:15,1,65,2|0,0:2|0:0,0:0:0:0:
446,111,3973,2,0,L|438:175,1,65,8|0,0:0|0:0,0:0:0:0:
438,175,4205,1,0,0:0:0:0:
438,175,4282,1,2,0:2:0:0:
489,239,4437,1,0,1:0:0:0:
361,203,4592,2,0,B|350:234|350:234|355:290,1,65,8|0,0:0|0:0,0:0:0:0:
299,324,4901,6,0,B|213:345,1,65,2|0,0:2|0:0,0:0:0:0:
155,245,5210,2,0,B|218:260,1,65,8|0,0:0|0:0,0:0:0:0:
355,383,5519,2,0,P|376:342|338:254,1,130,2|8,0:2|0:0,0:0:0:0:
206,115,6138,6,0,P|237:93|274:85,1,65,2|0,0:2|0:0,0:0:0:0:
180,187,6447,2,0,P|145:171|120:143,1,65,8|0,0:0|0:0,0:0:0:0:
259,178,6757,2,0,P|265:247|244:312,1,130,2|8,0:2|0:0,0:0:0:0:
177,338,7220,5,0,0:0:0:0:
177,338,7298,1,0,0:0:0:0:
177,338,7375,2,0,L|153:257,1,65,2|0,0:2|0:0,0:0:0:0:
87,253,7684,2,0,L|111:172,1,65,8|0,0:0|0:0,0:0:0:0:
55,133,7994,2,0,P|103:113|175:157,1,130,2|8,0:2|0:0,0:0:0:0:
287,237,8612,6,0,L|361:216,1,65,2|0,0:2|0:0,0:0:0:0:
335,300,8921,2,0,L|261:321,1,65,8|0,0:0|0:0,0:0:0:0:
349,219,9231,2,0,P|388:240|412:279,2,65,2|0|8,0:2|0:0|0:0,0:0:0:0:
306,155,9695,1,0,0:0:0:0:
382,149,9849,6,0,P|405:126|419:97,1,65,2|0,0:2|0:0,0:0:0:0:
340,81,10159,2,0,P|309:70|285:49,1,65,8|0,0:0|0:0,0:0:0:0:
223,4,10468,2,0,B|189:32|189:32|174:123,1,130,2|8,0:2|0:0,0:0:0:0:
121,171,10932,5,0,0:0:0:0:
121,171,11009,1,0,0:0:0:0:
121,171,11086,2,0,L|59:130,1,65,4|0,0:0|0:0,0:0:0:0:
175,116,11396,2,0,L|247:105,1,65,8|0,0:0|0:2,0:0:0:0:
201,192,11705,2,0,L|128:327,1,130,2|8,0:2|0:0,0:0:0:0:
203,358,12169,5,0,0:0:0:0:
203,358,12246,1,0,0:0:0:0:
203,358,12324,2,0,L|284:348,1,65,2|0,0:2|0:0,0:0:0:0:
326,299,12633,2,0,L|407:309,1,65,8|0,0:0|0:2,0:0:0:0:
280,236,12942,2,0,P|265:177|298:100,1,130,2|8,0:2|0:0,0:0:0:0:
416,47,13561,6,0,P|385:62|325:56,1,65,2|0,0:2|0:2,0:0:0:0:
286,113,13870,2,0,P|310:133|341:143,1,65,8|0,0:0|0:2,0:0:0:0:
341,143,14102,1,0,0:0:0:0:
341,143,14179,1,2,0:2:0:0:
354,64,14334,1,0,0:0:0:0:
279,36,14488,2,0,L|194:51,1,65,8|0,0:0|0:2,0:0:0:0:
151,0,14798,6,0,P|123:42|117:75,1,65,2|0,0:2|0:0,0:0:0:0:
247,102,15107,2,0,P|224:56|199:35,1,65,8|0,0:0|0:0,0:0:0:0:
53,104,15416,2,0,P|90:132|171:113,1,130,2|8,0:2|0:0,0:0:0:0:
337,103,16035,6,0,P|350:146|346:180,1,65,2|0,0:2|0:2,0:0:0:0:
425,180,16344,2,0,P|403:219|376:240,1,65,8|0,0:0|0:2,0:0:0:0:
319,257,16653,2,0,L|169:232,1,130,2|8,0:2|0:0,0:0:0:0:
115,268,17117,5,0,0:0:0:0:
115,268,17195,1,0,0:0:0:0:
115,268,17272,2,0,L|95:352,1,65,2|0,0:2|0:0,0:0:0:0:
190,235,17581,2,0,L|174:171,1,65,8|0,0:0|0:2,0:0:0:0:
104,144,17891,2,0,P|88:115|119:23,1,130,2|8,0:2|0:0,0:0:0:0:
257,86,18509,6,0,P|297:68|321:37,1,65,2|0,0:2|0:2,0:0:0:0:
392,10,18818,2,0,P|387:53|402:89,1,65,8|0,0:0|0:2,0:0:0:0:
402,93,19050,1,0,0:0:0:0:
402,93,19128,2,0,L|478:83,1,65,2|0,0:2|0:0,0:0:0:0:
392,169,19437,2,0,L|316:159,1,65,8|0,0:0|0:0,0:0:0:0:
265,117,19746,6,0,L|257:86,2,32.5,4|8|4,0:3|0:3|0:3,0:0:0:0:
203,165,20055,1,4,0:3:0:0:
203,165,20210,1,4,0:3:0:0:
131,204,20365,2,0,P|121:169|133:122,1,65,4|4,0:3|0:3,0:0:0:0:
199,246,20674,2,0,P|173:272|126:285,1,65,4|8,0:3|0:0,0:0:0:0:
128,290,20906,1,8,0:0:0:0:
128,290,20983,6,0,L|-4:271,1,130,6|10,0:0|0:0,0:0:0:0:
79,384,21447,2,0,L|207:365,1,130,2|2,0:0|0:0,0:0:0:0:
255,302,21911,1,8,0:0:0:0:
199,246,22066,6,0,B|184:207|184:207|197:106,1,130,2|2,0:0|0:0,0:0:0:0:
271,134,22530,2,0,L|261:216,1,65,10|2,0:0|0:0,0:0:0:0:
106,213,22839,2,0,L|121:83,1,130,2|10,0:0|0:0,0:0:0:0:
185,32,23303,5,0,0:0:0:0:
185,32,23380,1,0,0:0:0:0:
185,32,23458,2,0,P|243:22|264:8,1,65,2|2,0:0|0:0,0:0:0:0:
121,83,23767,2,0,P|63:73|42:59,1,65,10|2,0:0|0:0,0:0:0:0:
34,57,23999,1,0,0:0:0:0:
34,57,24076,1,2,0:0:0:0:
106,0,24231,1,2,0:0:0:0:
121,83,24385,2,0,L|135:170,1,65,10|2,0:0|0:0,0:0:0:0:
188,203,24695,6,0,P|211:153|206:119,1,65,2|2,0:0|0:0,0:0:0:0:
131,147,25004,2,0,P|108:197|113:231,1,65,10|2,0:0|0:0,0:0:0:0:
198,267,25313,2,0,L|187:202,1,65,2|2,0:0|0:0,0:0:0:0:
273,217,25622,1,10,0:0:0:0:
339,162,25777,5,0,0:0:0:0:
339,162,25854,1,0,0:0:0:0:
339,162,25932,2,0,P|358:213|327:287,1,130,6|10,0:0|0:0,0:0:0:0:
452,370,26396,2,0,P|433:319|464:245,1,130,2|2,0:0|0:0,0:0:0:0:
512,193,26860,1,8,0:0:0:0:
437,176,27014,6,0,B|409:144|409:144|420:41,1,130,2|2,0:0|0:0,0:0:0:0:
494,56,27478,2,0,L|487:133,1,65,10|2,0:0|0:0,0:0:0:0:
363,212,27787,2,0,B|335:244|335:244|346:347,1,130,2|10,0:0|0:0,0:0:0:0:
276,369,28251,5,0,0:0:0:0:
276,369,28329,1,0,0:0:0:0:
276,369,28406,2,0,P|230:351|209:323,1,65,2|2,0:0|0:0,0:0:0:0:
156,384,28715,2,0,P|136:338|141:304,1,65,10|2,0:0|0:0,0:0:0:0:
136,324,28947,1,0,0:0:0:0:
136,324,29025,1,0,0:0:0:0:
196,265,29179,1,2,0:0:0:0:
118,246,29334,2,0,L|106:175,1,65,10|0,0:0|0:0,0:0:0:0:
199,97,29643,6,0,L|188:161,1,65,8|0,0:0|0:0,0:0:0:0:
278,250,29952,2,0,L|267:185,1,65,8|0,0:0|0:0,0:0:0:0:
356,208,30262,1,8,0:0:0:0:
356,208,30416,1,8,0:0:0:0:
356,208,30571,1,8,0:0:0:0:
424,254,30726,5,8,0:0:0:0:
424,254,30803,1,8,0:0:0:0:
424,254,30880,2,0,P|437:201|400:136,1,130,6|10,0:0|0:0,0:0:0:0:
244,168,31344,2,0,P|283:205|358:206,1,130,2|2,0:0|0:0,0:0:0:0:
319,131,31808,1,10,0:0:0:0:
244,168,31963,6,0,L|210:321,1,130,2|2,0:0|0:0,0:0:0:0:
283,345,32427,2,0,L|377:334,1,65,10|0,0:0|0:0,0:0:0:0:
215,294,32736,2,0,L|60:312,1,130,2|10,0:0|0:0,0:0:0:0:
24,236,33200,5,0,0:0:0:0:
24,236,33277,1,0,0:0:0:0:
24,236,33354,2,0,P|23:198|47:157,1,65,2|2,0:0|0:0,0:0:0:0:
164,195,33664,2,0,P|131:214|84:214,1,65,10|2,0:0|0:0,0:0:0:0:
105,218,33896,1,0,0:0:0:0:
105,218,33973,1,2,0:0:0:0:
103,139,34128,1,2,0:0:0:0:
180,118,34282,2,0,L|197:56,1,65,10|2,0:0|0:0,0:0:0:0:
302,167,34592,6,0,L|285:104,1,65,2|2,0:0|0:0,0:0:0:0:
197,56,34901,2,0,L|128:66,1,65,10|2,0:0|0:0,0:0:0:0:
285,104,35210,2,0,L|349:113,1,65,2|2,0:0|0:0,0:0:0:0:
211,192,35519,2,0,L|194:254,1,65,10|0,0:0|0:0,0:0:0:0:
222,293,35751,1,0,0:0:0:0:
222,293,35829,6,0,P|280:276|369:273,1,130,6|10,0:0|0:0,0:0:0:0:
436,183,36293,2,0,P|371:179|308:161,1,130,2|2,0:0|0:0,0:0:0:0:
245,112,36757,1,10,0:0:0:0:
289,47,36911,6,0,P|325:115|300:170,1,130,2|2,0:0|0:0,0:0:0:0:
250,215,37375,2,0,L|259:286,1,65,10|2,0:0|0:0,0:0:0:0:
184,328,37684,2,0,L|167:195,1,130,2|10,0:0|0:0,0:0:0:0:
105,145,38148,5,0,0:0:0:0:
105,145,38226,1,0,0:0:0:0:
105,145,38303,2,0,B|72:158|72:158|18:149,1,65,2|2,0:0|0:0,0:0:0:0:
167,199,38612,2,0,B|200:186|200:186|254:195,1,65,10|2,0:0|0:0,0:0:0:0:
229,190,38844,1,0,0:0:0:0:
229,190,38921,1,2,0:0:0:0:
310,211,39076,1,2,0:0:0:0:
374,162,39231,1,10,0:0:0:0:
271,38,39540,5,4,0:3:0:0:
256,192,39695,12,4,40777,0:0:0:0:
227,238,50674,6,0,B|206:203|204:162|204:162|233:88,1,130,4|8,0:0|0:0,0:0:0:0:
293,165,51138,2,0,B|311:211|311:211|309:252|288:287,1,130,2|0,0:2|0:0,0:0:0:0:
226,237,51602,1,8,0:0:0:0:
226,237,51757,6,0,P|159:234|97:272,1,130,2|0,0:2|0:0,0:0:0:0:
46,315,52220,2,0,L|33:387,1,65,8|0,0:0|0:0,0:0:0:0:
105,263,52530,2,0,L|93:199,1,65,2|0,0:2|0:0,0:0:0:0:
167,314,52839,2,0,L|178:377,1,65,8|0,0:0|0:0,0:0:0:0:
259,360,53148,6,0,P|293:297|275:237,1,130,2|8,0:2|0:0,0:0:0:0:
215,192,53612,2,0,P|202:129|235:75,1,130,2|0,0:2|0:0,0:0:0:0:
287,144,54076,1,8,0:0:0:0:
214,191,54231,5,0,0:2:0:0:
214,191,54308,1,0,0:2:0:0:
214,191,54385,2,0,L|137:179,1,65,2|2,0:2|0:2,0:0:0:0:
75,143,54695,2,0,P|111:110|145:102,1,65,8|2,0:0|0:2,0:0:0:0:
149,180,55004,2,0,P|113:213|79:221,1,65,2|0,0:2|0:0,0:0:0:0:
21,200,55313,1,8,0:0:0:0:
90,319,55622,6,0,B|114:353|114:353|157:307|221:311,1,130,2|8,0:2|0:0,0:0:0:0:
247,369,56086,2,0,P|268:327|230:243,1,130,2|0,0:2|0:0,0:0:0:0:
164,237,56550,2,0,L|152:152,1,65,8|0,0:0|0:0,0:0:0:0:
220,129,56860,5,2,0:2:0:0:
290,164,57014,1,0,0:0:0:0:
361,126,57169,2,0,L|373:41,1,65,8|0,0:0|0:0,0:0:0:0:
430,165,57478,2,0,P|401:195|358:206,1,65,2|0,0:2|0:0,0:0:0:0:
361,126,57787,2,0,P|390:96|433:85,1,65,8|0,0:0|0:0,0:0:0:0:
503,209,58097,6,0,L|490:294,1,65,2|0,0:2|0:0,0:0:0:0:
430,319,58406,1,8,0:0:0:0:
355,331,58561,1,0,0:0:0:0:
296,276,58715,1,8,0:0:0:0:
221,288,58870,1,0,0:0:0:0:
170,228,59025,6,0,P|130:217|86:234,1,65,8|0,0:0|0:0,0:0:0:0:
87,259,59257,1,0,0:0:0:0:
87,259,59334,2,0,L|97:303,2,32.5,2|0|0,0:2|0:3|0:3,0:0:0:0:
32,198,59643,2,0,P|17:159|21:120,1,65,8|0,0:0|0:0,0:0:0:0:
133,93,59952,2,0,P|111:117|100:148,1,65,8|0,0:0|0:0,0:0:0:0:
186,163,60262,2,0,P|215:149|247:148,1,65,8|0,0:0|0:0,0:0:0:0:
318,189,60571,6,0,L|337:268,1,65,4|0,0:0|0:0,0:0:0:0:
387,151,60880,2,0,L|406:72,1,65,8|0,0:0|0:0,0:0:0:0:
346,28,61190,2,0,P|297:16|208:46,1,130,2|8,0:2|0:0,0:0:0:0:
150,91,61653,5,0,0:0:0:0:
150,91,61731,1,0,0:0:0:0:
150,91,61808,2,0,P|95:75|80:61,1,65,2|0,0:2|0:0,0:0:0:0:
6,73,62117,2,0,P|14:104|34:129,1,65,8|0,0:0|0:0,0:0:0:0:
96,184,62427,2,0,P|120:247|86:317,1,130,2|8,0:2|0:0,0:0:0:0:
259,244,63045,6,0,L|337:209,1,65,2|0,0:2|0:0,0:0:0:0:
402,177,63354,2,0,L|393:262,1,65,8|0,0:0|0:0,0:0:0:0:
395,241,63586,1,0,0:0:0:0:
395,241,63664,1,2,0:2:0:0:
481,217,63818,1,0,0:0:0:0:
401,176,63973,2,0,P|400:119|411:94,1,65,8|0,0:0|0:0,0:0:0:0:
368,35,64282,6,0,P|341:53|322:79,1,65,2|0,0:2|0:0,0:0:0:0:
258,126,64592,2,0,P|231:107|212:81,1,65,8|0,0:0|0:0,0:0:0:0:
167,12,64901,2,0,P|137:51|152:138,1,130,2|8,0:2|0:0,0:0:0:0:
88,253,65519,6,0,L|4:266,1,65,2|0,0:2|0:0,0:0:0:0:
134,320,65829,2,0,L|218:333,1,65,8|0,0:0|0:0,0:0:0:0:
253,269,66138,2,0,P|359:270|380:291,1,130,2|8,0:2|0:0,0:0:0:0:
455,322,66602,5,0,0:0:0:0:
455,322,66679,1,0,0:0:0:0:
455,322,66757,2,0,P|492:281|500:257,1,65,2|0,0:2|0:0,0:0:0:0:
386,219,67066,2,0,P|371:279|376:304,1,65,8|0,0:0|0:0,0:0:0:0:
297,323,67375,2,0,B|256:294|256:294|238:188,1,130,2|8,0:2|0:0,0:0:0:0:
181,83,67994,6,0,L|170:147,1,65,2|0,0:2|0:0,0:0:0:0:
101,67,68303,2,0,L|90:2,1,65,8|0,0:0|0:0,0:0:0:0:
90,2,68535,1,0,0:0:0:0:
90,2,68612,1,2,0:2:0:0:
19,54,68767,1,0,0:0:0:0:
181,83,68921,2,0,L|258:97,1,65,8|0,0:0|0:0,0:0:0:0:
290,28,69231,6,0,P|318:61|324:92,1,65,2|0,0:2|0:0,0:0:0:0:
215,150,69540,2,0,P|229:109|253:88,1,65,8|0,0:0|0:0,0:0:0:0:
365,160,69849,2,0,P|322:167|292:157,2,65,2|0|8,0:2|0:0|0:0,0:0:0:0:
482,29,70468,6,0,L|515:107,1,65,2|0,0:2|0:0,0:0:0:0:
448,144,70777,2,0,L|451:226,1,65,8|0,0:0|0:0,0:0:0:0:
384,259,71086,2,0,B|350:303|290:284|290:284|249:270,1,130,2|8,0:2|0:0,0:0:0:0:
183,279,71550,5,0,0:0:0:0:
183,279,71628,1,0,0:0:0:0:
183,279,71705,2,0,P|204:216|213:207,1,65,2|0,0:2|0:0,0:0:0:0:
266,276,72014,2,0,P|244:338|235:347,1,65,8|0,0:0|0:0,0:0:0:0:
167,357,72324,2,0,L|12:322,1,130,2|8,0:2|0:0,0:0:0:0:
122,201,72942,6,0,L|193:189,1,65,2|0,0:2|0:0,0:0:0:0:
217,117,73251,2,0,L|288:129,1,65,8|0,0:0|0:0,0:0:0:0:
308,133,73483,1,0,0:0:0:0:
308,133,73561,2,0,P|327:96|325:51,1,65,2|0,0:2|0:0,0:0:0:0:
378,170,73870,2,0,P|358:206|360:251,1,65,8|0,0:0|0:0,0:0:0:0:
479,277,74179,6,0,P|457:241|417:221,1,65,2|0,0:2|0:0,0:0:0:0:
334,312,74488,2,0,P|375:310|413:286,1,65,8|0,0:0|0:0,0:0:0:0:
438,228,74798,2,0,L|463:86,1,130,2|8,0:2|0:0,0:0:0:0:
315,189,75416,6,0,P|267:212|232:212,1,65,2|0,0:2|0:0,0:0:0:0:
253,132,75726,2,0,P|202:114|178:89,1,65,8|0,0:0|0:0,0:0:0:0:
165,33,76035,2,0,P|123:70|130:153,1,130,2|8,0:2|0:0,0:0:0:0:
69,203,76499,5,0,0:0:0:0:
69,203,76576,1,0,0:0:0:0:
69,203,76653,2,0,P|28:218|1:236,1,65,2|0,0:2|0:0,0:0:0:0:
122,140,76963,2,0,P|163:155|190:173,1,65,8|0,0:0|0:0,0:0:0:0:
209,240,77272,2,0,P|251:203|244:120,1,130,2|8,0:2|0:0,0:0:0:0:
376,47,77891,6,0,L|448:69,1,65,2|0,0:2|0:0,0:0:0:0:
437,147,78200,2,0,L|365:125,1,65,8|0,0:0|0:0,0:0:0:0:
347,119,78432,1,0,0:0:0:0:
347,119,78509,2,0,P|325:168|331:205,1,65,2|0,0:2|0:0,0:0:0:0:
227,210,78818,2,0,P|249:161|243:124,1,65,8|0,0:0|0:0,0:0:0:0:
256,192,79128,12,4,80055,0:3:0:0:
261,174,80365,6,0,P|193:188|179:200,1,65,4|0,0:0|0:0,0:0:0:0:
122,219,80674,2,0,P|54:205|40:193,2,65,10|0|0,0:0|0:0|0:0,0:0:0:0:
193,269,81138,2,0,P|214:334|211:353,2,65,2|0|0,0:0|0:0|0:0,0:0:0:0:
122,219,81602,6,0,B|86:174|104:136|104:136|122:91,1,130,2|8,0:0|0:0,0:0:0:0:
201,120,82066,2,0,B|237:75|219:37|219:37|201:-8,1,130,2|0,0:0|0:0,0:0:0:0:
292,0,82530,2,0,L|321:70,1,65,10|2,0:0|0:0,0:0:0:0:
367,121,82839,6,0,P|408:89|501:104,1,130,2|10,0:0|0:0,0:0:0:0:
509,168,83303,2,0,P|468:200|375:185,1,130,2|2,0:0|0:0,0:0:0:0:
313,178,83767,2,0,P|289:215|283:253,1,65,10|2,0:0|0:0,0:0:0:0:
210,301,84076,6,0,B|176:266|176:266|164:161,1,130,2|10,0:0|0:0,0:0:0:0:
102,121,84540,2,0,B|65:153|65:153|44:256,1,130,2|2,0:0|0:0,0:0:0:0:
102,298,85004,1,10,0:0:0:0:
102,298,85159,1,2,0:0:0:0:
175,249,85313,6,0,L|166:183,1,65,2|2,0:2|0:2,0:0:0:0:
244,150,85622,2,0,L|252:85,2,65,8|0|2,0:0|0:0|0:2,0:0:0:0:
311,202,86086,2,0,P|352:219|390:216,2,65,2|8|0,0:0|0:0|0:0,0:0:0:0:
243,149,86550,6,0,P|185:122|121:114,1,130,2|8,0:0|0:0,0:0:0:0:
121,35,87014,2,0,P|185:27|243:0,1,130,2|0,0:0|0:0,0:0:0:0:
323,18,87478,2,0,L|336:89,1,65,8|0,0:0|0:0,0:0:0:0:
414,109,87787,6,0,L|400:185,1,65,2|0,0:0|0:0,0:0:0:0:
382,253,88097,1,10,0:0:0:0:
453,210,88251,2,0,P|432:187|397:171,1,65,2|0,0:0|0:0,0:0:0:0:
321,191,88561,1,2,0:0:0:0:
300,270,88715,2,0,P|279:293|244:309,1,65,8|0,0:0|0:0,0:0:0:0:
196,371,89025,6,0,P|167:312|187:252,1,130,2|10,0:0|0:0,0:0:0:0:
248,307,89488,2,0,P|189:335|129:316,1,130,2|2,0:0|0:0,0:0:0:0:
69,261,89952,1,8,0:0:0:0:
152,184,90107,6,0,B|159:128|159:128|147:102|147:102|153:55,1,130,6|2,0:0|0:0,0:0:0:0:
224,8,90571,1,10,0:0:0:0:
368,88,90880,2,0,L|440:80,1,65,2|2,0:0|0:0,0:0:0:0:
339,217,91344,6,0,B|307:177|307:177|215:166,1,130,2|2,0:0|0:0,0:0:0:0:
148,158,91808,1,10,0:0:0:0:
55,301,92117,1,2,0:2:0:0:
136,292,92272,1,2,0:0:0:0:
228,167,92581,6,0,B|209:117|229:80|229:80|208:37,1,130,2|2,0:0|0:0,0:0:0:0:
136,84,93045,1,10,0:0:0:0:
308,126,93354,2,0,P|341:126|385:95,1,65,2|2,0:2|0:0,0:0:0:0:
228,167,93818,6,0,P|207:219|239:310,1,130,2|2,0:0|0:0,0:0:0:0:
309,306,94282,1,10,0:0:0:0:
156,365,94592,1,2,0:0:0:0:
69,348,94746,1,2,0:0:0:0:
4,196,95055,6,0,B|43:224|43:224|150:206,1,130,6|2,0:0|0:0,0:0:0:0:
210,188,95519,1,10,0:0:0:0:
351,269,95829,2,0,L|369:356,1,65,2|2,0:2|0:0,0:0:0:0:
470,220,96293,6,0,B|477:164|477:164|465:138|465:138|471:91,1,130,2|2,0:0|0:0,0:0:0:0:
481,11,96757,1,10,0:0:0:0:
322,74,97066,1,2,0:0:0:0:
333,156,97220,1,0,0:0:0:0:
167,195,97530,6,0,P|121:189|55:250,1,130,2|2,0:0|0:0,0:0:0:0:
58,238,97994,1,8,0:0:0:0:
134,268,98148,2,0,P|116:310|158:390,1,130,2|2,0:0|0:0,0:0:0:0:
197,319,98612,1,8,0:0:0:0:
273,294,98767,6,0,B|303:252|303:252|290:161,1,130,0|0,0:0|0:0,0:0:0:0:
210,162,99231,2,0,L|221:242,1,65,10|0,0:0|0:0,0:0:0:0:
385,256,99540,2,0,L|375:191,1,65,2|10,0:0|0:0,0:0:0:0:
460,207,99849,1,10,0:0:0:0:
385,256,100004,6,0,B|355:298|355:298|368:389,1,130,6|2,0:0|0:0,0:0:0:0:
277,359,100468,1,10,0:0:0:0:
385,256,100777,1,2,0:0:0:0:
474,272,100932,1,10,0:0:0:0:
353,168,101241,6,0,P|334:120|370:48,1,130,2|2,0:0|0:0,0:0:0:0:
432,4,101705,1,8,0:0:0:0:
512,138,102014,2,0,L|497:217,1,65,2|2,0:0|0:0,0:0:0:0:
353,294,102478,6,0,B|346:238|346:238|358:212|358:212|352:165,1,130,2|2,0:0|0:0,0:0:0:0:
339,85,102942,1,10,0:0:0:0:
184,30,103251,1,2,0:0:0:0:
171,112,103406,1,10,0:0:0:0:
20,177,103715,6,0,P|3:237|33:294,1,130,2|2,0:0|0:0,0:0:0:0:
85,229,104179,2,0,P|114:216|147:213,1,65,10|0,0:0|0:0,0:0:0:0:
243,304,104488,2,0,P|210:300|181:287,1,65,2|2,0:0|0:0,0:0:0:0:
146,213,104798,1,8,0:0:0:0:
207,159,104952,6,0,P|224:98|194:42,1,130,6|2,0:0|0:0,0:0:0:0:
124,0,105416,1,10,0:0:0:0:
31,132,105726,2,0,L|40:204,1,65,2|2,0:0|0:0,0:0:0:0:
176,294,106190,6,0,B|212:255|212:255|223:163,1,130,2|2,0:0|0:0,0:0:0:0:
303,199,106653,2,0,L|371:183,1,65,10|2,0:0|0:0,0:0:0:0:
221,178,106963,2,0,L|157:163,1,65,2|2,0:0|0:0,0:0:0:0:
100,105,107272,1,10,0:0:0:0:
155,46,107427,1,2,0:0:0:0:
155,46,107581,6,0,P|181:101|146:172,1,130,2|10,0:0|0:0,0:0:0:0:
102,221,108045,2,0,P|76:166|111:95,1,130,2|2,0:0|0:0,0:0:0:0:
252,40,108664,5,2,0:0:0:0:
329,79,108818,2,0,L|340:161,1,65,8|0,0:0|0:0,0:0:0:0:
243,182,109128,2,0,L|251:117,1,65,8|0,0:0|0:0,0:0:0:0:
337,143,109437,2,0,P|394:157|421:150,1,65,8|0,0:0|0:0,0:0:0:0:
251,117,109746,2,0,P|218:117|188:130,1,65,8|0,0:0|0:0,0:0:0:0:
112,179,110055,5,4,0:0:0:0:
112,179,110365,1,4,0:0:0:0:
247,275,112066,2,0,P|292:261|328:267,1,65,2|2,0:0|0:0,0:0:0:0:
356,315,112375,6,0,P|308:252|328:184,1,130,6|6,0:0|0:0,0:0:0:0:
389,239,112839,1,6,0:0:0:0:
274,360,113148,1,6,0:0:0:0:
161,182,114385,2,0,B|150:127|184:89|184:89|148:48|90:64,1,195,6|2,0:0|2:0,0:0:0:0:
24,95,115004,5,6,0:0:0:0:
24,95,115159,1,6,0:0:0:0:
161,182,115468,1,6,0:0:0:0:
351,202,116860,6,0,B|362:257|328:295|328:295|364:336|422:320,1,195,6|2,0:0|2:0,0:0:0:0:
495,300,117478,1,6,0:0:0:0:
511,220,117633,1,6,0:0:0:0:
399,103,117942,1,6,0:0:0:0:
511,220,118251,1,6,0:0:0:0:
332,153,118561,6,0,P|316:90|362:27,1,130,6|2,0:0|0:0,0:0:0:0:
461,88,119025,2,0,P|429:91|399:103,1,65,8|0,0:0|0:0,0:0:0:0:
347,36,119334,2,0,P|314:37|283:29,1,65,8|0,0:0|0:0,0:0:0:0:
220,87,119643,1,8,0:0:0:0:
285,146,119798,1,8,0:0:0:0:
285,146,119875,1,8,0:0:0:0:
285,146,119952,6,0,B|306:181|308:222|308:222|279:296,1,130,12|8,0:2|0:0,0:0:0:0:
215,210,120416,2,0,B|197:164|197:164|199:123|220:88,1,130,2|0,0:2|0:0,0:0:0:0:
286,147,120880,1,8,0:0:0:0:
286,147,121035,6,0,P|353:150|415:112,1,130,2|0,0:2|0:0,0:0:0:0:
466,69,121499,2,0,L|479:-3,1,65,8|0,0:0|0:0,0:0:0:0:
407,121,121808,2,0,L|419:185,1,65,2|0,0:2|0:0,0:0:0:0:
345,70,122117,2,0,L|334:7,1,65,8|0,0:0|0:0,0:0:0:0:
253,24,122427,6,0,P|219:87|237:147,1,130,2|8,0:2|0:0,0:0:0:0:
297,192,122891,2,0,P|310:255|277:309,1,130,2|0,0:2|0:0,0:0:0:0:
225,240,123354,1,8,0:0:0:0:
298,193,123509,5,2,0:2:0:0:
298,193,123586,1,2,0:2:0:0:
298,193,123664,2,0,L|375:205,1,65,2|2,0:2|0:2,0:0:0:0:
437,241,123973,2,0,P|401:274|367:282,1,65,8|2,0:0|0:2,0:0:0:0:
363,204,124282,2,0,P|399:171|433:163,1,65,2|0,0:2|0:0,0:0:0:0:
491,184,124592,1,8,0:0:0:0:
422,65,124901,6,0,B|398:31|398:31|355:77|291:73,1,130,4|8,0:0|0:0,0:0:0:0:
265,15,125365,2,0,P|244:57|282:141,1,130,2|0,0:2|0:0,0:0:0:0:
348,147,125829,2,0,L|360:232,1,65,8|0,0:0|0:0,0:0:0:0:
292,255,126138,5,2,0:2:0:0:
222,220,126293,1,0,0:0:0:0:
151,258,126447,2,0,L|139:343,1,65,8|0,0:0|0:0,0:0:0:0:
82,219,126757,2,0,P|111:189|154:178,1,65,2|0,0:2|0:0,0:0:0:0:
151,258,127066,2,0,P|122:288|79:299,1,65,8|0,0:0|0:0,0:0:0:0:
82,219,127375,6,0,L|64:147,1,65,2|0,0:2|0:0,0:0:0:0:
93,79,127684,1,8,0:0:0:0:
148,139,127839,2,0,P|228:146|276:117,1,130,2|0,0:2|0:0,0:0:0:0:
286,43,128303,1,8,0:0:0:0:
207,68,128458,1,2,0:2:0:0:
269,123,128612,6,0,P|293:171|295:198,1,65,4|8,0:0|0:0,0:0:0:0:
294,181,128844,1,8,0:0:0:0:
294,181,128921,1,8,0:0:0:0:
372,228,129076,1,8,0:0:0:0:
372,228,129153,1,8,0:0:0:0:
372,228,129231,2,0,P|380:196|397:169,1,65,8|8,0:0|0:0,0:0:0:0:
294,181,129540,2,0,P|262:189|230:188,1,65,12|2,0:0|0:2,0:0:0:0:
293,267,129849,6,0,P|316:289|330:318,2,65,2|0|8,0:2|0:0|0:0,0:0:0:0:
216,292,130313,2,0,B|179:311|179:311|71:290,1,130,2|0,0:2|0:0,0:0:0:0:
32,232,130777,1,8,0:0:0:0:
32,232,130932,6,0,B|51:195|51:195|30:87,1,130,2|0,0:2|0:0,0:0:0:0:
104,64,131396,2,0,P|153:100|173:123,1,65,8|0,0:0|0:0,0:0:0:0:
230,63,131705,2,0,P|239:123|237:153,1,65,2|0,0:2|0:0,0:0:0:0:
317,158,132014,2,0,P|281:207|258:227,1,65,8|0,0:0|0:0,0:0:0:0:
208,254,132324,6,0,P|266:292|333:272,1,130,2|8,0:2|0:0,0:0:0:0:
278,209,132787,2,0,P|220:171|153:191,1,130,2|0,0:2|0:0,0:0:0:0:
94,228,133251,1,8,0:0:0:0:
32,172,133406,5,2,0:2:0:0:
32,172,133483,1,2,0:2:0:0:
32,172,133561,2,0,L|17:93,1,65,2|2,0:2|0:2,0:0:0:0:
94,228,133870,2,0,L|81:307,1,65,8|2,0:0|0:2,0:0:0:0:
167,181,134179,1,2,0:2:0:0:
167,181,134334,1,0,0:0:0:0:
234,124,134488,2,0,P|253:164|249:205,1,65,8|0,0:0|0:0,0:0:0:0:
206,254,134798,6,0,B|192:291|192:291|240:272|292:289,1,130,4|8,0:0|0:0,0:0:0:0:
327,354,135262,2,0,P|356:318|328:220,1,130,2|0,0:2|0:0,0:0:0:0:
288,180,135726,2,0,P|290:137|311:102,1,65,8|0,0:0|0:0,0:0:0:0:
383,101,136035,6,0,P|381:144|360:179,1,65,2|0,0:2|0:0,0:0:0:0:
288,180,136344,2,0,L|197:162,1,65,8|0,0:0|0:0,0:0:0:0:
174,231,136653,2,0,L|99:176,1,65,2|0,0:2|0:0,0:0:0:0:
58,141,136963,1,8,0:0:0:0:
207,54,137272,5,2,0:2:0:0:
207,54,137427,1,0,0:0:0:0:
278,100,137581,2,0,P|292:62|287:17,1,65,8|0,0:0|0:0,0:0:0:0:
346,147,137891,2,0,P|332:185|337:230,1,65,8|0,0:0|0:0,0:0:0:0:
394,267,138200,1,8,0:0:0:0:
472,227,138354,5,0,0:0:0:0:
472,227,138432,1,0,0:0:0:0:
472,227,138509,2,0,L|525:233,2,32.5,8|8|8,0:0|0:0|0:0,0:0:0:0:
394,267,138818,1,8,0:0:0:0:
394,267,138973,1,4,0:3:0:0:
330,211,139128,1,8,0:0:0:0:
330,211,139282,1,4,0:3:0:0:
256,254,139437,1,8,0:0:0:0:
256,254,139592,1,4,0:3:0:0:
199,189,139746,6,0,L|180:110,1,65,4|0,0:0|0:0,0:0:0:0:
125,233,140055,2,0,L|106:312,1,65,8|0,0:0|0:0,0:0:0:0:
166,356,140365,2,0,P|215:368|304:338,1,130,2|8,0:2|0:0,0:0:0:0:
362,293,140829,5,0,0:0:0:0:
362,293,140906,1,0,0:0:0:0:
362,293,140983,2,0,P|417:309|432:323,1,65,2|0,0:2|0:0,0:0:0:0:
506,311,141293,2,0,P|498:280|478:255,1,65,8|0,0:0|0:0,0:0:0:0:
416,200,141602,2,0,P|392:137|426:67,1,130,2|8,0:2|0:0,0:0:0:0:
253,140,142220,6,0,L|175:175,1,65,2|0,0:2|0:0,0:0:0:0:
110,207,142530,2,0,L|119:122,1,65,8|0,0:0|0:0,0:0:0:0:
117,143,142762,1,0,0:0:0:0:
117,143,142839,1,2,0:2:0:0:
31,167,142994,1,0,0:0:0:0:
111,208,143148,2,0,P|112:265|101:290,1,65,8|0,0:0|0:0,0:0:0:0:
144,349,143458,6,0,P|171:331|190:305,1,65,2|0,0:2|0:0,0:0:0:0:
254,258,143767,2,0,P|281:277|300:303,1,65,8|0,0:0|0:0,0:0:0:0:
345,372,144076,2,0,P|375:333|360:246,1,130,2|8,0:2|0:0,0:0:0:0:
424,131,144695,6,0,L|508:118,1,65,2|0,0:2|0:0,0:0:0:0:
378,64,145004,2,0,L|294:51,1,65,8|0,0:0|0:0,0:0:0:0:
259,115,145313,2,0,P|153:114|132:93,1,130,2|8,0:2|0:0,0:0:0:0:
57,62,145777,5,0,0:0:0:0:
57,62,145854,1,0,0:0:0:0:
57,62,145932,2,0,P|20:103|12:127,1,65,2|0,0:2|0:0,0:0:0:0:
126,165,146241,2,0,P|141:105|136:80,1,65,8|0,0:0|0:0,0:0:0:0:
215,61,146550,2,0,B|256:90|256:90|274:196,1,130,2|8,0:2|0:0,0:0:0:0:
331,301,147169,6,0,L|342:237,1,65,2|0,0:2|0:0,0:0:0:0:
411,317,147478,2,0,L|422:382,1,65,8|0,0:0|0:0,0:0:0:0:
422,382,147710,1,0,0:0:0:0:
422,382,147787,1,2,0:2:0:0:
493,330,147942,1,0,0:0:0:0:
331,301,148097,2,0,L|254:287,1,65,8|0,0:0|0:0,0:0:0:0:
222,356,148406,6,0,P|194:323|188:292,1,65,2|0,0:2|0:0,0:0:0:0:
297,234,148715,2,0,P|283:275|259:296,1,65,8|0,0:0|0:0,0:0:0:0:
147,224,149025,2,0,P|190:217|220:227,2,65,2|0|8,0:2|0:0|0:0,0:0:0:0:
30,355,149643,6,0,L|-3:277,1,65,4|0,0:0|0:0,0:0:0:0:
64,240,149952,2,0,L|61:158,1,65,8|0,0:0|0:0,0:0:0:0:
128,125,150262,2,0,B|162:81|222:100|222:100|263:114,1,130,2|8,0:2|0:0,0:0:0:0:
329,105,150726,5,0,0:0:0:0:
329,105,150803,1,0,0:0:0:0:
329,105,150880,2,0,P|308:168|299:177,1,65,2|0,0:2|0:0,0:0:0:0:
246,108,151190,2,0,P|268:46|277:37,1,65,8|0,0:0|0:0,0:0:0:0:
345,27,151499,2,0,L|500:62,1,130,2|8,0:2|0:0,0:0:0:0:
390,183,152117,6,0,L|319:195,1,65,2|0,0:2|0:0,0:0:0:0:
295,267,152427,2,0,L|224:255,1,65,8|0,0:0|0:0,0:0:0:0:
204,251,152659,1,0,0:0:0:0:
204,251,152736,2,0,P|185:288|187:333,1,65,2|0,0:2|0:0,0:0:0:0:
134,214,153045,2,0,P|154:178|152:133,1,65,8|0,0:0|0:0,0:0:0:0:
33,107,153354,6,0,P|55:143|95:163,1,65,2|0,0:2|0:0,0:0:0:0:
178,72,153664,2,0,P|137:74|99:98,1,65,8|0,0:0|0:0,0:0:0:0:
74,156,153973,2,0,L|49:298,1,130,2|8,0:2|0:0,0:0:0:0:
197,195,154592,6,0,P|245:172|280:172,1,65,4|0,0:0|0:0,0:0:0:0:
259,252,154901,2,0,P|310:270|334:295,1,65,8|0,0:0|0:0,0:0:0:0:
347,351,155210,2,0,P|389:314|382:231,1,130,2|8,0:2|0:0,0:0:0:0:
443,181,155674,5,0,0:0:0:0:
443,181,155751,1,0,0:0:0:0:
443,181,155829,2,0,P|484:166|511:148,1,65,2|0,0:2|0:0,0:0:0:0:
390,244,156138,2,0,P|349:229|322:211,1,65,8|0,0:0|0:0,0:0:0:0:
303,144,156447,2,0,P|261:181|268:264,1,130,2|8,0:2|0:0,0:0:0:0:
136,337,157066,6,0,L|64:315,1,65,2|0,0:2|0:0,0:0:0:0:
75,237,157375,2,0,L|147:259,1,65,8|0,0:0|0:0,0:0:0:0:
165,265,157607,1,0,0:0:0:0:
165,265,157684,2,0,P|187:216|181:179,1,65,2|0,0:2|0:0,0:0:0:0:
285,174,157994,2,0,P|263:223|269:260,1,65,8|0,0:0|0:0,0:0:0:0:
256,192,158303,12,8,159231,0:0:0:0:
384,94,159540,6,0,L|516:113,1,130,6|10,0:0|0:0,0:0:0:0:
433,0,160004,2,0,L|305:19,1,130,2|2,0:0|0:0,0:0:0:0:
257,82,160468,1,8,0:0:0:0:
313,138,160622,6,0,B|328:177|328:177|315:278,1,130,2|2,0:0|0:0,0:0:0:0:
241,250,161086,2,0,L|251:168,1,65,10|2,0:0|0:0,0:0:0:0:
406,171,161396,2,0,L|391:301,1,130,2|8,0:0|0:0,0:0:0:0:
327,352,161860,5,0,0:0:0:0:
327,352,161937,1,0,0:0:0:0:
327,352,162014,2,0,P|269:362|248:376,1,65,2|0,0:0|0:0,0:0:0:0:
391,301,162324,2,0,P|449:311|470:325,1,65,10|2,0:0|0:0,0:0:0:0:
478,327,162555,1,0,0:0:0:0:
478,327,162633,1,2,0:0:0:0:
406,384,162787,1,2,0:0:0:0:
391,301,162942,2,0,L|377:214,1,65,10|2,0:0|0:0,0:0:0:0:
324,181,163251,6,0,P|301:231|306:265,1,65,2|2,0:0|0:0,0:0:0:0:
381,237,163561,2,0,P|404:187|399:153,1,65,10|2,0:0|0:0,0:0:0:0:
314,117,163870,2,0,L|325:182,1,65,2|2,0:0|0:0,0:0:0:0:
239,167,164179,1,8,0:0:0:0:
173,222,164334,5,0,0:0:0:0:
173,222,164411,1,0,0:0:0:0:
173,222,164488,2,0,P|154:171|185:97,1,130,6|10,0:0|0:0,0:0:0:0:
60,14,164952,2,0,P|79:65|48:139,1,130,2|2,0:0|0:0,0:0:0:0:
0,191,165416,1,8,0:0:0:0:
75,208,165571,6,0,B|103:240|103:240|92:343,1,130,2|2,0:0|0:0,0:0:0:0:
18,328,166035,2,0,L|25:251,1,65,10|2,0:0|0:0,0:0:0:0:
149,172,166344,2,0,B|177:140|177:140|166:37,1,130,2|10,0:0|0:0,0:0:0:0:
236,15,166808,5,0,0:0:0:0:
236,15,166885,1,0,0:0:0:0:
236,15,166963,2,0,P|282:33|303:61,1,65,2|2,0:0|0:0,0:0:0:0:
356,0,167272,2,0,P|376:46|371:80,1,65,10|2,0:0|0:0,0:0:0:0:
376,60,167504,1,0,0:0:0:0:
376,60,167581,1,2,0:0:0:0:
316,119,167736,1,2,0:0:0:0:
394,138,167891,2,0,L|406:209,1,65,10|2,0:0|0:0,0:0:0:0:
313,287,168200,6,0,L|324:223,1,65,2|0,0:0|0:0,0:0:0:0:
234,134,168509,2,0,L|245:199,1,65,8|0,0:0|0:0,0:0:0:0:
156,176,168818,1,2,0:0:0:0:
156,176,168973,1,0,0:0:0:0:
150,93,169128,1,8,0:0:0:0:
77,141,169282,5,0,0:0:0:0:
77,141,169360,1,0,0:0:0:0:
77,141,169437,2,0,P|69:195|113:255,1,130,6|10,0:0|0:0,0:0:0:0:
268,216,169901,2,0,P|229:179|154:178,1,130,2|2,0:0|0:0,0:0:0:0:
193,253,170365,1,10,0:0:0:0:
268,216,170519,6,0,L|302:63,1,130,2|2,0:0|0:0,0:0:0:0:
229,39,170983,2,0,L|135:50,1,65,10|2,0:0|0:0,0:0:0:0:
297,90,171293,2,0,L|452:72,1,130,0|8,0:0|0:0,0:0:0:0:
488,148,171757,5,0,0:0:0:0:
488,148,171834,1,0,0:0:0:0:
488,148,171911,2,0,P|489:186|465:227,1,65,2|0,0:0|0:0,0:0:0:0:
348,189,172220,2,0,P|381:170|428:170,1,65,8|2,0:0|0:0,0:0:0:0:
407,166,172452,1,0,0:0:0:0:
407,166,172530,1,2,0:0:0:0:
409,245,172684,1,2,0:0:0:0:
332,266,172839,2,0,L|315:328,1,65,10|2,0:0|0:0,0:0:0:0:
210,217,173148,6,0,L|227:280,1,65,2|2,0:0|0:0,0:0:0:0:
315,328,173458,2,0,L|384:318,1,65,10|2,0:0|0:0,0:0:0:0:
227,280,173767,2,0,L|163:271,1,65,2|2,0:0|0:0,0:0:0:0:
301,192,174076,2,0,L|318:130,1,65,10|0,0:0|0:0,0:0:0:0:
290,91,174308,1,0,0:0:0:0:
290,91,174385,6,0,P|232:108|143:111,1,130,6|10,0:0|0:0,0:0:0:0:
76,201,174849,2,0,P|141:205|204:223,1,130,2|2,0:0|0:0,0:0:0:0:
267,272,175313,1,10,0:0:0:0:
223,337,175468,6,0,P|187:269|212:214,1,130,2|2,0:0|0:0,0:0:0:0:
262,169,175932,2,0,L|253:98,1,65,10|2,0:0|0:0,0:0:0:0:
328,56,176241,2,0,L|345:189,1,130,2|10,0:0|0:0,0:0:0:0:
407,239,176705,5,0,0:0:0:0:
407,239,176782,1,0,0:0:0:0:
407,239,176860,2,0,B|440:226|440:226|494:235,1,65,2|2,0:0|0:0,0:0:0:0:
345,185,177169,2,0,B|312:198|312:198|258:189,1,65,10|2,0:0|0:0,0:0:0:0:
283,194,177401,1,0,0:0:0:0:
283,194,177478,1,2,0:0:0:0:
202,173,177633,1,2,0:0:0:0:
138,222,177787,1,10,0:0:0:0:
63,194,177942,6,0,L|48:153,2,32.5,0|0|6,0:0|0:0|0:0,0:0:0:0:
256,192,178251,12,4,179334,0:0:0:0:
256,192,179488,12,4,182162,0:0:0:0:
256,152,183078,6,0,L|267:206,3,32.5,4|4|4|4,0:3|0:3|0:3|0:3,0:0:0:0:
