osu file format v14

[General]
AudioFilename: audio.mp3
AudioLeadIn: 0
PreviewTime: 138334
Countdown: 0
SampleSet: Soft
StackLeniency: 0.7
Mode: 2
LetterboxInBreaks: 0
WidescreenStoryboard: 0

[Editor]
DistanceSpacing: 1.4
BeatDivisor: 4
GridSize: 16
TimelineZoom: 1.8

[Metadata]
Title:Shunshun Shugetsu
TitleUnicode:蠢々秋月
Artist:Dark PHOENiX
ArtistUnicode:Dark PHOENiX
Creator:Yumeno Himiko
Version:Lunatic ~Stage 1~
Source:東方永夜抄~ Imperishable Night.
Tags:東方Project Touhou Eiyashou Stirring an Autumn Moon
BeatmapID:2089852
BeatmapSetID:-1

[Difficulty]
HPDrainRate:5
CircleSize:3.6
OverallDifficulty:8
ApproachRate:8
SliderMultiplier:1.9
SliderTickRate:2

[Events]
//Background and Video events
0,0,"BG.png",0,0
//Break Periods
//Storyboard Layer 0 (Background)
//Storyboard Layer 1 (Fail)
//Storyboard Layer 2 (Pass)
//Storyboard Layer 3 (Foreground)
//Storyboard Layer 4 (Overlay)
//Storyboard Sound Samples

[TimingPoints]
1169,309.278350515464,4,2,0,60,1,0
60550,-100,4,2,0,60,0,1
80344,-100,4,2,0,60,0,0
139725,-100,4,2,0,60,0,1
159519,-100,4,2,0,60,0,0
179313,319.148936170213,4,2,0,60,1,0
179632,344.827586206897,4,2,0,60,1,0
179976,365.853658536585,4,2,0,60,1,0
182138,309.278350515464,4,2,0,60,1,0

[Colours]
Combo1 : 156,250,146
Combo2 : 1,143,4
Combo3 : 236,231,138

[HitObjects]
112,192,1014,6,0,L|112:144,1,47.5,2|2,0:0|0:0,0:0:0:0:
256,144,1169,6,0,L|256:352,1,190,4|10,1:0|1:2,0:0:0:0:
128,336,1633,1,2,1:2:0:0:
256,336,1787,2,0,L|256:208,1,95,2|0,0:0|1:0,0:0:0:0:
128,240,2097,2,0,L|128:128,1,95,8|2,1:2|0:0,0:0:0:0:
192,144,2329,1,2,0:0:0:0:
336,144,2406,6,0,L|336:352,1,190,2|10,1:2|1:2,0:0:0:0:
208,336,2870,1,2,1:2:0:0:
336,336,3025,2,0,L|336:208,1,95,2|0,0:0|1:0,0:0:0:0:
464,240,3334,1,8,1:2:0:0:
176,240,3643,6,0,L|64:240,2,95,2|2|10,1:2|0:0|1:2,0:0:0:0:
304,240,4107,2,0,L|304:176,1,47.5,2|2,1:2|0:0,0:0:0:0:
224,192,4262,2,0,L|224:64,1,95,2|0,0:0|1:0,0:0:0:0:
352,96,4571,2,0,L|352:0,1,95,8|0,1:2|0:0,0:0:0:0:
128,320,4880,6,0,L|128:224,1,95,2|2,1:2|0:0,0:0:0:0:
256,224,5189,2,0,L|256:112,1,95,10|2,1:2|1:2,0:0:0:0:
128,128,5499,2,0,L|256:128,2,95,2|0|8,0:0|1:0|1:2,0:0:0:0:
416,128,6117,6,0,L|416:336,1,190,4|10,1:0|1:2,0:0:0:0:
288,320,6581,1,2,1:2:0:0:
160,320,6736,2,0,L|160:208,1,95,2|0,0:0|1:0,0:0:0:0:
288,224,7045,2,0,L|288:112,1,95,8|2,1:2|0:0,0:0:0:0:
224,128,7277,1,2,0:0:0:0:
80,128,7354,6,0,L|80:320,1,190,2|10,1:2|1:2,0:0:0:0:
208,320,7818,1,2,1:2:0:0:
336,320,7973,2,0,L|432:320,2,95,2|0|8,0:0|1:0|1:2,0:0:0:0:
48,144,8592,6,0,L|160:144,2,95,2|2|10,1:2|0:0|1:2,0:0:0:0:
176,144,9055,2,0,L|176:224,1,47.5,2|2,1:2|0:0,0:0:0:0:
96,192,9210,2,0,L|96:320,1,95,2|0,0:0|1:0,0:0:0:0:
224,288,9519,2,0,L|224:176,1,95,8|0,1:2|0:0,0:0:0:0:
464,192,9829,6,0,L|464:64,1,95,2|2,1:2|0:0,0:0:0:0:
336,96,10138,2,0,L|336:208,1,95,10|2,1:2|1:2,0:0:0:0:
208,192,10447,2,0,L|80:192,2,95,2|0|8,0:0|1:0|1:2,0:0:0:0:
336,192,10911,2,0,L|336:256,1,47.5,2|2,0:0|0:0,0:0:0:0:
192,192,11066,6,0,L|192:384,1,190,4|10,1:0|1:2,0:0:0:0:
320,384,11530,1,2,1:2:0:0:
192,384,11684,2,0,L|80:384,2,95,2|0|8,0:0|1:0|1:2,0:0:0:0:
320,384,12148,2,0,L|320:320,1,47.5,2|2,0:0|0:0,0:0:0:0:
240,336,12303,6,0,L|240:144,1,190,2|10,1:2|1:2,0:0:0:0:
368,144,12767,1,2,1:2:0:0:
496,144,12921,2,0,L|384:144,2,95,2|0|8,0:0|1:0|1:2,0:0:0:0:
208,144,13540,6,0,L|96:144,2,95,2|2|10,1:2|0:0|1:2,0:0:0:0:
336,144,14004,2,0,L|336:224,1,47.5,2|2,1:2|0:0,0:0:0:0:
256,192,14159,2,0,L|256:320,1,95,2|0,0:0|1:0,0:0:0:0:
384,288,14468,2,0,L|384:192,1,95,8|0,1:2|0:0,0:0:0:0:
144,192,14777,6,0,L|144:64,1,95,2|2,1:2|0:0,0:0:0:0:
272,96,15086,2,0,L|272:208,1,95,10|2,1:2|1:2,0:0:0:0:
144,192,15396,2,0,L|16:192,2,95,2|0|8,0:0|1:0|1:2,0:0:0:0:
432,192,16014,6,0,L|432:384,1,190,4|10,1:0|1:2,0:0:0:0:
304,384,16478,1,2,1:2:0:0:
176,384,16633,2,0,L|176:256,1,95,2|0,0:0|1:0,0:0:0:0:
304,288,16942,2,0,L|304:176,1,95,8|2,1:2|0:0,0:0:0:0:
240,192,17174,1,2,0:0:0:0:
96,192,17251,6,0,L|96:0,1,190,2|10,1:2|1:2,0:0:0:0:
224,0,17715,1,2,1:2:0:0:
96,0,17870,2,0,L|208:0,2,95,2|0|8,0:0|1:0|1:2,0:0:0:0:
400,0,18488,6,0,L|400:128,1,95,2|2,1:2|0:0,0:0:0:0:
272,96,18798,2,0,L|272:224,1,95,10|2,1:2|1:2,0:0:0:0:
336,192,19030,1,2,0:0:0:0:
272,191,19107,2,0,L|272:304,1,95,2|0,0:0|1:0,0:0:0:0:
400,288,19416,2,0,L|400:160,1,95,8|0,1:2|0:0,0:0:0:0:
144,192,19726,5,2,3:0:0:0:
144,144,19803,1,2,3:0:0:0:
144,97,19880,1,2,3:0:0:0:
272,96,20035,1,10,3:0:0:0:
144,97,20189,1,2,3:0:0:0:
272,192,20344,1,2,3:0:0:0:
144,192,20499,1,2,3:0:0:0:
288,288,20653,1,10,3:3:0:0:
128,288,20808,1,2,0:0:0:0:
384,288,20963,6,0,L|384:96,1,190,6|8,0:0|0:0,0:0:0:0:
144,288,21427,2,0,L|144:80,1,190,2|2,0:0|0:0,0:0:0:0:
272,96,21891,1,8,0:1:0:0:
16,96,22045,6,0,L|16:320,1,190,2|2,0:0|0:0,0:0:0:0:
144,288,22509,2,0,L|144:160,1,95,8|2,0:1|0:0,0:0:0:0:
272,192,22818,2,0,L|384:192,2,95,2|0|8,0:0|0:0|0:1,0:0:0:0:
400,192,23282,2,0,L|400:256,1,47.5,2|2,0:0|0:0,0:0:0:0:
256,192,23437,6,0,L|256:304,1,95,2|2,0:0|0:0,0:0:0:0:
384,288,23746,2,0,L|384:176,1,95,8|2,0:1|0:0,0:0:0:0:
320,192,23978,1,2,0:0:0:0:
384,193,24055,2,0,L|384:80,1,95,2|2,0:0|0:0,0:0:0:0:
256,96,24365,2,0,L|256:224,1,95,8|2,0:1|0:0,0:0:0:0:
496,192,24674,6,0,L|496:320,1,95,2|2,1:2|1:2,0:0:0:0:
368,288,24983,2,0,L|368:176,1,95,8|2,1:0|1:2,0:0:0:0:
240,192,25293,2,0,L|240:288,1,95,2|2,1:2|1:2,0:0:0:0:
112,288,25602,2,0,L|112:192,1,95,8|2,1:0|0:0,0:0:0:0:
176,192,25834,1,2,0:0:0:0:
320,192,25911,6,0,L|320:0,1,190,6|8,0:0|0:0,0:0:0:0:
64,16,26375,2,0,L|64:208,1,190,2|2,0:0|0:0,0:0:0:0:
192,208,26839,1,8,0:1:0:0:
432,128,26994,6,0,L|432:336,1,190,2|2,0:0|0:0,0:0:0:0:
304,320,27458,2,0,L|304:192,1,95,8|2,0:1|0:0,0:0:0:0:
432,224,27767,2,0,L|320:224,2,95,2|0|8,0:0|0:0|0:1,0:0:0:0:
304,224,28231,2,0,L|304:160,1,47.5,2|2,0:0|0:0,0:0:0:0:
448,176,28385,6,0,L|448:64,1,95,2|2,0:0|0:0,0:0:0:0:
320,80,28695,2,0,L|320:208,1,95,8|2,0:1|0:0,0:0:0:0:
256,176,28927,1,2,0:0:0:0:
192,176,29004,2,0,L|192:272,1,95,2|2,0:0|0:0,0:0:0:0:
320,272,29313,2,0,L|320:368,1,95,8|2,0:1|0:0,0:0:0:0:
80,272,29622,5,2,1:2:0:0:
400,192,29932,1,8,1:0:0:0:
80,128,30241,1,2,1:2:0:0:
400,64,30550,1,8,1:0:0:0:
272,64,30705,2,0,L|272:112,1,47.5,2|2,0:0|0:0,0:0:0:0:
448,64,30860,6,0,L|448:272,1,190,6|8,0:0|0:0,0:0:0:0:
208,256,31324,2,0,L|208:48,1,190,2|2,0:0|0:0,0:0:0:0:
336,64,31787,1,8,0:1:0:0:
64,64,31942,6,0,L|64:256,1,190,2|2,0:0|0:0,0:0:0:0:
192,256,32406,2,0,L|192:368,1,95,8|2,0:1|0:0,0:0:0:0:
64,352,32715,2,0,L|176:352,2,95,2|0|8,0:0|0:0|0:1,0:0:0:0:
192,352,33179,2,0,L|192:288,1,47.5,2|2,0:0|0:0,0:0:0:0:
352,304,33334,6,0,L|352:176,1,95,2|2,0:0|0:0,0:0:0:0:
224,208,33643,2,0,L|224:80,1,95,8|2,0:1|0:0,0:0:0:0:
288,112,33875,1,2,0:0:0:0:
224,113,33952,2,0,L|224:-15,1,95,2|2,0:0|0:0,0:0:0:0:
352,16,34262,2,0,L|352:112,1,95,8|2,0:1|0:0,0:0:0:0:
64,112,34571,6,0,L|64:224,1,95,2|2,1:2|1:2,0:0:0:0:
192,208,34880,2,0,L|192:320,1,95,8|2,1:0|1:2,0:0:0:0:
320,304,35189,2,0,L|320:192,1,95,2|2,1:2|1:2,0:0:0:0:
448,208,35499,2,0,L|448:96,1,95,8|2,1:0|0:0,0:0:0:0:
384,112,35731,1,2,0:0:0:0:
224,112,35808,6,0,L|224:320,1,190,6|8,0:0|0:0,0:0:0:0:
464,304,36272,2,0,L|464:80,1,190,2|2,0:0|0:0,0:0:0:0:
336,112,36736,1,8,0:1:0:0:
96,112,36891,6,0,L|96:320,1,190,2|2,0:0|0:0,0:0:0:0:
224,304,37354,2,0,L|224:192,1,95,8|2,0:1|0:0,0:0:0:0:
96,208,37664,2,0,L|192:208,2,95,2|0|8,0:0|0:0|0:1,0:0:0:0:
224,208,38128,2,0,L|224:144,1,47.5,2|2,0:0|0:0,0:0:0:0:
64,112,38282,6,0,L|64:224,1,95,2|2,0:0|0:0,0:0:0:0:
192,208,38592,2,0,L|192:336,1,95,8|2,0:1|0:0,0:0:0:0:
256,304,38824,1,2,0:0:0:0:
320,304,38901,2,0,L|320:192,1,95,2|2,0:0|0:0,0:0:0:0:
192,208,39210,2,0,L|192:96,1,95,8|2,0:1|0:0,0:0:0:0:
432,112,39519,6,0,L|432:160,1,47.5,2|2,3:0|3:0,0:0:0:0:
368,160,39674,2,0,L|368:224,1,47.5,2|2,3:0|3:0,0:0:0:0:
304,208,39829,2,0,L|304:272,1,47.5,2|0,3:0|0:0,0:0:0:0:
368,256,39983,2,0,L|368:320,1,47.5,2|2,3:0|3:0,0:0:0:0:
160,160,40138,6,0,L|160:208,1,47.5,2|2,3:0|3:0,0:0:0:0:
224,208,40293,2,0,L|224:272,1,47.5,2|2,3:0|3:0,0:0:0:0:
288,272,40447,2,0,L|288:336,1,47.5,2|0,3:0|0:0,0:0:0:0:
224,320,40602,2,0,L|224:384,1,47.5,2|2,3:0|3:0,0:0:0:0:
64,368,40756,6,0,L|64:176,1,190,4|10,0:0|0:0,0:0:0:0:
304,176,41220,2,0,L|304:-16,1,190,2|2,0:0|0:0,0:0:0:0:
176,176,41684,1,8,0:0:0:0:
304,176,41839,6,0,L|304:384,1,190,2|0,0:0|3:0,0:0:0:0:
64,368,42303,2,0,L|64:256,1,95,10|0,0:0|0:0,0:0:0:0:
192,272,42612,2,0,L|192:144,1,95,2|0,0:0|0:0,0:0:0:0:
320,176,42921,2,0,L|320:80,1,95,10|0,0:0|0:0,0:0:0:0:
80,80,43231,6,0,L|80:288,1,190,2|8,0:0|0:0,0:0:0:0:
320,288,43695,2,0,L|320:64,1,190,2|0,0:0|3:0,0:0:0:0:
192,96,44159,1,10,0:0:0:0:
320,96,44313,2,0,L|320:160,1,47.5,2|2,0:0|0:0,0:0:0:0:
160,128,44468,6,0,L|160:256,1,95,2|2,0:0|0:0,0:0:0:0:
288,224,44777,2,0,L|288:336,1,95,10|2,0:0|0:0,0:0:0:0:
160,320,45086,2,0,L|160:224,1,95,2|2,0:0|0:0,0:0:0:0:
288,224,45396,2,0,L|288:112,1,95,10|2,0:0|0:0,0:0:0:0:
48,128,45705,6,0,L|48:320,1,190,4|10,0:0|0:0,0:0:0:0:
176,320,46169,1,2,0:0:0:0:
464,320,46478,2,0,L|352:320,2,95,0|8|0,3:0|0:0|0:0,0:0:0:0:
336,320,46942,6,0,L|336:192,1,95,0|0,3:0|3:0,0:0:0:0:
464,224,47251,2,0,L|464:96,1,95,10|0,0:0|0:0,0:0:0:0:
336,128,47561,2,0,L|336:32,1,95,2|0,0:0|0:0,0:0:0:0:
208,32,47870,2,0,L|208:160,1,95,10|0,0:0|0:0,0:0:0:0:
448,128,48179,6,0,L|448:336,1,190,2|8,3:2|0:0,0:0:0:0:
320,320,48643,1,2,0:0:0:0:
192,320,48798,2,0,L|192:208,1,95,0|0,3:0|3:0,0:0:0:0:
320,224,49107,2,0,L|320:128,1,95,10|2,0:0|0:0,0:0:0:0:
48,128,49416,6,0,L|48:32,1,95,4|2,0:0|3:0,0:0:0:0:
288,304,49726,2,0,L|288:192,1,95,2|2,3:0|3:0,0:0:0:0:
224,208,49958,1,0,0:0:0:0:
160,208,50035,2,0,L|160:96,1,95,2|2,3:0|3:0,0:0:0:0:
224,112,50267,1,0,0:0:0:0:
288,112,50344,2,0,L|288:0,1,95,2|2,3:0|3:0,0:0:0:0:
48,336,50653,6,0,L|48:144,1,190,4|10,0:0|0:0,0:0:0:0:
304,144,51117,2,0,L|304:368,1,190,2|2,0:0|0:0,0:0:0:0:
176,336,51581,1,8,0:0:0:0:
416,336,51736,6,0,L|416:128,1,190,2|0,0:0|3:0,0:0:0:0:
288,144,52200,2,0,L|288:272,1,95,10|0,0:0|0:0,0:0:0:0:
416,240,52509,2,0,L|416:352,1,95,2|0,0:0|0:0,0:0:0:0:
288,336,52818,2,0,L|288:224,1,95,10|0,0:0|0:0,0:0:0:0:
32,96,53128,6,0,L|160:96,2,95,2|0|8,0:0|3:0|0:0,0:0:0:0:
160,96,53592,1,2,0:0:0:0:
288,96,53746,2,0,L|288:208,1,95,0|0,3:0|3:0,0:0:0:0:
160,192,54055,2,0,L|160:304,1,95,10|2,0:0|0:0,0:0:0:0:
224,288,54287,1,2,0:0:0:0:
400,288,54365,6,0,L|400:160,1,95,2|2,0:0|0:0,0:0:0:0:
272,192,54674,2,0,L|272:96,1,95,10|2,0:0|0:0,0:0:0:0:
144,96,54983,2,0,L|144:192,1,95,2|2,0:0|0:0,0:0:0:0:
16,192,55293,1,10,0:0:0:0:
352,192,55602,6,0,L|352:384,1,190,4|10,0:0|0:0,0:0:0:0:
224,384,56066,1,2,0:0:0:0:
496,384,56375,2,0,L|400:384,2,95,0|8|0,3:0|0:0|0:0,0:0:0:0:
368,384,56839,6,0,L|368:272,1,95,0|0,3:0|3:0,0:0:0:0:
240,288,57148,2,0,L|240:160,1,95,10|0,0:0|0:0,0:0:0:0:
112,192,57458,2,0,L|112:80,1,95,2|0,0:0|0:0,0:0:0:0:
352,96,57767,2,0,L|352:208,1,95,10|0,0:0|0:0,0:0:0:0:
32,96,58076,6,0,L|32:192,1,95,2|0,3:2|3:0,0:0:0:0:
160,192,58385,2,0,L|160:304,1,95,8|2,0:0|0:0,0:0:0:0:
288,304,58695,2,0,L|288:176,1,95,0|0,3:0|3:0,0:0:0:0:
160,192,59004,2,0,L|160:80,1,95,10|2,0:0|0:0,0:0:0:0:
224,96,59236,1,2,0:0:0:0:
384,96,59313,6,0,L|384:224,1,95,2|2,3:0|3:0,0:0:0:0:
144,192,59622,2,0,L|144:288,1,95,2|2,3:0|3:0,0:0:0:0:
416,288,59932,2,0,L|416:160,1,95,2|2,3:0|3:0,0:0:0:0:
80,192,60241,2,0,L|80:80,1,95,2|2,3:0|3:0,0:0:0:0:
464,96,60550,6,0,L|464:304,1,190,4|10,0:0|0:0,0:0:0:0:
336,288,61014,1,2,0:0:0:0:
96,288,61169,2,0,L|96:160,1,95,2|0,0:0|0:0,0:0:0:0:
224,192,61478,2,0,L|224:80,1,95,8|2,0:0|0:0,0:0:0:0:
160,96,61710,1,2,0:0:0:0:
352,96,61787,6,0,L|352:320,1,190,2|10,0:0|0:0,0:0:0:0:
224,288,62251,1,2,0:0:0:0:
464,288,62406,2,0,L|464:160,1,95,2|0,0:0|0:0,0:0:0:0:
352,192,62715,1,8,0:0:0:0:
16,192,63025,6,0,L|16:80,1,95,2|2,0:0|0:0,0:0:0:0:
144,96,63334,2,0,L|144:192,1,95,10|2,0:0|0:0,0:0:0:0:
208,192,63566,1,2,0:0:0:0:
272,192,63643,2,0,L|272:304,1,95,2|0,0:0|0:0,0:0:0:0:
144,288,63952,2,0,L|144:192,1,95,10|2,0:0|0:0,0:0:0:0:
384,96,64262,6,0,L|272:96,2,95,0|2|8,0:0|0:0|0:0,0:0:0:0:
256,96,64726,2,0,L|256:208,1,95,2|0,0:0|0:0,0:0:0:0:
384,192,65035,2,0,L|384:304,1,95,2|10,0:0|0:0,0:0:0:0:
256,288,65344,1,0,0:0:0:0:
496,288,65499,6,0,L|496:80,1,190,4|10,0:0|0:0,0:0:0:0:
368,96,65963,1,2,0:0:0:0:
128,96,66117,2,0,L|128:208,1,95,2|0,0:0|0:0,0:0:0:0:
256,192,66427,2,0,L|256:304,1,95,8|2,0:0|0:0,0:0:0:0:
320,288,66659,1,2,0:0:0:0:
144,288,66736,6,0,L|144:80,1,190,2|10,0:0|0:0,0:0:0:0:
272,96,67200,1,2,0:0:0:0:
32,96,67354,2,0,L|144:96,2,95,2|0|8,0:0|0:0|0:0,0:0:0:0:
384,96,67973,6,0,L|384:208,1,95,2|2,0:0|0:0,0:0:0:0:
256,192,68282,2,0,L|256:288,1,95,10|2,0:0|0:0,0:0:0:0:
320,288,68514,1,2,0:0:0:0:
384,288,68592,2,0,L|384:192,1,95,2|0,0:0|0:0,0:0:0:0:
512,192,68901,2,0,L|512:80,1,95,10|2,0:0|0:0,0:0:0:0:
256,96,69210,6,0,L|160:96,2,95,0|2|8,0:0|0:0|0:0,0:0:0:0:
128,96,69674,2,0,L|128:208,1,95,2|0,0:0|0:0,0:0:0:0:
256,192,69983,1,2,0:0:0:0:
128,192,70138,1,10,0:0:0:0:
256,192,70293,1,0,0:0:0:0:
16,320,70447,6,0,L|16:112,1,190,4|10,0:0|0:0,0:0:0:0:
144,128,70911,1,2,0:0:0:0:
384,128,71066,2,0,L|384:240,1,95,2|0,0:0|0:0,0:0:0:0:
256,224,71375,2,0,L|256:320,1,95,8|2,0:0|0:0,0:0:0:0:
192,320,71607,1,2,0:0:0:0:
384,320,71684,6,0,L|384:128,1,190,2|10,0:0|0:0,0:0:0:0:
256,128,72148,1,2,0:0:0:0:
384,128,72303,2,0,L|384:256,1,95,2|0,0:0|0:0,0:0:0:0:
512,224,72612,1,8,0:0:0:0:
160,224,72921,6,0,L|48:224,2,95,2|2|10,0:0|0:0|0:0,0:0:0:0:
288,224,73385,2,0,L|288:160,1,47.5,2|2,0:0|0:0,0:0:0:0:
144,144,73540,2,0,L|144:48,1,95,2|0,0:0|0:0,0:0:0:0:
272,48,73849,2,0,L|272:160,1,95,10|2,0:0|0:0,0:0:0:0:
32,288,74159,6,0,L|160:288,2,95,0|2|8,0:0|0:0|0:0,0:0:0:0:
160,288,74622,2,0,L|160:176,1,95,2|0,0:0|0:0,0:0:0:0:
288,192,74932,2,0,L|288:96,1,95,2|10,0:0|0:0,0:0:0:0:
416,96,75241,1,0,0:0:0:0:
128,96,75396,6,0,L|128:288,1,190,4|10,0:0|0:0,0:0:0:0:
256,288,75860,1,2,0:0:0:0:
128,288,76014,2,0,L|128:176,1,95,2|0,0:0|0:0,0:0:0:0:
256,192,76324,2,0,L|256:96,1,95,8|2,0:0|0:0,0:0:0:0:
192,96,76555,1,2,0:0:0:0:
368,96,76633,6,0,L|368:304,1,190,2|10,0:0|0:0,0:0:0:0:
240,288,77097,1,2,0:0:0:0:
16,288,77251,2,0,L|16:192,1,95,2|0,0:0|0:0,0:0:0:0:
144,192,77561,1,8,0:0:0:0:
496,192,77870,6,0,L|384:192,2,95,2|2|10,0:0|0:0|0:0,0:0:0:0:
401,192,78334,2,0,L|401:128,1,47.5,2|2,0:0|0:0,0:0:0:0:
240,80,78488,2,0,L|240:208,1,95,2|0,0:0|0:0,0:0:0:0:
368,176,78798,2,0,L|368:304,1,95,10|2,0:0|0:0,0:0:0:0:
112,272,79107,5,2,3:0:0:0:
112,224,79184,1,2,3:0:0:0:
112,177,79261,1,2,3:0:0:0:
176,176,79339,1,2,3:0:0:0:
400,272,79416,5,2,3:0:0:0:
400,224,79493,1,0,0:0:0:0:
400,177,79570,1,2,3:0:0:0:
336,176,79648,1,2,3:0:0:0:
64,208,79726,5,2,3:0:0:0:
64,160,79803,1,2,3:0:0:0:
64,113,79880,1,2,3:0:0:0:
128,112,79958,1,2,3:0:0:0:
416,112,80035,1,2,3:0:0:0:
304,112,80189,2,0,L|304:176,1,47.5,2|2,3:0|3:0,0:0:0:0:
480,160,80344,6,0,L|480:272,2,95,4|2|10,0:0|0:0|0:0,0:0:0:0:
240,112,80808,2,0,L|240:320,1,190,2|2,0:0|0:0,0:0:0:0:
368,304,81272,2,0,L|368:176,1,95,10|2,0:0|0:0,0:0:0:0:
64,112,81581,6,0,L|64:224,2,95,2|2|10,0:0|0:0|0:0,0:0:0:0:
352,112,82045,2,0,L|352:320,1,190,2|2,0:0|0:0,0:0:0:0:
112,304,82509,2,0,L|112:208,1,95,10|2,0:0|0:0,0:0:0:0:
368,208,82818,6,0,L|368:96,2,95,2|2|8,0:0|0:0|0:0,0:0:0:0:
112,114,83282,2,0,L|112:306,1,190,2|0,0:0|0:0,0:0:0:0:
240,304,83746,2,0,L|240:176,1,95,10|2,0:0|0:0,0:0:0:0:
480,208,84055,6,0,L|480:112,2,95,2|0|8,0:0|0:0|0:0,0:0:0:0:
240,32,84519,2,0,L|240:240,1,190,2|0,0:0|0:0,0:0:0:0:
368,224,84983,1,10,0:0:0:0:
240,224,85138,1,2,0:0:0:0:
16,224,85293,6,0,L|16:128,2,95,4|2|10,0:0|0:0|0:0,0:0:0:0:
288,224,85756,2,0,L|288:16,1,190,2|2,0:0|0:0,0:0:0:0:
160,32,86220,2,0,L|160:144,1,95,10|2,0:0|0:0,0:0:0:0:
400,192,86530,6,0,L|400:304,2,95,2|2|10,0:0|0:0|0:0,0:0:0:0:
144,192,86994,2,0,L|144:0,1,190,2|2,0:0|0:0,0:0:0:0:
16,16,87458,2,0,L|16:144,1,95,10|2,0:0|0:0,0:0:0:0:
256,112,87767,6,0,L|256:224,2,95,2|2|8,0:0|0:0|0:0,0:0:0:0:
496,112,88231,2,0,L|496:320,1,190,2|0,0:0|0:0,0:0:0:0:
240,304,88695,2,0,L|240:176,1,95,10|2,0:0|0:0,0:0:0:0:
480,208,89004,6,0,L|480:112,2,95,2|0|10,0:0|0:0|0:0,0:0:0:0:
192,208,89468,2,0,L|192:0,1,190,2|2,0:0|0:0,0:0:0:0:
320,16,89932,1,10,0:0:0:0:
80,16,90086,6,0,L|80:240,1,190,4|2,0:0|0:0,0:0:0:0:
320,208,90550,2,0,L|320:304,1,95,2|0,0:0|0:0,0:0:0:0:
96,304,90860,2,0,L|96:208,2,95,2|0|8,0:0|0:0|0:0,0:0:0:0:
368,224,91324,6,0,L|368:16,1,190,2|2,0:0|0:0,0:0:0:0:
240,32,91787,2,0,L|240:128,1,95,2|0,0:0|0:0,0:0:0:0:
368,128,92097,1,2,0:0:0:0:
144,176,92251,2,0,L|144:288,1,95,2|8,0:0|0:0,0:0:0:0:
368,176,92561,6,0,L|368:384,1,190,2|2,0:0|0:0,0:0:0:0:
240,368,93025,2,0,L|240:272,1,95,2|0,0:0|0:0,0:0:0:0:
480,288,93334,2,0,L|480:176,2,95,2|0|8,0:0|0:0|0:0,0:0:0:0:
240,240,93798,6,0,L|240:48,1,190,2|2,0:0|0:0,0:0:0:0:
368,48,94262,2,0,L|368:144,1,95,2|0,0:0|0:0,0:0:0:0:
128,144,94571,1,2,0:0:0:0:
256,144,94726,2,0,L|256:240,1,95,2|8,0:0|0:0,0:0:0:0:
32,352,95035,6,0,L|32:160,1,190,2|2,0:0|0:0,0:0:0:0:
160,160,95499,2,0,L|160:48,1,95,2|0,0:0|0:0,0:0:0:0:
288,64,95808,2,0,L|288:176,1,95,2|0,0:0|0:0,0:0:0:0:
416,160,96117,1,8,0:0:0:0:
160,336,96272,6,0,L|160:128,1,190,2|2,0:0|0:0,0:0:0:0:
288,144,96736,2,0,L|288:48,1,95,2|0,0:0|0:0,0:0:0:0:
160,48,97045,1,2,0:0:0:0:
400,48,97200,2,0,L|400:160,1,95,2|8,0:0|0:0,0:0:0:0:
160,144,97509,6,0,L|160:336,1,190,2|0,0:0|0:0,0:0:0:0:
32,336,97973,1,2,0:0:0:0:
272,336,98128,2,0,L|272:144,1,190,2|0,0:0|0:0,0:0:0:0:
400,144,98592,1,10,0:0:0:0:
128,80,98746,6,0,L|128:288,1,190,2|2,0:0|0:0,0:0:0:0:
256,272,99210,2,0,L|256:160,1,95,2|0,0:0|0:0,0:0:0:0:
384,176,99519,2,0,L|384:80,1,95,2|2,0:0|0:0,0:0:0:0:
128,80,99829,1,10,0:0:0:0:
384,80,99983,6,0,L|384:304,1,190,4|2,0:0|0:0,0:0:0:0:
256,272,100447,2,0,L|256:384,1,95,2|0,0:0|0:0,0:0:0:0:
496,368,100756,2,0,L|496:256,2,95,2|0|8,0:0|0:0|0:0,0:0:0:0:
192,256,101220,6,0,L|192:48,1,190,2|2,0:0|0:0,0:0:0:0:
320,64,101684,2,0,L|320:160,1,95,2|0,0:0|0:0,0:0:0:0:
96,160,101994,1,2,0:0:0:0:
320,160,102148,2,0,L|320:272,1,95,2|8,0:0|0:0,0:0:0:0:
80,368,102458,6,0,L|80:160,1,190,2|2,0:0|0:0,0:0:0:0:
208,176,102921,2,0,L|208:48,1,95,2|0,0:0|0:0,0:0:0:0:
448,80,103231,2,0,L|352:80,2,95,2|0|8,0:0|0:0|0:0,0:0:0:0:
144,80,103695,6,0,L|144:288,1,190,2|2,0:0|0:0,0:0:0:0:
272,272,104159,2,0,L|272:384,1,95,2|0,0:0|0:0,0:0:0:0:
400,368,104468,1,2,0:0:0:0:
144,272,104622,2,0,L|144:160,1,95,2|8,0:0|0:0,0:0:0:0:
400,112,104932,6,0,L|400:304,1,190,2|2,0:0|0:0,0:0:0:0:
272,304,105396,2,0,L|272:208,1,95,2|0,0:0|0:0,0:0:0:0:
144,208,105705,2,0,L|32:208,2,95,2|0|8,0:0|0:0|0:0,0:0:0:0:
432,208,106169,6,0,L|432:0,1,190,2|2,0:0|0:0,0:0:0:0:
176,16,106633,2,0,L|176:144,1,95,2|0,0:0|0:0,0:0:0:0:
400,112,106942,2,0,L|400:224,1,95,2|2,0:0|0:0,0:0:0:0:
272,208,107251,1,8,0:0:0:0:
400,208,107406,1,2,0:0:0:0:
144,208,107561,6,0,L|144:320,2,95,2|0|2,0:0|0:0|0:0,0:0:0:0:
368,208,108025,2,0,L|368:112,1,95,2|0,0:0|0:0,0:0:0:0:
128,112,108334,2,0,L|128:0,1,95,2|8,0:0|0:0,0:0:0:0:
432,16,108643,6,0,L|432:224,1,190,2|2,0:0|3:0,0:0:0:0:
304,208,109107,1,2,3:0:0:0:
432,208,109262,1,2,3:0:0:0:
304,208,109416,1,2,3:0:0:0:
432,208,109571,1,2,3:0:0:0:
304,208,109726,1,2,3:0:0:0:
432,208,109880,1,2,3:0:0:0:
112,320,110035,5,4,3:2:0:0:
432,320,110344,1,4,3:2:0:0:
96,272,112045,6,0,L|96:160,1,95,2|2,0:0|0:0,0:0:0:0:
432,192,112354,2,0,L|432:0,1,190,4|4,3:2|3:2,0:0:0:0:
96,32,112818,1,4,3:2:0:0:
432,304,113128,1,4,3:2:0:0:
224,320,114365,2,0,L|224:32,1,285,4|0,3:2|0:0,0:0:0:0:
448,48,114983,5,4,3:2:0:0:
112,272,115138,1,4,3:2:0:0:
448,272,115447,1,4,3:2:0:0:
64,336,116839,6,0,L|64:48,1,285,4|0,3:2|0:0,0:0:0:0:
320,48,117458,5,4,3:2:0:0:
64,272,117612,1,4,3:2:0:0:
400,160,117921,1,4,3:2:0:0:
64,272,118231,1,4,3:2:0:0:
400,160,118540,1,4,3:2:0:0:
64,272,118849,6,0,L|64:176,1,95,4|2,3:0|3:0,0:0:0:0:
192,176,119159,1,0,3:0:0:0:
448,192,119313,2,0,L|448:64,1,95,2|0,3:1|3:0,0:0:0:0:
144,336,119622,2,0,L|144:240,1,95,2|0,3:0|3:0,0:0:0:0:
208,240,119854,1,0,3:0:0:0:
384,240,119932,6,0,L|384:16,1,190,4|10,0:0|0:0,0:0:0:0:
144,64,120396,2,0,L|144:272,1,190,2|2,0:0|0:0,0:0:0:0:
272,256,120860,1,8,0:0:0:0:
32,336,121014,6,0,L|32:128,1,190,2|0,0:0|3:0,0:0:0:0:
304,144,121478,2,0,L|304:16,1,95,10|0,0:0|0:0,0:0:0:0:
176,48,121787,2,0,L|176:160,1,95,2|0,0:0|0:0,0:0:0:0:
48,144,122097,1,10,0:0:0:0:
400,144,122406,6,0,L|400:352,1,190,2|8,0:0|0:0,0:0:0:0:
160,336,122870,2,0,L|160:128,1,190,2|0,0:0|3:0,0:0:0:0:
288,144,123334,2,0,L|288:32,1,95,10|2,0:0|0:0,0:0:0:0:
352,48,123566,1,2,0:0:0:0:
416,48,123643,6,0,L|416:160,1,95,2|2,0:0|0:0,0:0:0:0:
288,144,123952,2,0,L|288:240,1,95,10|2,0:0|0:0,0:0:0:0:
160,240,124262,2,0,L|160:128,1,95,2|2,0:0|0:0,0:0:0:0:
32,144,124571,2,0,L|32:32,1,95,10|2,0:0|0:0,0:0:0:0:
288,48,124880,6,0,L|288:240,1,190,4|10,0:0|0:0,0:0:0:0:
48,240,125344,2,0,L|48:48,1,190,2|0,0:0|3:0,0:0:0:0:
176,48,125808,1,8,0:0:0:0:
496,272,126117,6,0,L|496:160,1,95,0|0,3:0|3:0,0:0:0:0:
368,176,126427,2,0,L|368:48,1,95,10|0,0:0|0:0,0:0:0:0:
240,80,126736,2,0,L|240:176,1,95,2|0,0:0|0:0,0:0:0:0:
368,176,127045,2,0,L|368:304,1,95,10|0,0:0|0:0,0:0:0:0:
128,272,127354,6,0,L|128:80,1,190,2|8,3:2|0:0,0:0:0:0:
464,96,127973,2,0,L|464:192,1,95,0|0,3:0|3:0,0:0:0:0:
336,192,128282,1,10,0:0:0:0:
464,192,128437,1,2,0:0:0:0:
192,192,128592,5,4,0:0:0:0:
320,192,128746,1,2,3:0:0:0:
320,144,128823,1,2,3:0:0:0:
320,97,128900,1,2,3:0:0:0:
192,96,129055,1,2,3:0:0:0:
320,96,129210,1,2,3:0:0:0:
192,96,129365,1,2,3:0:0:0:
336,48,129519,1,2,3:0:0:0:
176,48,129674,1,2,3:0:0:0:
464,48,129829,6,0,L|464:256,1,190,4|10,0:0|0:0,0:0:0:0:
208,240,130293,2,0,L|208:16,1,190,2|2,0:0|0:0,0:0:0:0:
80,48,130756,1,8,0:0:0:0:
352,48,130911,6,0,L|352:272,1,190,2|0,0:0|3:0,0:0:0:0:
112,224,131375,2,0,L|112:336,1,95,10|0,0:0|0:0,0:0:0:0:
240,320,131684,2,0,L|240:208,1,95,2|0,0:0|0:0,0:0:0:0:
112,224,131994,2,0,L|112:112,1,95,10|0,0:0|0:0,0:0:0:0:
352,128,132303,6,0,L|352:32,1,95,2|0,0:0|3:0,0:0:0:0:
112,32,132612,2,0,L|112:128,1,95,8|2,0:0|0:0,0:0:0:0:
240,128,132921,2,0,L|240:224,1,95,0|0,3:0|3:0,0:0:0:0:
368,224,133231,2,0,L|368:320,1,95,10|2,0:0|0:0,0:0:0:0:
304,320,133463,1,2,0:0:0:0:
128,320,133540,6,0,L|128:224,1,95,2|2,0:0|0:0,0:0:0:0:
256,224,133849,2,0,L|256:128,1,95,10|2,0:0|0:0,0:0:0:0:
384,128,134159,2,0,L|384:16,1,95,2|2,0:0|0:0,0:0:0:0:
512,32,134468,2,0,L|512:144,1,95,10|2,0:0|0:0,0:0:0:0:
240,128,134777,6,0,L|240:320,1,190,4|10,0:0|0:0,0:0:0:0:
480,320,135241,2,0,L|480:96,1,190,2|0,0:0|3:0,0:0:0:0:
352,128,135705,1,8,0:0:0:0:
128,128,135860,6,0,L|128:336,1,190,0|0,0:0|3:0,0:0:0:0:
256,320,136324,2,0,L|256:224,1,95,10|0,0:0|0:0,0:0:0:0:
128,208,136633,2,0,L|128:96,1,95,2|0,0:0|0:0,0:0:0:0:
352,128,136942,2,0,L|352:16,1,95,10|0,0:0|0:0,0:0:0:0:
96,48,137251,6,0,L|192:48,2,95,2|0|8,3:2|3:0|0:0,0:0:0:0:
400,288,137870,2,0,L|288:288,2,95,0|0|10,3:0|3:0|0:0,0:0:0:0:
384,208,138334,2,0,L|384:128,1,47.5,2|2,0:0|0:0,0:0:0:0:
80,160,138488,5,2,3:0:0:0:
80,207,138565,1,0,0:0:0:0:
80,255,138642,1,2,3:0:0:0:
208,256,138798,1,2,3:0:0:0:
80,255,138952,1,2,3:0:0:0:
208,160,139107,1,2,3:0:0:0:
80,160,139262,1,2,3:0:0:0:
224,32,139416,1,2,3:0:0:0:
64,32,139571,1,2,3:0:0:0:
368,32,139726,6,0,L|368:240,1,190,4|10,0:0|0:0,0:0:0:0:
240,224,140189,1,2,0:0:0:0:
464,224,140344,2,0,L|464:352,1,95,2|0,0:0|0:0,0:0:0:0:
336,320,140653,2,0,L|336:208,1,95,8|2,0:0|0:0,0:0:0:0:
272,224,140885,1,2,0:0:0:0:
96,224,140963,6,0,L|96:32,1,190,2|10,0:0|0:0,0:0:0:0:
224,32,141427,1,2,0:0:0:0:
480,32,141581,2,0,L|480:144,1,95,2|0,0:0|0:0,0:0:0:0:
368,128,141891,1,8,0:0:0:0:
16,320,142200,6,0,L|112:320,2,95,2|2|10,0:0|0:0|0:0,0:0:0:0:
112,320,142664,2,0,L|112:240,1,47.5,2|2,0:0|0:0,0:0:0:0:
256,272,142818,2,0,L|256:176,1,95,2|0,0:0|0:0,0:0:0:0:
128,176,143128,2,0,L|128:48,1,95,10|2,0:0|0:0,0:0:0:0:
352,80,143437,6,0,L|480:80,2,95,0|2|8,0:0|0:0|0:0,0:0:0:0:
224,80,143901,2,0,L|224:192,1,95,2|0,0:0|0:0,0:0:0:0:
352,176,144210,2,0,L|352:288,1,95,2|10,0:0|0:0,0:0:0:0:
224,272,144519,1,0,0:0:0:0:
480,272,144674,6,0,L|480:48,1,190,4|10,0:0|0:0,0:0:0:0:
352,80,145138,1,2,0:0:0:0:
112,80,145293,2,0,L|112:208,1,95,2|0,0:0|0:0,0:0:0:0:
240,176,145602,2,0,L|240:272,1,95,8|2,0:0|0:0,0:0:0:0:
176,272,145834,1,2,0:0:0:0:
368,272,145911,6,0,L|368:80,1,190,2|10,0:0|0:0,0:0:0:0:
240,80,146375,1,2,0:0:0:0:
0,80,146530,2,0,L|0:192,1,95,2|0,0:0|0:0,0:0:0:0:
112,176,146839,1,8,0:0:0:0:
464,176,147148,6,0,L|352:176,2,95,2|2|10,0:0|0:0|0:0,0:0:0:0:
369,176,147612,2,0,L|368:256,1,47.5,2|2,0:0|0:0,0:0:0:0:
192,176,147767,2,0,L|192:288,1,95,2|0,0:0|0:0,0:0:0:0:
320,272,148076,2,0,L|320:160,1,95,10|2,0:0|0:0,0:0:0:0:
80,176,148385,5,0,0:0:0:0:
208,176,148540,2,0,L|208:64,1,95,2|8,0:0|0:0,0:0:0:0:
80,80,148849,1,2,0:0:0:0:
352,80,149004,2,0,L|352:192,1,95,0|2,0:0|0:0,0:0:0:0:
224,176,149313,2,0,L|224:288,1,95,10|0,0:0|0:0,0:0:0:0:
464,288,149622,6,0,L|464:64,1,190,4|10,0:0|0:0,0:0:0:0:
336,96,150086,1,2,0:0:0:0:
112,96,150241,2,0,L|112:224,1,95,2|0,0:0|0:0,0:0:0:0:
240,192,150550,2,0,L|240:288,1,95,8|2,0:0|0:0,0:0:0:0:
304,288,150782,1,2,0:0:0:0:
112,288,150860,6,0,L|112:80,1,190,2|10,0:0|0:0,0:0:0:0:
240,96,151324,1,2,0:0:0:0:
16,96,151478,2,0,L|16:208,1,95,2|0,0:0|0:0,0:0:0:0:
144,192,151787,2,0,L|144:288,1,95,8|0,0:0|0:0,0:0:0:0:
384,288,152097,6,0,L|480:288,2,95,2|2|10,0:0|0:0|0:0,0:0:0:0:
256,288,152561,2,0,L|256:240,1,47.5,2|2,0:0|0:0,0:0:0:0:
400,208,152715,2,0,L|400:96,1,95,2|0,0:0|0:0,0:0:0:0:
272,128,153025,2,0,L|272:16,1,95,10|2,0:0|0:0,0:0:0:0:
32,32,153334,6,0,L|32:128,1,95,0|2,0:0|0:0,0:0:0:0:
160,128,153643,2,0,L|160:240,1,95,8|2,0:0|0:0,0:0:0:0:
288,224,153952,2,0,L|288:320,1,95,0|2,0:0|0:0,0:0:0:0:
160,320,154262,1,10,0:0:0:0:
288,320,154416,1,0,0:0:0:0:
48,320,154571,6,0,L|48:112,1,190,4|10,0:0|0:0,0:0:0:0:
176,128,155035,1,2,0:0:0:0:
416,128,155189,2,0,L|416:16,1,95,2|0,0:0|0:0,0:0:0:0:
288,32,155499,2,0,L|288:144,1,95,8|2,0:0|0:0,0:0:0:0:
352,128,155731,1,2,0:0:0:0:
160,128,155808,6,0,L|160:320,1,190,2|10,0:0|0:0,0:0:0:0:
32,320,156272,1,2,0:0:0:0:
272,320,156427,2,0,L|272:208,1,95,2|0,0:0|0:0,0:0:0:0:
144,224,156736,2,0,L|144:128,1,95,8|0,0:0|0:0,0:0:0:0:
400,128,157045,6,0,L|400:256,1,95,2|2,0:0|0:0,0:0:0:0:
272,224,157354,2,0,L|272:320,1,95,10|2,0:0|0:0,0:0:0:0:
336,320,157586,1,2,0:0:0:0:
144,320,157664,2,0,L|144:224,1,95,2|0,0:0|0:0,0:0:0:0:
432,208,157973,2,0,L|432:96,1,95,10|2,0:0|0:0,0:0:0:0:
176,112,158282,5,2,3:0:0:0:
176,159,158359,1,2,3:0:0:0:
176,207,158436,1,2,3:0:0:0:
176,254,158513,1,2,3:0:0:0:
336,256,158592,2,0,L|336:160,1,95,2|2,3:0|3:0,0:0:0:0:
336,96,158824,1,2,3:0:0:0:
96,64,158901,5,2,3:0:0:0:
96,111,158978,1,2,3:0:0:0:
96,159,159055,1,2,3:0:0:0:
96,206,159132,1,2,3:0:0:0:
384,64,159210,1,2,3:0:0:0:
496,64,159365,2,0,L|496:112,1,47.5,2|2,3:0|3:0,0:0:0:0:
272,64,159519,6,0,L|272:272,1,190,6|8,0:0|0:0,0:0:0:0:
32,64,159983,2,0,L|32:272,1,190,2|2,0:0|0:0,0:0:0:0:
160,256,160447,1,8,0:1:0:0:
400,256,160602,6,0,L|400:48,1,190,2|2,0:0|0:0,0:0:0:0:
160,64,161066,2,0,L|160:160,1,95,8|2,0:1|0:0,0:0:0:0:
400,160,161375,2,0,L|304:160,2,95,2|0|8,0:0|0:0|0:1,0:0:0:0:
272,160,161839,2,0,L|272:240,1,47.5,2|2,0:0|0:0,0:0:0:0:
448,160,161994,6,0,L|448:288,1,95,2|2,0:0|0:0,0:0:0:0:
320,256,162303,2,0,L|320:144,1,95,8|2,0:1|0:0,0:0:0:0:
256,160,162535,1,2,0:0:0:0:
192,160,162612,2,0,L|192:48,1,95,2|2,0:0|0:0,0:0:0:0:
320,64,162921,2,0,L|320:160,1,95,8|2,0:1|0:0,0:0:0:0:
64,320,163231,6,0,L|64:208,1,95,2|2,1:2|1:2,0:0:0:0:
192,224,163540,2,0,L|192:128,1,95,8|2,1:0|1:2,0:0:0:0:
320,128,163849,2,0,L|320:240,1,95,2|2,1:2|1:2,0:0:0:0:
448,224,164159,2,0,L|448:320,1,95,8|2,1:0|0:0,0:0:0:0:
384,320,164391,1,2,0:0:0:0:
192,320,164468,6,0,L|192:128,1,190,6|8,0:0|0:0,0:0:0:0:
416,128,164932,2,0,L|416:336,1,190,2|2,0:0|0:0,0:0:0:0:
288,320,165396,1,8,0:1:0:0:
64,320,165550,6,0,L|64:128,1,190,2|2,0:0|0:0,0:0:0:0:
192,128,166014,2,0,L|192:16,1,95,8|2,0:1|0:0,0:0:0:0:
320,32,166324,2,0,L|416:32,2,95,2|0|8,0:0|0:0|0:1,0:0:0:0:
192,32,166787,2,0,L|192:96,1,47.5,2|2,0:0|0:0,0:0:0:0:
336,80,166942,6,0,L|336:208,1,95,2|2,0:0|0:0,0:0:0:0:
208,176,167251,2,0,L|208:288,1,95,8|2,0:1|0:0,0:0:0:0:
272,272,167483,1,2,0:0:0:0:
208,271,167561,2,0,L|208:160,1,95,2|2,0:0|0:0,0:0:0:0:
80,176,167870,2,0,L|80:48,1,95,8|2,0:1|0:0,0:0:0:0:
384,80,168179,6,0,L|384:176,1,95,2|2,1:2|1:2,0:0:0:0:
256,176,168488,2,0,L|256:272,1,95,8|2,1:0|1:2,0:0:0:0:
384,272,168798,2,0,L|288:272,2,95,2|2|8,1:2|1:2|1:0,0:0:0:0:
256,272,169262,2,0,L|256:192,1,47.5,2|2,0:0|0:0,0:0:0:0:
448,224,169416,6,0,L|448:32,1,190,6|8,0:0|0:0,0:0:0:0:
208,48,169880,2,0,L|208:240,1,190,2|2,0:0|0:0,0:0:0:0:
336,240,170344,1,8,0:1:0:0:
80,320,170499,6,0,L|80:112,1,190,2|2,0:0|0:0,0:0:0:0:
208,128,170963,2,0,L|208:0,1,95,8|2,0:1|0:0,0:0:0:0:
80,32,171272,2,0,L|80:128,1,95,2|0,0:0|0:0,0:0:0:0:
208,128,171581,1,8,0:1:0:0:
336,128,171736,2,0,L|336:192,1,47.5,2|2,0:0|0:0,0:0:0:0:
144,176,171891,6,0,L|144:272,1,95,2|2,0:0|0:0,0:0:0:0:
272,272,172200,2,0,L|272:368,1,95,8|2,0:1|0:0,0:0:0:0:
336,368,172432,1,2,0:0:0:0:
400,368,172509,2,0,L|400:272,1,95,2|2,0:0|0:0,0:0:0:0:
272,272,172818,2,0,L|272:160,1,95,8|2,0:1|0:0,0:0:0:0:
496,96,173128,6,0,L|496:192,1,95,2|2,1:2|1:2,0:0:0:0:
368,192,173437,2,0,L|368:80,1,95,8|2,1:0|1:2,0:0:0:0:
240,96,173746,2,0,L|240:208,1,95,2|2,1:2|1:2,0:0:0:0:
112,192,174055,2,0,L|112:64,1,95,8|2,1:0|0:0,0:0:0:0:
176,96,174287,1,2,0:0:0:0:
352,96,174365,6,0,L|352:320,1,190,6|8,0:0|0:0,0:0:0:0:
80,336,174829,2,0,L|80:128,1,190,2|2,0:0|0:0,0:0:0:0:
208,144,175293,1,8,0:1:0:0:
448,144,175447,6,0,L|448:352,1,190,2|2,0:0|0:0,0:0:0:0:
320,336,175911,2,0,L|320:224,1,95,8|2,0:1|0:0,0:0:0:0:
48,224,176220,2,0,L|48:112,1,95,2|0,0:0|0:0,0:0:0:0:
176,128,176530,2,0,L|176:32,1,95,8|2,0:1|0:0,0:0:0:0:
112,32,176762,1,2,0:0:0:0:
320,32,176839,6,0,L|320:144,1,95,2|2,0:0|0:0,0:0:0:0:
192,128,177148,2,0,L|192:240,1,95,8|2,0:1|0:0,0:0:0:0:
256,224,177380,1,2,0:0:0:0:
432,224,177458,2,0,L|432:112,1,95,2|2,0:0|0:0,0:0:0:0:
80,128,177767,2,0,L|80:240,1,95,8|2,0:1|0:0,0:0:0:0:
144,224,177999,1,2,0:0:0:0:
432,224,178076,5,4,0:0:0:0:
256,192,178231,12,0,179004,0:0:0:0:
352,288,179159,6,0,L|352:240,1,47.5,2|2,0:0|0:0,0:0:0:0:
192,224,179313,6,0,L|192:112,1,95,2|2,1:2|0:0,0:0:0:0:
352,128,179632,2,0,L|352:16,1,95,2|2,1:2|0:0,0:0:0:0:
128,320,179976,6,0,L|128:208,1,95,2|2,1:2|0:0,0:0:0:0:
400,240,180341,2,0,L|400:144,1,95,2|2,1:2|0:0,0:0:0:0:
128,96,180707,1,2,1:2:0:0:
400,80,180890,1,4,1:2:0:0:
256,192,181073,12,0,181988,0:0:0:0:
256,192,182138,5,6,1:2:0:0:
256,192,182292,12,0,182911,0:0:0:0:
256,288,183065,5,0,3:0:0:0:
256,240,183142,1,0,3:0:0:0:
256,193,183219,1,0,3:0:0:0:
256,145,183296,1,2,3:0:0:0:
