osu file format v14

[General]
AudioFilename: audio.mp3
AudioLeadIn: 0
PreviewTime: -1
Countdown: 1
SampleSet: Normal
StackLeniency: 0.7
Mode: 2
LetterboxInBreaks: 0
WidescreenStoryboard: 0

[Editor]
DistanceSpacing: 1.5
BeatDivisor: 4
GridSize: 4
TimelineZoom: 3.999998

[Metadata]
Title:Hiroari Shoots a Strange Bird
TitleUnicode:広有射怪鳥事
Artist:Dark PHOENiX
ArtistUnicode:Dark PHOENiX
Creator:BoberOfDarkness
Version:Boberhypers
Source:東方妖々夢 ~ Perfect Cherry Blossom.
Tags:Video Game Metal Instrumental Touhou Toho th07 Project Youyoumu Team Shanghai Alice 魂魄 妖夢 Youmu Konpaku Theme Bodom
BeatmapID:1715025
BeatmapSetID:817889

[Difficulty]
HPDrainRate:6
CircleSize:3.7
OverallDifficulty:9.6
ApproachRate:9.6
SliderMultiplier:1.7
SliderTickRate:1

[Events]
//Background and Video events
0,0,"touhou-1457517.jpg",0,0
//Break Periods
//Storyboard Layer 0 (Background)
//Storyboard Layer 1 (Fail)
//Storyboard Layer 2 (Pass)
//Storyboard Layer 3 (Foreground)
//Storyboard Layer 4 (Overlay)
//Storyboard Sound Samples

[TimingPoints]
722,280.373831775701,4,1,1,60,1,0
29880,560.747663551402,4,2,1,40,1,0
43337,280.373831775701,4,1,1,60,1,0
83851,-100,4,2,1,60,0,0
85954,560.747663551402,4,2,1,30,1,0
117355,280.373831775701,4,1,1,40,1,0
166700,-66.6666666666667,4,1,1,70,0,0
166981,-100,4,1,1,70,0,0
188569,-100,4,1,1,60,0,0
188990,-100,4,1,1,50,0,0
189831,-100,4,1,1,60,0,0
190112,-100,4,1,1,70,0,0
190322,-100,4,1,1,5,0,0

[HitObjects]
404,364,722,6,0,P|440:344|448:300,1,85,6|0,0:0|0:0,0:0:0:0:
456,228,932,1,0,0:0:0:0:
420,160,1002,1,0,0:0:0:0:
348,132,1072,1,0,0:0:0:0:
200,48,1142,1,2,0:0:0:0:
128,80,1212,1,0,0:0:0:0:
96,148,1282,5,0,0:0:0:0:
96,236,1352,1,0,0:0:0:0:
128,304,1422,1,0,0:0:0:0:
200,336,1492,1,0,0:0:0:0:
400,312,1563,2,0,P|428:252|408:208,1,85,2|0,0:0|0:0,0:0:0:0:
376,180,1773,1,0,0:0:0:0:
208,60,1843,6,0,P|136:100|128:128,1,85,2|0,0:0|0:0,0:0:0:0:
116,172,2053,1,0,0:0:0:0:
144,244,2123,1,0,0:0:0:0:
208,284,2193,1,0,0:0:0:0:
352,248,2264,1,2,0:0:0:0:
360,180,2334,1,0,0:0:0:0:
284,136,2404,5,0,0:0:0:0:
276,72,2474,1,0,0:0:0:0:
352,96,2544,1,0,0:0:0:0:
360,32,2614,1,0,0:0:0:0:
188,212,2684,2,0,P|164:183|176:104,1,85,2|0,0:0|0:0,0:0:0:0:
204,60,2894,1,0,0:0:0:0:
400,276,2964,6,0,P|416:216|392:176,1,85,2|0,0:0|0:0,0:0:0:0:
392,120,3175,1,0,0:0:0:0:
348,56,3245,1,0,0:0:0:0:
276,28,3315,1,0,0:0:0:0:
72,76,3385,1,2,0:0:0:0:
36,144,3455,1,0,0:0:0:0:
52,220,3525,5,0,0:0:0:0:
92,284,3595,1,0,0:0:0:0:
292,304,3665,1,0,0:0:0:0:
312,232,3736,1,0,0:0:0:0:
152,200,3806,2,0,P|128:156|144:92,1,85,2|0,0:0|0:0,0:0:0:0:
180,64,4016,1,0,0:0:0:0:
388,340,4086,6,0,P|444:324|452:268,1,85,2|0,0:0|0:0,0:0:0:0:
460,228,4296,1,0,0:0:0:0:
420,164,4366,1,0,0:0:0:0:
352,128,4436,1,0,0:0:0:0:
136,56,4507,2,0,P|88:64|48:112,1,85,2|0,0:0|0:0,0:0:0:0:
36,160,4717,5,0,0:0:0:0:
48,236,4787,1,0,0:0:0:0:
104,288,4857,1,0,0:0:0:0:
368,304,4927,2,0,P|400:252|364:208,1,85,2|0,0:0|0:0,0:0:0:0:
260,168,5137,1,0,0:0:0:0:
112,112,5207,6,0,P|96:52|124:0,1,85,12|0,0:0|0:0,0:0:0:0:
172,8,5418,1,0,0:0:0:0:
352,108,5488,1,0,0:0:0:0:
360,36,5558,1,0,0:0:0:0:
144,312,5628,1,8,0:0:0:0:
107,291,5698,1,0,0:0:0:0:
87,254,5768,5,0,0:0:0:0:
90,212,5838,1,0,0:0:0:0:
116,179,5908,1,0,0:0:0:0:
155,164,5978,1,0,0:0:0:0:
384,256,6049,2,0,P|392:188|376:152,1,85,8|0,0:0|0:0,0:0:0:0:
308,120,6259,1,0,0:0:0:0:
132,48,6329,6,0,P|72:56|32:100,1,85,8|0,0:0|0:0,0:0:0:0:
20,140,6539,1,0,0:0:0:0:
28,216,6609,1,0,0:0:0:0:
72,280,6679,1,0,0:0:0:0:
148,276,6750,2,0,P|176:228|152:176,1,85,8|0,0:0|0:0,0:0:0:0:
120,144,6960,5,0,0:0:0:0:
88,76,7030,1,0,0:0:0:0:
120,8,7100,1,0,0:0:0:0:
356,280,7170,2,0,P|372:240|348:180,1,85,8|0,0:0|0:0,0:0:0:0:
232,140,7380,1,0,0:0:0:0:
88,140,7450,6,0,P|52:192|56:240,1,85,8|0,0:0|0:0,0:0:0:0:
80,288,7661,1,0,0:0:0:0:
252,312,7731,1,0,0:0:0:0:
280,240,7801,1,0,0:0:0:0:
104,196,7871,6,0,P|60:152|56:100,2,85,8|0|0,0:0|0:0|0:0,0:0:0:0:
240,224,8222,1,0,0:0:0:0:
420,256,8292,2,0,P|440:208|412:144,1,85,8|0,0:0|0:0,0:0:0:0:
380,108,8502,1,0,0:0:0:0:
188,52,8572,6,0,P|128:80|112:120,1,85,8|0,0:0|0:0,0:0:0:0:
112,172,8782,1,0,0:0:0:0:
144,240,8852,1,0,0:0:0:0:
208,280,8922,1,0,0:0:0:0:
388,256,8993,1,8,0:0:0:0:
408,176,9063,1,0,0:0:0:0:
224,144,9133,5,0,0:0:0:0:
196,72,9203,1,0,0:0:0:0:
340,76,9273,1,0,0:0:0:0:
392,20,9343,1,0,0:0:0:0:
152,20,9413,2,0,P|120:52|108:100,1,85,8|0,0:0|0:0,0:0:0:0:
140,168,9623,1,0,0:0:0:0:
348,216,9693,6,0,P|364:264|316:312,1,85,0|8,0:0|0:0,0:0:0:0:
88,328,9974,1,0,0:0:0:0:
316,256,10114,1,0,0:0:0:0:
168,236,10254,2,0,P|140:168|156:128,1,85,8|0,0:0|0:0,0:0:0:0:
176,76,10464,1,0,0:0:0:0:
244,16,10535,1,8,0:0:0:0:
456,32,10675,1,0,0:0:0:0:
220,84,10815,6,0,P|192:116|208:176,1,85,0|8,0:0|0:0,0:0:0:0:
408,248,11095,1,0,0:0:0:0:
160,312,11236,1,0,0:0:0:0:
384,316,11376,2,0,P|404:268|392:208,1,85,8|0,0:0|0:0,0:0:0:0:
372,168,11586,1,0,0:0:0:0:
312,120,11656,1,8,0:0:0:0:
60,84,11796,1,0,0:0:0:0:
336,244,11936,6,0,P|360:184|340:132,1,85,0|8,0:0|0:0,0:0:0:0:
100,204,12217,2,0,P|84:132|100:100,1,85,0|0,0:0|0:0,0:0:0:0:
357,165,12497,2,0,P|377:117|337:65,1,85,8|0,0:0|0:0,0:0:0:0:
320,28,12707,1,0,0:0:0:0:
244,12,12778,1,8,0:0:0:0:
32,40,12918,1,0,0:0:0:0:
360,316,13058,6,0,P|372:224|360:204,1,85,8|0,0:0|0:0,0:0:0:0:
116,192,13338,1,0,0:0:0:0:
384,124,13479,1,8,0:0:0:0:
128,52,13619,2,0,P|92:84|88:136,1,85,0|0,0:0|0:0,0:0:0:0:
112,192,13829,1,0,0:0:0:0:
164,248,13899,1,8,0:0:0:0:
408,276,14039,1,0,0:0:0:0:
136,172,14179,5,8,0:0:0:0:
432,120,14320,1,0,0:0:0:0:
148,60,14460,1,0,0:0:0:0:
388,32,14600,1,8,0:0:0:0:
148,60,14740,2,0,P|100:108|112:148,1,85,0|0,0:0|0:0,0:0:0:0:
116,192,14950,1,0,0:0:0:0:
172,248,15021,1,8,0:0:0:0:
452,272,15161,1,0,0:0:0:0:
176,340,15301,6,0,P|144:260|144:240,1,85,8|0,0:0|0:0,0:0:0:0:
368,188,15581,1,0,0:0:0:0:
120,120,15722,1,8,0:0:0:0:
352,24,15862,2,0,P|408:52|416:88,1,85,0|0,0:0|0:0,0:0:0:0:
400,144,16072,1,0,0:0:0:0:
348,200,16142,1,8,0:0:0:0:
64,248,16282,1,0,0:0:0:0:
332,328,16422,6,0,P|328:248|308:228,1,85,8|0,0:0|0:0,0:0:0:0:
72,160,16703,1,0,0:0:0:0:
328,112,16843,1,8,0:0:0:0:
104,32,16983,2,0,P|64:52|40:104,1,85,0|0,0:0|0:0,0:0:0:0:
56,160,17193,1,0,0:0:0:0:
104,220,17264,1,8,0:0:0:0:
368,256,17404,1,0,0:0:0:0:
104,316,17544,6,0,P|88:244|100:216,1,85,8|0,0:0|0:0,0:0:0:0:
380,144,17824,1,0,0:0:0:0:
168,24,17964,2,0,P|83:40|69:66,1,85,8|0,0:0|0:0,0:0:0:0:
54,103,18175,1,0,0:0:0:0:
69,179,18245,1,0,0:0:0:0:
128,240,18315,1,0,0:0:0:0:
384,300,18385,2,0,B|412:268|412:268|380:236,1,85,8|0,0:0|0:0,0:0:0:0:
300,128,18595,1,0,0:0:0:0:
84,76,18665,6,0,P|48:116|48:168,1,85,0|8,0:0|0:0,0:0:0:0:
320,232,18946,1,0,0:0:0:0:
56,320,19086,1,0,0:0:0:0:
324,336,19226,2,0,P|336:280|312:232,1,85,8|0,0:0|0:0,0:0:0:0:
276,196,19436,1,0,0:0:0:0:
212,152,19507,1,8,0:0:0:0:
440,92,19647,1,0,0:0:0:0:
176,32,19787,6,0,P|128:64|112:112,1,85,0|8,0:0|0:0,0:0:0:0:
360,188,20067,1,0,0:0:0:0:
120,288,20207,1,0,0:0:0:0:
376,320,20348,2,0,P|408:248|392:228,1,85,8|0,0:0|0:0,0:0:0:0:
372,184,20558,1,0,0:0:0:0:
312,136,20628,1,8,0:0:0:0:
48,120,20768,1,0,0:0:0:0:
312,64,20908,5,0,0:0:0:0:
32,56,21049,2,0,P|16:120|20:168,1,85,8|0,0:0|0:0,0:0:0:0:
292,224,21329,1,0,0:0:0:0:
56,324,21469,2,0,P|36:248|48:208,1,85,8|0,0:0|0:0,0:0:0:0:
68,172,21679,1,0,0:0:0:0:
136,132,21750,1,8,0:0:0:0:
392,112,21890,1,0,0:0:0:0:
120,56,22030,6,0,P|104:108|128:156,1,85,8|0,0:0|0:0,0:0:0:0:
376,240,22310,1,0,0:0:0:0:
116,328,22450,1,8,0:0:0:0:
364,320,22591,2,0,P|420:296|420:244,1,85,0|0,0:0|0:0,0:0:0:0:
416,200,22801,1,0,0:0:0:0:
360,148,22871,1,8,0:0:0:0:
104,76,23011,1,0,0:0:0:0:
388,216,23151,6,0,P|376:140|352:116,1,85,12|0,0:0|0:0,0:0:0:0:
144,84,23432,1,0,0:0:0:0:
392,40,23572,1,8,0:0:0:0:
108,104,23712,2,0,P|80:160|100:200,1,85,0|0,0:0|0:0,0:0:0:0:
128,244,23922,1,0,0:0:0:0:
196,284,23993,1,8,0:0:0:0:
444,280,24133,1,0,0:0:0:0:
216,64,24273,6,0,P|160:112|160:144,1,85,8|0,0:0|0:0,0:0:0:0:
388,224,24553,1,0,0:0:0:0:
164,320,24693,2,0,P|114:267|117:238,1,85,8|0,0:0|0:0,0:0:0:0:
119,181,24904,1,0,0:0:0:0:
160,117,24974,1,0,0:0:0:0:
227,81,25044,1,0,0:0:0:0:
456,152,25114,2,0,P|452:80|424:64,1,85,8|0,0:0|0:0,0:0:0:0:
184,44,25394,5,8,0:0:0:0:
440,32,25535,1,0,0:0:0:0:
184,60,25675,2,0,P|148:88|156:144,1,85,0|8,0:0|0:0,0:0:0:0:
384,224,25955,2,0,P|432:296|424:328,1,85,0|0,0:0|0:0,0:0:0:0:
392,356,26165,1,0,0:0:0:0:
316,372,26236,1,8,0:0:0:0:
56,300,26376,1,0,0:0:0:0:
336,264,26516,6,0,P|352:184|336:160,1,85,2|0,0:0|0:0,0:0:0:0:
104,120,26796,1,2,0:0:0:0:
360,72,26936,1,0,0:0:0:0:
96,36,27077,1,2,0:0:0:0:
372,28,27217,2,0,P|392:72|384:132,1,85,0|2,0:0|0:0,0:0:0:0:
112,232,27497,1,0,0:0:0:0:
384,336,27637,6,0,P|400:264|384:240,1,85,0|8,0:0|0:0,0:0:0:0:
164,136,27918,1,8,0:0:0:0:
52,132,28058,1,0,0:0:0:0:
68,52,28128,1,0,0:0:0:0:
136,0,28198,1,8,0:0:0:0:
336,256,28338,1,8,0:0:0:0:
460,216,28479,1,8,0:0:0:0:
228,128,28619,1,0,0:0:0:0:
104,88,28760,5,0,0:0:0:0:
336,256,28899,1,0,0:0:0:0:
444,220,29040,1,0,0:0:0:0:
180,104,29179,1,0,0:0:0:0:
436,16,29320,1,0,0:0:0:0:
476,80,29390,1,0,0:0:0:0:
476,156,29460,1,0,0:0:0:0:
416,216,29530,1,0,0:0:0:0:
192,260,29600,1,0,0:0:0:0:
152,148,29740,1,0,0:0:0:0:
416,308,29880,6,0,P|436:240|368:144,1,170,4|8,0:0|0:0,0:0:0:0:
260,80,30721,1,0,0:0:0:0:
40,192,31001,2,0,P|32:116|88:28,1,170,2|8,0:0|0:0,0:0:0:0:
184,16,31842,1,0,0:0:0:0:
452,204,32122,6,0,P|440:124|408:108,1,85,4|0,0:0|0:0,0:0:0:0:
212,48,32683,2,0,P|144:96|148:128,1,85,8|0,0:0|0:0,0:0:0:0:
184,192,33104,1,0,0:0:0:0:
300,288,33244,2,0,P|320:252|324:204,1,85,2|2,0:0|0:0,0:0:0:0:
56,184,33805,2,0,P|52:124|96:80,1,85,8|0,0:0|0:0,0:0:0:0:
332,288,34365,6,0,P|364:196|360:176,1,85,4|0,0:0|0:0,0:0:0:0:
164,60,34926,2,0,P|88:108|84:120,1,85,8|0,0:0|0:0,0:0:0:0:
256,160,35487,2,0,P|280:264|224:328,1,170,2|8,0:0|0:0,0:0:0:0:
88,356,36328,1,0,0:0:0:0:
436,328,36608,6,0,P|488:244|468:172,1,170,4|8,0:0|0:0,0:0:0:0:
436,112,37309,1,0,0:0:0:0:
376,64,37450,1,0,0:0:0:0:
304,36,37590,1,0,0:0:0:0:
100,192,37730,2,0,L|64:136,2,42.5,2|0|2,0:0|0:0|0:0,0:0:0:0:
384,304,38291,2,0,L|404:252,2,42.5,8|0|0,0:0|0:0|0:0,0:0:0:0:
40,188,38851,6,0,P|28:124|52:72,1,85,4|0,0:0|0:0,0:0:0:0:
184,40,39412,2,0,L|224:92,1,42.5,8|0,0:0|0:0,0:0:0:0:
148,148,39693,2,0,L|96:200,1,42.5,0|0,0:0|0:0,0:0:0:0:
388,316,39973,2,0,P|396:228|376:212,1,85,2|2,0:0|0:0,0:0:0:0:
204,40,40534,2,0,P|168:84|152:136,1,85,8|0,0:0|0:0,0:0:0:0:
392,328,41094,5,4,0:0:0:0:
403,287,41234,1,0,0:0:0:0:
394,246,41374,1,0,0:0:0:0:
367,214,41514,1,0,0:0:0:0:
148,148,41655,2,0,L|84:108,1,42.5,8|0,0:0|0:0,0:0:0:0:
208,88,41936,2,0,L|240:48,1,42.5,0|0,0:0|0:0,0:0:0:0:
88,60,42216,2,0,L|64:4,1,42.5,2|2,0:0|0:0,0:0:0:0:
296,244,42496,6,0,L|320:220,3,21.25,2|0|0|0,0:0|0:0|0:0|0:0,0:0:0:0:
460,208,42777,2,0,L|464:144,1,42.5,8|8,0:0|0:0,0:0:0:0:
112,140,43197,1,8,0:0:0:0:
376,308,43337,6,0,P|388:244|360:200,1,85,12|0,0:0|0:0,0:0:0:0:
332,188,43547,1,0,0:0:0:0:
112,140,43617,1,0,0:0:0:0:
60,84,43687,1,0,0:0:0:0:
240,92,43757,1,8,0:0:0:0:
280,24,43827,1,0,0:0:0:0:
104,20,43897,5,0,0:0:0:0:
77,52,43967,1,0,0:0:0:0:
72,94,44037,1,0,0:0:0:0:
90,131,44107,1,0,0:0:0:0:
296,184,44178,2,0,P|324:236|316:292,1,85,8|0,0:0|0:0,0:0:0:0:
284,308,44388,1,0,0:0:0:0:
48,280,44458,6,0,P|44:224|64:168,1,85,8|0,0:0|0:0,0:0:0:0:
84,144,44668,1,0,0:0:0:0:
328,140,44738,1,0,0:0:0:0:
384,96,44808,1,0,0:0:0:0:
144,24,44879,2,0,P|104:72|112:116,1,85,8|0,0:0|0:0,0:0:0:0:
128,160,45089,5,0,0:0:0:0:
292,196,45159,1,0,0:0:0:0:
280,276,45229,1,0,0:0:0:0:
68,208,45299,2,0,P|48:252|60:300,1,85,8|0,0:0|0:0,0:0:0:0:
108,336,45509,1,0,0:0:0:0:
304,348,45579,6,0,P|324:296|304:240,1,85,8|0,0:0|0:0,0:0:0:0:
272,200,45790,1,0,0:0:0:0:
108,124,45860,1,0,0:0:0:0:
52,64,45930,1,0,0:0:0:0:
244,24,46000,1,8,0:0:0:0:
304,44,46070,1,0,0:0:0:0:
452,80,46140,6,0,P|480:112|460:180,1,85
392,208,46351,1,0,0:0:0:0:
144,304,46421,2,0,P|124:244|148:204,1,85,8|0,0:0|0:0,0:0:0:0:
180,160,46631,1,0,0:0:0:0:
400,272,46701,6,0,P|392:192|364:180,1,85,8|0,0:0|0:0,0:0:0:0:
328,140,46911,1,0,0:0:0:0:
140,168,46981,2,0,P|84:144|64:92,1,85,8|0,0:0|0:0,0:0:0:0:
208,40,47192,1,0,0:0:0:0:
412,128,47262,6,0,P|416:72|376:28,1,85,8|8,0:0|0:0,0:0:0:0:
232,24,47472,1,0,0:0:0:0:
48,24,47542,2,0,P|32:72|52:116,1,85,8|8,0:0|0:0,0:0:0:0:
212,172,47752,1,0,0:0:0:0:
392,240,47822,6,0,P|408:296|376:328,1,85,6|0,0:0|0:0,0:0:0:0:
120,252,48103,1,0,0:0:0:0:
408,172,48243,1,0,0:0:0:0:
104,160,48383,1,2,0:0:0:0:
96,118,48453,1,0,0:0:0:0:
113,80,48523,1,0,0:0:0:0:
168,32,48594,1,0,0:0:0:0:
392,40,48664,1,0,0:0:0:0:
144,140,48804,1,2,0:0:0:0:
424,328,48944,6,0,P|428:264|392:220,1,85,0|0,0:0|0:0,0:0:0:0:
132,236,49224,1,2,0:0:0:0:
356,140,49365,1,0,0:0:0:0:
64,188,49505,2,0,P|24:152|36:96,1,85,2|0,0:0|0:0,0:0:0:0:
44,52,49715,1,0,0:0:0:0:
108,12,49785,1,2,0:0:0:0:
384,60,49925,1,0,0:0:0:0:
132,120,50065,6,0,P|112:172|132:224,1,85,2|0,0:0|0:0,0:0:0:0:
404,268,50346,1,2,0:0:0:0:
168,336,50486,1,0,0:0:0:0:
424,304,50626,2,0,P|476:248|464:212,1,85,2|0,0:0|0:0,0:0:0:0:
452,172,50837,1,0,0:0:0:0:
392,124,50907,1,2,0:0:0:0:
136,84,51047,1,0,0:0:0:0:
416,192,51187,6,0,P|416:124|388:84,1,85,2|0,0:0|0:0,0:0:0:0:
120,184,51467,2,0,P|144:128|196:96,1,85,0|2,0:0|0:0,0:0:0:0:
448,232,51748,2,0,P|472:196|468:136,1,85,0|0,0:0|0:0,0:0:0:0:
456,80,51958,1,0,0:0:0:0:
396,32,52028,1,2,0:0:0:0:
144,20,52168,1,0,0:0:0:0:
396,332,52308,6,0,P|404:288|376:236,1,85,2|0,0:0|0:0,0:0:0:0:
132,184,52589,2,0,P|108:116|136:100,1,85,0|0,0:0|0:0,0:0:0:0:
432,180,52869,2,0,P|436:136|412:92,1,85,2|0,0:0|0:0,0:0:0:0:
368,44,53079,1,0,0:0:0:0:
296,12,53150,1,0,0:0:0:0:
56,52,53290,1,2,0:0:0:0:
308,304,53430,6,0,P|328:256|296:200,1,85,0|0,0:0|0:0,0:0:0:0:
80,152,53710,1,2,0:0:0:0:
340,84,53851,1,0,0:0:0:0:
104,80,53991,2,0,P|72:136|72:180,1,85,2|0,0:0|0:0,0:0:0:0:
92,228,54201,1,0,0:0:0:0:
156,268,54271,1,2,0:0:0:0:
400,236,54411,1,0,0:0:0:0:
100,200,54551,6,0,P|108:112|128:104,1,85,2|0,0:0|0:0,0:0:0:0:
372,120,54832,1,0,0:0:0:0:
124,64,54972,1,2,0:0:0:0:
372,260,55112,2,0,P|428:232|424:184,1,85,0|0,0:0|0:0,0:0:0:0:
404,144,55322,1,0,0:0:0:0:
336,108,55393,1,2,0:0:0:0:
76,136,55533,1,0,0:0:0:0:
352,320,55673,6,0,P|376:272|352:224,1,85,2|0,0:0|0:0,0:0:0:0:
96,204,55953,2,0,P|96:136|124:96,1,85,0|2,0:0|0:0,0:0:0:0:
324,152,56234,6,0,L|340:80,3,42.5
152,44,56514,2,0,P|108:72|108:120,1,85,2|0,0:0|0:0,0:0:0:0:
264,192,56724,1,0,0:0:0:0:
448,296,56794,6,0,P|456:240|436:180,1,85,2|0,0:0|0:0,0:0:0:0:
224,208,57075,1,0,0:0:0:0:
472,112,57215,1,2,0:0:0:0:
240,40,57355,2,0,P|176:80|180:112,1,85,0|0,0:0|0:0,0:0:0:0:
192,164,57565,1,0,0:0:0:0:
236,228,57636,1,2,0:0:0:0:
392,276,57776,1,0,0:0:0:0:
104,320,57916,6,0,P|80:264|92:212,1,85,2|0,0:0|0:0,0:0:0:0:
320,216,58196,2,0,P|312:164|272:124,1,85,0|2,0:0|0:0,0:0:0:0:
88,168,58477,2,0,P|68:124|84:60,1,85,0|0,0:0|0:0,0:0:0:0:
108,24,58687,1,0,0:0:0:0:
172,0,58757,1,2,0:0:0:0:
323,16,58897,1,0,0:0:0:0:
471,212,59037,6,0,P|457:260|418:312,1,85,2|0,0:0|0:0,0:0:0:0:
168,300,59318,1,0,0:0:0:0:
407,172,59458,1,2,0:0:0:0:
152,40,59598,2,0,P|96:72|73:123,1,85,0|0,0:0|0:0,0:0:0:0:
76,163,59808,1,0,0:0:0:0:
125,223,59879,1,2,0:0:0:0:
383,292,60019,1,0,0:0:0:0:
123,300,60159,6,0,P|99:225|112:200,1,85,2|0,0:0|0:0,0:0:0:0:
354,182,60439,2,0,P|364:127|325:76,1,85,0|2,0:0|0:0,0:0:0:0:
100,46,60720,2,0,P|58:53|31:97,1,85,0|0,0:0|0:0,0:0:0:0:
35,161,60930,1,0,0:0:0:0:
89,214,61000,1,2,0:0:0:0:
234,251,61140,1,0,0:0:0:0:
480,241,61280,6,0,P|492:204|440:152,1,85,8|0,0:0|0:0,0:0:0:0:
412,132,61491,1,0,0:0:0:0:
178,189,61561,1,0,0:0:0:0:
97,193,61631,1,0,0:0:0:0:
297,339,61701,2,0,P|356:310|366:291,1,85
364,192,61911,1,0,0:0:0:0:
328,112,61981,1,0,0:0:0:0:
256,64,62051,1,0,0:0:0:0:
32,146,62122,2,0,P|34:84|56:45,1,85,8|0,0:0|0:0,0:0:0:0:
188,32,62332,1,0,0:0:0:0:
355,305,62402,6,0,P|372:247|349:221,1,85,8|0,0:0|0:0,0:0:0:0:
200,184,62612,1,0,0:0:0:0:
40,150,62682,2,0,L|20:82,1,42.5,0|0,0:0|0:0,0:0:0:0:
238,34,62822,2,0,P|286:60|287:104,1,85,8|0,0:0|0:0,0:0:0:0:
248,136,63033,5,0,0:0:0:0:
228,196,63103,1,0,0:0:0:0:
244,260,63173,1,0,0:0:0:0:
461,299,63243,2,0,P|482:252|456:218,1,85,8|0,0:0|0:0,0:0:0:0:
317,197,63453,1,0,0:0:0:0:
123,89,63523,6,0,P|70:118|68:178,1,85,8|0,0:0|0:0,0:0:0:0:
195,218,63734,1,0,0:0:0:0:
398,188,63804,2,0,L|424:127,1,42.5,0|0,0:0|0:0,0:0:0:0:
193,45,63944,2,0,P|159:80|188:120,1,85,8|0,0:0|0:0,0:0:0:0:
220,148,64154,5,0,0:0:0:0:
248,208,64224,1,0,0:0:0:0:
220,264,64294,1,0,0:0:0:0:
28,283,64365,2,0,P|17:217|36:164,1,85,8|0,0:0|0:0,0:0:0:0:
161,169,64575,1,0,0:0:0:0:
352,228,64645,6,0,P|389:184|361:138,1,85,8|0,0:0|0:0,0:0:0:0:
339,93,64855,1,0,0:0:0:0:
129,23,64925,2,0,P|81:55|73:110,1,85,8|0,0:0|0:0,0:0:0:0:
234,163,65136,1,0,0:0:0:0:
441,237,65206,6,0,P|432:315|412:328,1,85,8|8,0:0|0:0,0:0:0:0:
253,349,65416,1,0,0:0:0:0:
64,350,65486,2,0,P|38:287|41:246,1,85,8|8,0:0|0:0,0:0:0:0:
136,204,65696,1,0,0:0:0:0:
364,216,65766,6,0,P|380:128|368:103,1,85,4|8,0:0|0:0,0:0:0:0:
103,93,66047,1,0,0:0:0:0:
421,50,66187,1,0,0:0:0:0:
145,36,66327,2,0,P|110:117|111:144,1,85,8|0,0:0|0:0,0:0:0:0:
139,182,66537,1,0,0:0:0:0:
202,226,66608,1,8,0:0:0:0:
467,206,66748,1,0,0:0:0:0:
186,333,66888,5,0,0:0:0:0:
472,290,67028,1,8,0:0:0:0:
161,174,67168,1,0,0:0:0:0:
479,107,67308,1,0,0:0:0:0:
190,33,67449,2,0,P|138:68|132:109,1,85,8|0,0:0|0:0,0:0:0:0:
144,161,67659,1,0,0:0:0:0:
196,216,67729,1,8,0:0:0:0:
439,270,67869,1,0,0:0:0:0:
161,322,68009,6,0,P|137:224|145:212,1,85,0|8,0:0|0:0,0:0:0:0:
392,178,68290,1,0,0:0:0:0:
151,82,68430,1,0,0:0:0:0:
390,293,68570,2,0,P|409:254|399:193,1,85,8|0,0:0|0:0,0:0:0:0:
364,150,68780,1,0,0:0:0:0:
295,114,68851,1,8,0:0:0:0:
44,77,68991,1,0,0:0:0:0:
341,44,69131,5,8,0:0:0:0:
66,194,69271,1,0,0:0:0:0:
319,226,69411,1,0,0:0:0:0:
439,278,69551,1,0,0:0:0:0:
125,305,69692,2,0,P|99:242|107:192,1,85,0|0,0:0|0:0,0:0:0:0:
122,153,69902,1,0,0:0:0:0:
169,93,69972,1,8,0:0:0:0:
323,46,70112,1,0,0:0:0:0:
55,48,70252,6,0,P|25:108|37:154,1,85,8|0,0:0|0:0,0:0:0:0:
324,229,70533,1,0,0:0:0:0:
49,325,70673,1,8,0:0:0:0:
353,326,70813,2,0,P|385:248|370:222,1,85,0|0,0:0|0:0,0:0:0:0:
366,180,71023,1,0,0:0:0:0:
313,122,71094,1,8,0:0:0:0:
75,62,71234,1,0,0:0:0:0:
371,39,71374,6,0,P|395:115|382:139,1,85,8|0,0:0|0:0,0:0:0:0:
116,178,71654,1,0,0:0:0:0:
387,283,71794,1,8,0:0:0:0:
118,329,71935,2,0,P|91:285|93:228,1,85,0|0,0:0|0:0,0:0:0:0:
116,178,72145,1,0,0:0:0:0:
184,143,72215,1,8,0:0:0:0:
436,110,72355,1,0,0:0:0:0:
161,45,72495,6,0,P|118:78|112:138,1,85,8|0,0:0|0:0,0:0:0:0:
372,219,72776,1,0,0:0:0:0:
97,315,72916,1,8,0:0:0:0:
355,294,73056,2,0,P|378:237|349:196,1,85,0|0,0:0|0:0,0:0:0:0:
332,151,73266,1,0,0:0:0:0:
263,113,73337,1,8,0:0:0:0:
107,74,73477,1,0,0:0:0:0:
421,32,73617,5,8,0:0:0:0:
136,184,73757,1,0,0:0:0:0:
386,255,73897,1,0,0:0:0:0:
106,342,74037,2,0,P|55:307|51:251,1,85,8|0,0:0|0:0,0:0:0:0:
48,209,74248,1,0,0:0:0:0:
91,145,74318,1,0,0:0:0:0:
159,111,74388,1,0,0:0:0:0:
381,191,74458,2,0,P|390:127|369:96,1,85,8|0,0:0|0:0,0:0:0:0:
245,61,74668,1,0,0:0:0:0:
62,33,74738,6,0,P|23:66|20:123,1,85,0|8,0:0|0:0,0:0:0:0:
273,207,75019,1,0,0:0:0:0:
24,324,75159,1,0,0:0:0:0:
286,356,75299,2,0,P|330:320|342:278,1,85,8|0,0:0|0:0,0:0:0:0:
347,218,75509,1,0,0:0:0:0:
307,152,75579,1,8,0:0:0:0:
73,84,75720,1,0,0:0:0:0:
379,53,75860,5,0,0:0:0:0:
114,214,76000,1,8,0:0:0:0:
386,307,76140,2,0,P|405:263|380:196,1,85,0|0,0:0|0:0,0:0:0:0:
143,155,76421,2,0,P|91:120|95:72,1,85,8|0,0:0|0:0,0:0:0:0:
107,28,76631,1,0,0:0:0:0:
178,1,76701,1,8,0:0:0:0:
436,57,76841,1,0,0:0:0:0:
153,86,76981,6,0,P|94:137|98:171,1,85,0|8,0:0|0:0,0:0:0:0:
358,269,77262,1,0,0:0:0:0:
68,330,77402,1,0,0:0:0:0:
324,334,77542,2,0,P|342:296|326:228,1,85,8|0,0:0|0:0,0:0:0:0:
303,186,77752,1,0,0:0:0:0:
242,139,77822,1,8,0:0:0:0:
454,80,77963,1,0,0:0:0:0:
154,50,78103,6,0,P|110:83|106:141,1,85,8|0,0:0|0:0,0:0:0:0:
412,221,78383,1,0,0:0:0:0:
94,301,78523,1,8,0:0:0:0:
359,324,78664,2,0,P|393:277|400:218,1,85,0|0,0:0|0:0,0:0:0:0:
375,179,78874,1,0,0:0:0:0:
310,137,78944,1,8,0:0:0:0:
51,92,79084,1,0,0:0:0:0:
323,253,79224,6,0,P|351:191|337:149,1,85,12|0,0:0|0:0,0:0:0:0:
105,72,79505,1,0,0:0:0:0:
400,37,79645,1,8,0:0:0:0:
113,164,79785,2,0,P|66:216|69:255,1,85,0|0,0:0|0:0,0:0:0:0:
83,301,79995,1,0,0:0:0:0:
145,344,80065,1,8,0:0:0:0:
402,310,80206,1,0,0:0:0:0:
159,174,80346,5,8,0:0:0:0:
420,91,80486,1,0,0:0:0:0:
176,33,80626,1,0,0:0:0:0:
448,12,80766,1,8,0:0:0:0:
184,79,80907,2,0,P|138:102|125:151,1,85,0|0,0:0|0:0,0:0:0:0:
124,207,81117,1,0,0:0:0:0:
180,258,81187,1,8,0:0:0:0:
435,257,81327,1,0,0:0:0:0:
202,153,81467,5,8,0:0:0:0:
453,135,81608,2,0,P|451:81|413:31,1,85,0|0,0:0|0:0,0:0:0:0:
173,26,81888,1,8,0:0:0:0:
414,19,82028,2,0,P|469:49|476:86,1,85,0|0,0:0|0:0,0:0:0:0:
467,142,82238,1,0,0:0:0:0:
408,190,82308,1,8,0:0:0:0:
120,253,82449,1,0,0:0:0:0:
380,299,82589,5,2,0:0:0:0:
104,186,82729,1,0,0:0:0:0:
412,144,82869,1,2,0:0:0:0:
112,68,83009,1,0,0:0:0:0:
437,31,83150,1,2,0:0:0:0:
204,156,83290,5,0,0:0:0:0:
117,127,83430,1,2,0:0:0:0:
202,57,83570,1,0,0:0:0:0:
104,27,83710,1,0,0:0:0:0:
256,192,83851,12,0,85112,0:0:0:0:
148,360,85393,5,0,0:0:0:0:
246,330,85533,1,0,0:0:0:0:
161,260,85673,1,0,0:0:0:0:
248,231,85813,1,0,0:0:0:0:
180,166,85954,6,0,P|155:110|247:44,1,170,2|2,0:0|0:0,0:0:0:0:
344,24,86795,1,0,0:0:0:0:
460,92,87075,2,0,L|448:216,1,85,2|0,0:0|0:0,0:0:0:0:
296,228,87636,1,2,0:0:0:0:
428,316,87916,1,0,0:0:0:0:
208,344,88196,6,0,L|160:244,1,85,2|0,0:0|0:0,0:0:0:0:
272,172,88757,1,2,0:0:0:0:
64,88,89318,1,0,0:0:0:0:
256,52,89879,1,2,0:0:0:0:
56,216,90439,6,0,P|80:288|192:336,1,170,2|2,0:0|0:0,0:0:0:0:
336,312,91281,1,0,0:0:0:0:
280,188,91561,1,2,0:0:0:0:
436,160,91841,1,0,0:0:0:0:
328,72,92122,1,2,0:0:0:0:
184,32,92402,1,0,0:0:0:0:
356,260,92682,6,0,P|372:184|296:124,1,170,2|0,0:0|0:0,0:0:0:0:
144,100,93804,1,0,0:0:0:0:
280,248,94365,1,0,0:0:0:0:
72,320,94925,6,0,P|64:192|72:164,1,127.5,2|0,0:0|0:0,0:0:0:0:
120,132,95486,1,0,0:0:0:0:
260,100,95767,1,0,0:0:0:0:
128,56,96047,1,2,0:0:0:0:
160,236,96608,1,0,0:0:0:0:
432,312,97168,6,0,P|436:208|408:168,1,127.5,2|0,0:0|0:0,0:0:0:0:
360,140,97729,1,0,0:0:0:0:
256,104,98010,1,0,0:0:0:0:
392,44,98290,1,2,0:0:0:0:
252,24,98851,1,0,0:0:0:0:
64,152,99411,6,0,P|36:216|92:276,1,127.5,2|0,0:0|0:0,0:0:0:0:
180,304,99972,1,2,0:0:0:0:
328,284,100253,1,2,0:0:0:0:
208,216,100533,1,2,0:0:0:0:
340,156,100954,1,0,0:0:0:0:
220,120,101094,1,2,0:0:0:0:
336,56,101374,1,0,0:0:0:0:
168,36,101654,6,0,L|152:144,1,85,2|0,0:0|0:0,0:0:0:0:
264,256,102215,1,2,0:0:0:0:
424,332,103337,1,0,0:0:0:0:
440,248,103477,1,0,0:0:0:0:
388,168,103617,1,0,0:0:0:0:
300,128,103757,1,0,0:0:0:0:
80,184,103897,6,0,L|64:108,1,42.5,6|0,0:0|0:0,0:0:0:0:
148,108,104178,2,0,L|156:52,1,42.5,0|0,0:0|0:0,0:0:0:0:
360,264,104458,2,0,L|348:208,1,42.5,8|0,0:0|0:0,0:0:0:0:
252,168,104739,2,0,L|268:104,1,42.5,0|0,0:0|0:0,0:0:0:0:
468,168,105019,6,0,L|440:104,1,42.5,2|0,0:0|0:0,0:0:0:0:
352,96,105299,2,0,L|332:48,1,42.5,0|0,0:0|0:0,0:0:0:0:
128,52,105580,1,8,0:0:0:0:
64,128,105720,1,0,0:0:0:0:
92,220,105860,1,0,0:0:0:0:
164,292,106000,1,0,0:0:0:0:
412,304,106140,6,0,L|404:252,1,42.5,6|0,0:0|0:0,0:0:0:0:
316,212,106421,2,0,L|368:184,1,42.5,0|0,0:0|0:0,0:0:0:0:
120,192,106701,2,0,L|80:136,1,42.5,8|0,0:0|0:0,0:0:0:0:
24,108,106982,2,0,L|56:72,1,42.5,0|0,0:0|0:0,0:0:0:0:
272,160,107262,6,0,L|316:100,1,42.5,0|0,0:0|0:0,0:0:0:0:
236,60,107542,2,0,L|224:12,1,42.5,0|0,0:0|0:0,0:0:0:0:
436,288,107823,2,0,L|376:252,1,42.5,8|0,0:0|0:0,0:0:0:0:
288,236,108103,2,0,L|280:168,1,42.5,0|0,0:0|0:0,0:0:0:0:
485,145,108383,6,0,L|465:89,1,42.5,6|0,0:0|0:0,0:0:0:0:
380,84,108664,2,0,L|400:40,1,42.5,0|0,0:0|0:0,0:0:0:0:
188,40,108944,2,0,L|140:76,1,42.5,8|0,0:0|0:0,0:0:0:0:
68,136,109225,2,0,L|96:200,1,42.5,0|0,0:0|0:0,0:0:0:0:
332,232,109505,6,0,L|328:280,1,42.5,2|0,0:0|0:0,0:0:0:0:
224,288,109785,2,0,L|232:368,1,42.5,0|0,0:0|0:0,0:0:0:0:
452,316,110066,1,8,0:0:0:0:
484,248,110206,1,0,0:0:0:0:
456,176,110346,1,0,0:0:0:0:
392,132,110486,1,0,0:0:0:0:
176,32,110626,5,6,0:0:0:0:
148,108,110767,1,0,0:0:0:0:
236,132,110907,1,0,0:0:0:0:
256,216,111047,1,0,0:0:0:0:
52,192,111187,1,8,0:0:0:0:
20,264,111327,1,0,0:0:0:0:
48,340,111468,1,0,0:0:0:0:
120,372,111608,1,0,0:0:0:0:
352,360,111748,5,0,0:0:0:0:
380,280,111888,1,0,0:0:0:0:
344,196,112028,1,0,0:0:0:0:
268,152,112168,1,0,0:0:0:0:
56,176,112309,1,2,0:0:0:0:
132,120,112449,1,0,0:0:0:0:
64,72,112589,1,0,0:0:0:0:
152,36,112729,1,0,0:0:0:0:
368,288,112869,6,0,L|384:224,1,42.5,6|0,0:0|0:0,0:0:0:0:
304,184,113150,2,0,L|296:136,1,42.5,0|2,0:0|0:0,0:0:0:0:
96,120,113430,2,0,L|148:88,1,42.5,0|0,0:0|0:0,0:0:0:0:
208,72,113711,2,0,L|152:40,1,42.5,0|0,0:0|0:0,0:0:0:0:
372,288,113991,6,0,L|420:264,1,42.5,10|0,0:0|0:0,0:0:0:0:
484,200,114271,2,0,L|464:152,1,42.5,0|0,0:0|0:0,0:0:0:0:
260,40,114552,1,0,0:0:0:0:
196,84,114692,1,0,0:0:0:0:
172,156,114832,1,0,0:0:0:0:
200,228,114972,1,0,0:0:0:0:
424,300,115112,6,0,L|436:236,1,42.5,6|0,0:0|0:0,0:0:0:0:
336,220,115393,2,0,L|328:168,1,42.5,0|2,0:0|0:0,0:0:0:0:
72,148,115673,2,0,L|108:88,1,42.5,0|0,0:0|0:0,0:0:0:0:
208,96,115954,2,0,L|240:60,1,42.5,0|0,0:0|0:0,0:0:0:0:
460,192,116234,6,0,L|444:128,1,42.5,10|0,0:0|0:0,0:0:0:0:
352,128,116514,2,0,L|368:76,1,42.5,0|0,0:0|0:0,0:0:0:0:
128,112,116795,2,0,L|196:104,1,42.5,0|0,0:0|0:0,0:0:0:0:
324,96,117075,2,0,L|252:76,1,42.5,0|0,0:0|0:0,0:0:0:0:
80,44,117355,6,0,P|48:72|40:144,1,85,2|0,0:0|0:0,0:0:0:0:
284,200,117635,2,0,L|376:200,2,85,0|2|0,0:0|0:0|0:0,0:0:0:0:
60,280,118055,1,0,0:0:0:0:
308,300,118196,2,0,L|316:216,1,85,2|0,0:0|0:0,0:0:0:0:
100,136,118476,5,2,0:0:0:0:
344,108,118616,1,0,0:0:0:0:
128,88,118756,2,0,L|36:80,1,85,0|2,0:0|0:0,0:0:0:0:
120,36,119037,1,0,0:0:0:0:
416,48,119177,1,0,0:0:0:0:
184,160,119317,2,0,P|148:200|176:268,1,127.5,2|0,0:0|0:0,0:0:0:0:
416,280,119597,6,0,P|448:240|440:192,1,85,0|2,0:0|0:0,0:0:0:0:
436,160,119784,1,0,0:0:0:0:
404,120,119831,1,0,0:0:0:0:
360,96,119878,1,0,0:0:0:0:
84,128,120018,6,0,L|72:84,1,28.3333333333333,0|0,0:0|0:0,0:0:0:0:
340,256,120158,1,2,0:0:0:0:
356,208,120205,1,0,0:0:0:0:
344,160,120252,1,0,0:0:0:0:
312,124,120298,1,0,0:0:0:0:
72,80,120439,6,0,L|80:44,1,28.3333333333333,0|0,0:0|0:0,0:0:0:0:
344,32,120579,1,2,0:0:0:0:
372,76,120626,1,0,0:0:0:0:
376,124,120672,1,0,0:0:0:0:
344,160,120719,1,0,0:0:0:0:
92,184,120859,6,0,L|80:228,1,28.3333333333333,0|0,0:0|0:0,0:0:0:0:
400,344,120999,1,2,0:0:0:0:
419,323,121045,1,0,0:0:0:0:
425,296,121092,1,0,0:0:0:0:
416,269,121139,1,0,0:0:0:0:
204,232,121280,5,8,0:0:0:0:
184,211,121326,1,0,0:0:0:0:
178,184,121373,1,0,0:0:0:0:
187,157,121420,1,8,0:0:0:0:
392,108,121560,2,0,L|408:72,1,28.3333333333333,8|0,0:0|0:0,0:0:0:0:
164,80,121700,2,0,L|136:36,1,28.3333333333333,8|0,0:0|0:0,0:0:0:0:
400,272,121840,6,0,L|360:176,1,85,6|0,0:0|0:0,0:0:0:0:
96,168,122121,2,0,L|128:64,1,85,0|0,0:0|0:0,0:0:0:0:
428,280,122401,2,0,P|440:216|416:196,1,85,2|0,0:0|0:0,0:0:0:0:
384,156,122612,1,0,0:0:0:0:
312,120,122682,1,0,0:0:0:0:
80,104,122822,1,2,0:0:0:0:
324,268,122962,6,0,P|316:212|272:172,1,85,0|0,0:0|0:0,0:0:0:0:
72,140,123242,1,2,0:0:0:0:
176,120,123383,1,0,0:0:0:0:
416,100,123523,2,0,P|448:136|444:188,1,85,0|0,0:0|0:0,0:0:0:0:
424,244,123733,1,0,0:0:0:0:
360,288,123803,1,2,0:0:0:0:
124,292,123943,1,0,0:0:0:0:
360,212,124083,6,0,L|368:120,1,85,2|0,0:0|0:0,0:0:0:0:
100,96,124364,1,0,0:0:0:0:
352,64,124504,1,0,0:0:0:0:
112,168,124644,2,0,P|76:216|72:272,1,85,2|0,0:0|0:0,0:0:0:0:
92,316,124855,1,0,0:0:0:0:
140,376,124925,1,2,0:0:0:0:
316,352,125065,1,0,0:0:0:0:
484,232,125205,6,0,P|472:192|428:140,1,85,2|0,0:0|0:0,0:0:0:0:
232,84,125485,2,0,P|196:44|152:32,1,85,0|2,0:0|0:0,0:0:0:0:
420,228,125766,2,0,P|416:172|384:124,1,85,0|0,0:0|0:0,0:0:0:0:
352,88,125976,1,0,0:0:0:0:
284,56,126046,1,2,0:0:0:0:
44,40,126186,1,0,0:0:0:0:
332,312,126326,6,0,P|380:264|376:232,1,85,2|0,0:0|0:0,0:0:0:0:
148,160,126607,1,0,0:0:0:0:
404,124,126747,1,0,0:0:0:0:
156,40,126887,2,0,P|120:92|120:136,1,85,2|0,0:0|0:0,0:0:0:0:
156,180,127097,1,0,0:0:0:0:
224,220,127168,1,0,0:0:0:0:
456,264,127308,1,2,0:0:0:0:
212,336,127448,6,0,P|188:272|192:248,1,85,0|0,0:0|0:0,0:0:0:0:
440,176,127728,2,0,P|416:128|368:84,1,85,2|0,0:0|0:0,0:0:0:0:
120,160,128009,2,0,P|104:96|132:76,1,85,2|0,0:0|0:0,0:0:0:0:
156,52,128219,1,0,0:0:0:0:
208,36,128289,1,2,0:0:0:0:
436,60,128429,1,0,0:0:0:0:
148,176,128569,6,0,P|128:236|128:280,1,85,2|0,0:0|0:0,0:0:0:0:
424,264,128850,2,0,P|420:332|392:356,1,85,0|2,0:0|0:0,0:0:0:0:
132,324,129130,2,0,P|104:260|104:216,1,85,0|0,0:0|0:0,0:0:0:0:
128,172,129340,1,0,0:0:0:0:
188,120,129411,1,2,0:0:0:0:
444,104,129551,1,0,0:0:0:0:
140,28,129691,6,0,P|100:80|100:120,1,85,2|0,0:0|0:0,0:0:0:0:
340,184,129971,2,0,P|336:240|288:272,1,85,2|0,0:0|0:0,0:0:0:0:
96,304,130252,1,0,0:0:0:0:
60,224,130322,1,0,0:0:0:0:
212,192,130392,1,2,0:0:0:0:
276,160,130462,1,0,0:0:0:0:
456,164,130532,2,0,P|444:112|396:72,1,85,2|0,0:0|0:0,0:0:0:0:
352,44,130742,1,0,0:0:0:0:
124,60,130812,6,0,L|104:156,1,85,2|0,0:0|0:0,0:0:0:0:
392,224,131093,1,0,0:0:0:0:
272,280,131233,1,2,0:0:0:0:
44,340,131373,2,0,P|24:292|44:228,1,85,0|0,0:0|0:0,0:0:0:0:
56,188,131583,1,0,0:0:0:0:
120,144,131654,1,2,0:0:0:0:
400,112,131794,1,0,0:0:0:0:
184,36,131934,6,0,P|132:80|132:112,1,85,2|0,0:0|0:0,0:0:0:0:
400,192,132214,2,0,P|420:252|396:288,1,85,0|2,0:0|0:0,0:0:0:0:
176,324,132495,2,0,P|112:280|96:240,1,85,0|0,0:0|0:0,0:0:0:0:
128,200,132705,1,0,0:0:0:0:
180,144,132775,1,2,0:0:0:0:
408,96,132915,1,0,0:0:0:0:
176,32,133055,6,0,P|148:96|152:140,1,85,2|0,0:0|0:0,0:0:0:0:
396,232,133336,1,0,0:0:0:0:
116,320,133476,1,2,0:0:0:0:
376,312,133616,2,0,P|384:256|352:204,1,85,0|0,0:0|0:0,0:0:0:0:
328,168,133826,1,0,0:0:0:0:
260,132,133897,1,2,0:0:0:0:
20,100,134037,1,0,0:0:0:0:
344,40,134177,6,0,P|372:100|360:136,1,85,2|0,0:0|0:0,0:0:0:0:
108,156,134457,2,0,P|96:224|120:240,1,85,0|2,0:0|0:0,0:0:0:0:
352,332,134738,2,0,P|389:261|388:229,1,85,0|0,0:0|0:0,0:0:0:0:
384,184,134948,1,0,0:0:0:0:
344,120,135018,1,2,0:0:0:0:
116,80,135158,1,0,0:0:0:0:
432,204,135298,6,0,P|432:136|404:108,1,85,8|0,0:0|0:0,0:0:0:0:
364,72,135509,1,0,0:0:0:0:
196,48,135579,1,0,0:0:0:0:
152,112,135649,1,0,0:0:0:0:
352,160,135719,1,8,0:0:0:0:
388,236,135789,1,0,0:0:0:0:
220,332,135859,5,0,0:0:0:0:
194,298,135929,1,0,0:0:0:0:
190,257,135999,1,0,0:0:0:0:
209,219,136069,1,0,0:0:0:0:
368,128,136140,1,8,0:0:0:0:
428,80,136210,1,0,0:0:0:0:
248,64,136280,1,0,0:0:0:0:
188,16,136350,1,0,0:0:0:0:
408,288,136420,6,0,P|420:240|376:192,1,85,8|0,0:0|0:0,0:0:0:0:
364,168,136630,1,0,0:0:0:0:
160,148,136700,1,0,0:0:0:0:
128,76,136770,1,0,0:0:0:0:
352,264,136840,2,0,P|392:224|388:164,1,85,8|0,0:0|0:0,0:0:0:0:
396,120,137051,5,0,0:0:0:0:
364,52,137121,1,0,0:0:0:0:
292,28,137191,1,0,0:0:0:0:
112,64,137261,2,0,P|84:100|100:152,1,85,8|0,0:0|0:0,0:0:0:0:
136,200,137471,1,0,0:0:0:0:
368,304,137541,6,0,P|384:264|352:196,1,85,8|0,0:0|0:0,0:0:0:0:
328,168,137752,1,0,0:0:0:0:
172,128,137822,1,8,0:0:0:0:
112,64,137892,1,0,0:0:0:0:
320,51,137962,1,0,0:0:0:0:
380,100,138032,1,0,0:0:0:0:
396,176,138102,5,8,0:0:0:0:
348,236,138172,1,0,0:0:0:0:
152,272,138242,1,0,0:0:0:0:
88,312,138312,1,0,0:0:0:0:
304,328,138383,2,0,P|336:280|316:232,1,85,8|0,0:0|0:0,0:0:0:0:
276,200,138593,1,0,0:0:0:0:
92,160,138663,6,0,P|88:92|116:64,1,85,8|0,0:0|0:0,0:0:0:0:
232,52,138873,1,0,0:0:0:0:
392,48,138943,2,0,P|428:88|432:136,1,85,8|0,0:0|0:0,0:0:0:0:
296,240,139154,1,0,0:0:0:0:
124,312,139224,6,0,P|88:232|96:224,1,85,8|8,0:0|0:0,0:0:0:0:
212,216,139434,1,0,0:0:0:0:
344,200,139504,2,0,P|348:100|340:92,1,85,8|8,0:0|0:0,0:0:0:0:
200,80,139714,1,0,0:0:0:0:
44,116,139784,6,0,P|29:83|32:24,1,85,6|0,0:0|0:0,0:0:0:0:
312,292,140065,2,0,P|316:216|292:196,1,85,0|0,0:0|0:0,0:0:0:0:
80,148,140345,1,2,0:0:0:0:
340,132,140485,1,0,0:0:0:0:
356,84,140555,1,0,0:0:0:0:
312,36,140626,1,2,0:0:0:0:
72,12,140766,1,0,0:0:0:0:
388,320,140906,6,0,P|400:232|380:216,1,85,0|0,0:0|0:0,0:0:0:0:
176,168,141186,1,2,0:0:0:0:
448,108,141326,1,0,0:0:0:0:
196,36,141467,2,0,P|156:72|172:136,1,85,0|0,0:0|0:0,0:0:0:0:
180,172,141677,1,0,0:0:0:0:
244,212,141747,1,2,0:0:0:0:
496,264,141887,1,0,0:0:0:0:
204,328,142027,6,0,P|144:260|148:240,1,85,2|0,0:0|0:0,0:0:0:0:
152,232,142214,1,0,0:0:0:0:
168,192,142261,1,0,0:0:0:0:
196,160,142308,1,2,0:0:0:0:
232,136,142354,1,0,0:0:0:0:
448,256,142448,5,0,0:0:0:0:
460,229,142494,1,0,0:0:0:0:
462,201,142541,1,0,0:0:0:0:
460,160,142588,2,0,P|416:88|380:80,1,85,2|0,0:0|0:0,0:0:0:0:
372,48,142798,1,0,0:0:0:0:
308,32,142869,1,2,0:0:0:0:
160,32,143009,1,0,0:0:0:0:
416,320,143149,6,0,P|432:272|396:220,1,85,2|0,0:0|0:0,0:0:0:0:
360,192,143359,1,0,0:0:0:0:
144,160,143429,2,0,P|136:76|136:72,1,85,2|0,0:0|0:0,0:0:0:0:
444,176,143710,2,0,P|480:120|456:88,1,85,2|0,0:0|0:0,0:0:0:0:
448,40,143920,1,0,0:0:0:0:
376,16,143990,1,2,0:0:0:0:
112,100,144130,1,0,0:0:0:0:
364,184,144270,6,0,P|384:244|356:288,1,85,2|0,0:0|0:0,0:0:0:0:
112,300,144551,1,2,0:0:0:0:
376,344,144691,1,0,0:0:0:0:
128,52,144831,2,0,P|64:92|60:120,1,85,2|0,0:0|0:0,0:0:0:0:
60,172,145041,1,0,0:0:0:0:
104,236,145112,1,0,0:0:0:0:
360,268,145252,1,2,0:0:0:0:
152,184,145392,5,0,0:0:0:0:
392,136,145532,1,0,0:0:0:0:
144,96,145672,2,0,P|164:40|216:12,1,85,2|0,0:0|0:0,0:0:0:0:
448,264,145953,2,0,P|472:224|460:160,1,85,2|0,0:0|0:0,0:0:0:0:
444,116,146163,1,0,0:0:0:0:
380,76,146233,1,2,0:0:0:0:
128,52,146373,1,0,0:0:0:0:
384,272,146513,6,0,P|392:200|368:168,1,85,2|0,0:0|0:0,0:0:0:0:
120,200,146794,2,0,P|104:140|128:108,1,85,2|0,0:0|0:0,0:0:0:0:
372,228,147074,2,0,P|408:200|404:132,1,85,2|0,0:0|0:0,0:0:0:0:
400,88,147284,1,0,0:0:0:0:
328,44,147355,1,0,0:0:0:0:
100,36,147495,1,2,0:0:0:0:
364,344,147635,6,0,P|396:284|372:252,1,85,0|0,0:0|0:0,0:0:0:0:
160,184,147915,1,2,0:0:0:0:
388,128,148055,1,0,0:0:0:0:
159,50,148196,1,2,0:0:0:0:
95,90,148266,1,0,0:0:0:0:
83,166,148336,1,0,0:0:0:0:
131,226,148406,1,0,0:0:0:0:
400,303,148476,2,0,P|412:239|392:203,1,85,2|0,0:0|0:0,0:0:0:0:
265,163,148686,1,0,0:0:0:0:
124,308,148756,6,0,P|124:240|140:216,1,85,6|0,0:0|0:0,0:0:0:0:
224,160,149037,1,0,0:0:0:0:
472,108,149177,1,2,0:0:0:0:
212,24,149317,2,0,P|164:92|172:112,1,85,0|0,0:0|0:0,0:0:0:0:
208,156,149527,1,0,0:0:0:0:
276,192,149597,1,2,0:0:0:0:
432,240,149738,1,0,0:0:0:0:
136,316,149878,6,0,L|128:220,1,85,2|0,0:0|0:0,0:0:0:0:
420,204,150158,2,0,P|416:152|372:116,1,85,0|2,0:0|0:0,0:0:0:0:
148,36,150439,2,0,P|96:64|88:112,1,85,0|0,0:0|0:0,0:0:0:0:
88,164,150649,1,0,0:0:0:0:
140,220,150719,1,2,0:0:0:0:
408,272,150859,1,0,0:0:0:0:
136,340,150999,6,0,P|112:272|120:240,1,85,6|0,0:0|0:0,0:0:0:0:
364,204,151280,1,0,0:0:0:0:
148,140,151420,1,2,0:0:0:0:
388,52,151560,2,0,P|420:108|424:152,1,85,0|0,0:0|0:0,0:0:0:0:
364,204,151770,1,0,0:0:0:0:
160,192,151840,2,0,P|164:128|188:104,1,85,2|0,0:0|0:0,0:0:0:0:
440,264,152121,6,0,P|440:188|408:168,1,85,2|0,0:0|0:0,0:0:0:0:
212,132,152401,1,0,0:0:0:0:
340,48,152541,1,2,0:0:0:0:
188,68,152682,2,0,P|161:100|145:146,1,85,0|0,0:0|0:0,0:0:0:0:
170,215,152892,1,0,0:0:0:0:
234,255,152962,1,2,0:0:0:0:
388,276,153102,1,0,0:0:0:0:
48,308,153242,6,0,P|72:240|84:232,1,85,12|0,0:0|0:0,0:0:0:0:
340,184,153523,1,0,0:0:0:0:
88,116,153663,1,8,0:0:0:0:
352,316,153803,2,0,P|400:256|400:224,1,85,0|0,0:0|0:0,0:0:0:0:
380,176,154013,1,0,0:0:0:0:
328,120,154083,1,8,0:0:0:0:
60,48,154224,1,0,0:0:0:0:
332,228,154364,6,0,P|352:156|344:132,1,85,12|0,0:0|0:0,0:0:0:0:
268,64,154644,1,0,0:0:0:0:
32,24,154784,1,8,0:0:0:0:
384,32,154925,2,0,P|416:64|424:136,1,85,0|0,0:0|0:0,0:0:0:0:
412,176,155135,1,0,0:0:0:0:
352,228,155205,1,8,0:0:0:0:
144,280,155345,1,0,0:0:0:0:
440,312,155485,6,0,P|452:256|416:216,1,85,12|0,0:0|0:0,0:0:0:0:
180,132,155766,1,0,0:0:0:0:
468,96,155906,1,8,0:0:0:0:
240,36,156046,2,0,P|192:88|188:132,1,85,0|0,0:0|0:0,0:0:0:0:
200,176,156256,1,0,0:0:0:0:
252,232,156326,1,8,0:0:0:0:
396,288,156467,1,0,0:0:0:0:
116,328,156607,6,0,P|96:260|108:232,1,85,0|8,0:0|0:0,0:0:0:0:
348,204,156887,1,0,0:0:0:0:
104,112,157027,1,0,0:0:0:0:
380,68,157168,1,8,0:0:0:0:
84,16,157308,1,0,0:0:0:0:
332,8,157448,2,0,P|360:56|348:112,1,85,8|0,0:0|0:0,0:0:0:0:
124,204,157728,5,6,0:0:0:0:
372,296,157869,1,0,0:0:0:0:
396,252,157916,1,0,0:0:0:0:
388,200,157963,1,0,0:0:0:0:
352,168,158009,1,0,0:0:0:0:
256,192,158079,5,0,0:0:0:0:
272,116,158149,1,2,0:0:0:0:
340,80,158219,1,0,0:0:0:0:
432,128,158289,1,0,0:0:0:0:
440,52,158359,1,0,0:0:0:0:
352,112,158429,1,0,0:0:0:0:
320,36,158499,1,0,0:0:0:0:
120,40,158569,2,0,P|72:108|80:132,1,85,2|0,0:0|0:0,0:0:0:0:
116,172,158780,1,0,0:0:0:0:
304,212,158850,6,0,P|340:144|320:112,1,85,2|0,0:0|0:0,0:0:0:0:
296,80,159060,1,0,0:0:0:0:
144,176,159130,1,0,0:0:0:0:
128,92,159200,1,0,0:0:0:0:
308,144,159270,1,2,0:0:0:0:
348,212,159340,1,0,0:0:0:0:
344,288,159411,5,0,0:0:0:0:
296,348,159481,1,0,0:0:0:0:
88,332,159551,1,0,0:0:0:0:
64,256,159621,1,0,0:0:0:0:
292,100,159691,2,0,P|320:136|316:192,1,85,2|0,0:0|0:0,0:0:0:0:
260,232,159901,1,0,0:0:0:0:
68,216,159971,6,0,P|48:140|52:120,1,85,2|0,0:0|0:0,0:0:0:0:
104,76,160182,1,0,0:0:0:0:
292,116,160252,1,0,0:0:0:0:
344,60,160322,1,0,0:0:0:0:
128,124,160392,1,2,0:0:0:0:
99,155,160462,1,0,0:0:0:0:
90,196,160532,5,0,0:0:0:0:
103,236,160602,1,0,0:0:0:0:
296,248,160672,1,0,0:0:0:0:
340,308,160742,1,0,0:0:0:0:
136,324,160812,2,0,P|100:272|116:232,1,85,2|0,0:0|0:0,0:0:0:0:
148,188,161023,1,0,0:0:0:0:
364,212,161093,6,0,P|372:152|336:112,1,85,2|0,0:0|0:0,0:0:0:0:
300,88,161303,1,0,0:0:0:0:
136,64,161373,1,0,0:0:0:0:
100,132,161443,1,0,0:0:0:0:
308,172,161513,1,2,0:0:0:0:
328,252,161583,1,0,0:0:0:0:
132,216,161654,5,0,0:0:0:0:
101,244,161724,1,0,0:0:0:0:
97,285,161794,1,0,0:0:0:0:
121,319,161864,1,0,0:0:0:0:
348,344,161934,2,0,P|372:296|344:244,1,85,2|0,0:0|0:0,0:0:0:0:
216,200,162144,1,0,0:0:0:0:
60,244,162214,6,0,P|12:192|20:144,1,85,12|0,0:0|0:0,0:0:0:0:
12,116,162425,1,0,0:0:0:0:
44,60,162495,1,0,0:0:0:0:
104,36,162565,1,0,0:0:0:0:
356,60,162635,2,0,P|408:104|416:144,1,85,8|0,0:0|0:0,0:0:0:0:
408,196,162845,5,0,0:0:0:0:
380,268,162915,1,0,0:0:0:0:
316,308,162985,1,0,0:0:0:0:
132,288,163055,1,8,0:0:0:0:
120,212,163126,1,0,0:0:0:0:
272,180,163196,1,0,0:0:0:0:
260,88,163266,1,0,0:0:0:0:
32,160,163336,6,0,P|24:100|64:56,1,85,8|0,0:0|0:0,0:0:0:0:
92,28,163546,1,0,0:0:0:0:
296,48,163616,1,0,0:0:0:0:
336,112,163686,1,0,0:0:0:0:
132,132,163756,2,0,P|88:160|80:224,1,85,8|0,0:0|0:0,0:0:0:0:
76,268,163967,5,0,0:0:0:0:
108,336,164037,1,0,0:0:0:0:
176,368,164107,1,0,0:0:0:0:
416,324,164177,2,0,P|424:272|384:224,1,85,8|0,0:0|0:0,0:0:0:0:
348,192,164387,1,0,0:0:0:0:
144,168,164457,6,0,P|136:116|176:68,1,85,8|0,0:0|0:0,0:0:0:0:
212,36,164667,1,0,0:0:0:0:
400,116,164738,1,0,0:0:0:0:
416,40,164808,1,0,0:0:0:0:
200,152,164878,1,8,0:0:0:0:
132,188,164948,1,0,0:0:0:0:
116,264,165018,5,0,0:0:0:0:
152,332,165088,1,0,0:0:0:0:
368,324,165158,1,0,0:0:0:0:
400,248,165228,1,0,0:0:0:0:
216,232,165298,1,8,0:0:0:0:
200,152,165369,1,0,0:0:0:0:
384,144,165439,1,0,0:0:0:0:
392,60,165509,1,0,0:0:0:0:
180,24,165579,6,0,P|140:40|112:88,1,85,8|0,0:0|0:0,0:0:0:0:
124,148,165789,1,0,0:0:0:0:
156,220,165859,1,0,0:0:0:0:
216,268,165929,1,0,0:0:0:0:
432,304,165999,2,0,P|440:256|408:216,1,85,8|0,0:0|0:0,0:0:0:0:
368,172,166210,5,0,0:0:0:0:
212,128,166280,1,0,0:0:0:0:
244,48,166350,1,0,0:0:0:0:
472,120,166420,1,8,0:0:0:0:
485,95,166466,1,0,0:0:0:0:
484,67,166513,1,0,0:0:0:0:
471,42,166560,1,0,0:0:0:0:
392,8,166630,1,0,0:0:0:0:
196,48,166700,6,0,P|120:72|96:140,2,127.500004863739,4|8|0,0:0|0:0|0:0,0:0:0:0:
336,32,167121,1,0,0:0:0:0:
76,212,167261,1,8,0:0:0:0:
304,280,167401,1,0,0:0:0:0:
360,228,167471,1,0,0:0:0:0:
372,152,167541,2,0,P|352:108|296:80,1,85,8|0,0:0|0:0,0:0:0:0:
40,220,167822,6,0,P|40:156|52:120,1,85,0|8,0:0|0:0,0:0:0:0:
308,124,168102,1,0,0:0:0:0:
96,48,168242,1,0,0:0:0:0:
376,328,168383,2,0,P|388:272|356:216,1,85,8|0,0:0|0:0,0:0:0:0:
352,176,168593,1,0,0:0:0:0:
288,132,168663,1,8,0:0:0:0:
40,96,168803,1,0,0:0:0:0:
308,268,168943,6,0,P|332:192|320:164,1,85,0|8,0:0|0:0,0:0:0:0:
80,116,169224,1,0,0:0:0:0:
368,76,169364,1,0,0:0:0:0:
128,36,169504,2,0,P|92:96|92:128,1,85,8|0,0:0|0:0,0:0:0:0:
116,180,169714,1,0,0:0:0:0:
172,232,169784,1,8,0:0:0:0:
420,232,169925,1,0,0:0:0:0:
160,328,170065,6,0,P|140:286|140:232,1,85,8|0,0:0|0:0,0:0:0:0:
368,176,170345,1,0,0:0:0:0:
156,132,170485,1,8,0:0:0:0:
400,240,170626,2,0,P|424:172|400:132,1,85,0|0,0:0|0:0,0:0:0:0:
392,92,170836,1,0,0:0:0:0:
324,52,170906,1,8,0:0:0:0:
68,48,171046,1,0,0:0:0:0:
356,328,171186,6,0,P|392:256|380:232,1,85,12|0,0:0|0:0,0:0:0:0:
168,196,171467,1,0,0:0:0:0:
424,112,171607,1,8,0:0:0:0:
144,36,171747,2,0,P|80:68|72:112,1,85,0|0,0:0|0:0,0:0:0:0:
92,152,171957,1,0,0:0:0:0:
148,204,172027,1,8,0:0:0:0:
408,252,172168,1,0,0:0:0:0:
152,324,172308,6,0,P|148:236|164:220,1,85,8|0,0:0|0:0,0:0:0:0:
404,120,172588,1,0,0:0:0:0:
152,64,172728,1,8,0:0:0:0:
412,48,172869,2,0,P|452:80|464:144,1,85,0|0,0:0|0:0,0:0:0:0:
452,184,173079,1,0,0:0:0:0:
392,232,173149,1,8,0:0:0:0:
120,288,173289,1,0,0:0:0:0:
400,320,173429,6,0,P|412:264|388:220,1,85,8|0,0:0|0:0,0:0:0:0:
116,160,173710,1,0,0:0:0:0:
384,104,173850,1,8,0:0:0:0:
136,248,173990,2,0,P|100:200|136:160,1,85,0|0,0:0|0:0,0:0:0:0:
152,120,174200,1,0,0:0:0:0:
216,76,174270,1,8,0:0:0:0:
440,44,174411,1,0,0:0:0:0:
160,36,174551,6,0,P|112:80|112:116,1,85,8|0,0:0|0:0,0:0:0:0:
368,196,174831,1,0,0:0:0:0:
108,304,174971,2,0,P|64:288|44:224,1,85,8|0,0:0|0:0,0:0:0:0:
40,180,175182,1,0,0:0:0:0:
76,112,175252,1,0,0:0:0:0:
136,80,175322,1,0,0:0:0:0:
408,228,175392,2,0,L|424:128,1,85,8|0,0:0|0:0,0:0:0:0:
276,104,175602,1,0,0:0:0:0:
84,196,175672,6,0,P|76:104|84:92,1,85,0|8,0:0|0:0,0:0:0:0:
340,172,175953,1,0,0:0:0:0:
100,84,176093,1,0,0:0:0:0:
376,36,176233,2,0,P|408:80|408:128,1,85,8|0,0:0|0:0,0:0:0:0:
376,176,176443,1,0,0:0:0:0:
320,224,176513,1,8,0:0:0:0:
52,272,176654,1,0,0:0:0:0:
408,340,176794,6,0,P|416:264|392:224,1,85,0|8,0:0|0:0,0:0:0:0:
172,184,177074,1,0,0:0:0:0:
452,96,177214,1,0,0:0:0:0:
184,36,177355,2,0,P|152:84|164:116,1,85,8|0,0:0|0:0,0:0:0:0:
208,168,177565,1,0,0:0:0:0:
408,208,177635,2,0,P|424:260|384:308,1,85,8|0,0:0|0:0,0:0:0:0:
132,328,177915,5,0,0:0:0:0:
360,252,178055,1,8,0:0:0:0:
116,224,178196,2,0,P|100:168|120:136,1,85,0|0,0:0|0:0,0:0:0:0:
411,300,178476,2,0,P|434:265|432:224,1,85,8|0,0:0|0:0,0:0:0:0:
403,151,178686,1,0,0:0:0:0:
347,99,178756,1,8,0:0:0:0:
104,68,178897,1,0,0:0:0:0:
376,32,179037,6,0,P|420:80|408:128,1,85,8|0,0:0|0:0,0:0:0:0:
160,188,179317,1,0,0:0:0:0:
408,288,179457,1,8,0:0:0:0:
164,328,179597,2,0,P|116:292|120:244,1,85,0|0,0:0|0:0,0:0:0:0:
136,196,179808,1,0,0:0:0:0:
192,144,179878,1,8,0:0:0:0:
416,96,180018,1,0,0:0:0:0:
120,40,180158,6,0,P|88:80|88:116,1,85,12|0,0:0|0:0,0:0:0:0:
340,180,180439,1,0,0:0:0:0:
100,284,180579,1,8,0:0:0:0:
348,328,180719,2,0,P|364:260|340:224,1,85,0|0,0:0|0:0,0:0:0:0:
320,184,180929,1,0,0:0:0:0:
256,140,180999,1,8,0:0:0:0:
48,74,181140,1,0,0:0:0:0:
291,245,181280,6,0,P|334:178|325:147,1,85,8|0,0:0|0:0,0:0:0:0:
130,108,181560,1,0,0:0:0:0:
368,60,181700,1,8,0:0:0:0:
128,24,181840,2,0,P|69:78|71:111,1,85,0|0,0:0|0:0,0:0:0:0:
79,154,182051,1,0,0:0:0:0:
124,215,182121,1,8,0:0:0:0:
379,253,182261,1,0,0:0:0:0:
116,294,182401,6,0,P|117:224|139:200,1,85,8|0,0:0|0:0,0:0:0:0:
353,129,182682,1,0,0:0:0:0:
102,62,182822,1,8,0:0:0:0:
364,37,182962,2,0,P|413:84|414:131,1,85,0|0,0:0|0:0,0:0:0:0:
408,176,183172,1,0,0:0:0:0:
352,228,183242,1,8,0:0:0:0:
72,276,183383,1,0,0:0:0:0:
368,348,183523,6,0,P|360:256|340:240,1,85,2|0,0:0|0:0,0:0:0:0:
132,184,183803,1,2,0:0:0:0:
416,112,183943,1,0,0:0:0:0:
144,56,184083,1,2,0:0:0:0:
432,8,184224,1,2,0:0:0:0:
178,124,184364,2,0,P|142:60|158:32,1,85,2|0,0:0|0:0,0:0:0:0:
408,32,184644,6,0,P|476:88|472:112,1,85,12|0,0:0|0:0,0:0:0:0:
476,152,184855,1,0,0:0:0:0:
432,216,184925,1,0,0:0:0:0:
160,260,185065,1,8,0:0:0:0:
432,292,185205,5,0,0:0:0:0:
445,267,185251,1,0,0:0:0:0:
448,239,185298,1,0,0:0:0:0:
440,212,185345,1,0,0:0:0:0:
132,132,185485,1,8,0:0:0:0:
400,48,185626,1,0,0:0:0:0:
124,36,185766,6,0,P|80:72|88:128,1,85,12|0,0:0|0:0,0:0:0:0:
132,132,185976,1,0,0:0:0:0:
344,184,186046,2,0,P|380:224|376:276,1,85,0|8,0:0|0:0,0:0:0:0:
328,308,186256,1,0,0:0:0:0:
100,300,186326,5,0,0:0:0:0:
85,275,186372,1,0,0:0:0:0:
86,247,186419,1,0,0:0:0:0:
101,224,186466,1,0,0:0:0:0:
364,164,186607,2,0,L|380:136,1,28.3333333333333,8|0,0:0|0:0,0:0:0:0:
132,92,186747,2,0,L|120:48,1,28.3333333333333,0|0,0:0|0:0,0:0:0:0:
376,236,186887,6,0,P|408:168|408:144,1,85,12|0,0:0|0:0,0:0:0:0:
396,108,187074,1,0,0:0:0:0:
364,68,187121,1,0,0:0:0:0:
320,40,187168,1,0,0:0:0:0:
92,136,187308,2,0,L|76:188,1,28.3333333333333,8|0,0:0|0:0,0:0:0:0:
344,175,187448,2,0,L|356:211,1,28.3333333333333,0|0,0:0|0:0,0:0:0:0:
193,291,187588,1,0,0:0:0:0:
436,236,187728,1,8,0:0:0:0:
212,128,187869,1,0,0:0:0:0:
432,136,188009,5,8,0:0:0:0:
433,107,188055,1,0,0:0:0:0:
426,80,188102,1,0,0:0:0:0:
410,57,188149,1,0,0:0:0:0:
332,16,188219,1,0,0:0:0:0:
136,44,188289,1,8,0:0:0:0:
72,92,188359,1,0,0:0:0:0:
240,120,188429,1,0,0:0:0:0:
280,184,188499,1,0,0:0:0:0:
92,168,188569,5,8,0:0:0:0:
61,196,188639,1,0,0:0:0:0:
58,237,188709,1,0,0:0:0:0:
83,271,188779,1,0,0:0:0:0:
260,292,188850,1,8,0:0:0:0:
312,248,188920,1,0,0:0:0:0:
132,200,188990,1,0,0:0:0:0:
104,140,189060,1,0,0:0:0:0:
396,264,189130,5,8,0:0:0:0:
332,128,189270,1,0,0:0:0:0:
188,56,189411,1,8,0:0:0:0:
364,4,189691,1,0,0:0:0:0:
212,144,189831,5,0,0:0:0:0:
184,236,189901,1,0,0:0:0:0:
380,208,189971,1,8,0:0:0:0:
404,292,190041,1,0,0:0:0:0:
172,324,190112,2,0,P|116:256|148:172,1,170,4|0,0:0|0:0,0:0:0:0:
