osu file format v14

[General]
AudioFilename: audio.mp3
AudioLeadIn: 0
PreviewTime: -1
Countdown: 1
SampleSet: Soft
StackLeniency: 0.7
Mode: 2
LetterboxInBreaks: 0
WidescreenStoryboard: 0

[Editor]
DistanceSpacing: 0.8
BeatDivisor: 4
GridSize: 32
TimelineZoom: 1

[Metadata]
Title:CiNDERELLA GIRLS: Starlight Stage
TitleUnicode:双翼の独奏歌
Artist:Dark Illuminate
ArtistUnicode:Dark Illuminate
Creator:Gabriel FFT
Version:Feel the idol
Source:
Tags:kanzaki ranko asuka ninomiya idolmaster cgss deresute
BeatmapID:1485991
BeatmapSetID:702299

[Difficulty]
HPDrainRate:7
CircleSize:4
OverallDifficulty:7
ApproachRate:9.3
SliderMultiplier:1.8
SliderTickRate:2

[Events]
//Background and Video events
0,0,"background.png",0,0
//Break Periods
//Storyboard Layer 0 (Background)
//Storyboard Layer 1 (Fail)
//Storyboard Layer 2 (Pass)
//Storyboard Layer 3 (Foreground)
//Storyboard Sound Samples

[TimingPoints]
7852,352.941176470588,4,2,0,100,1,0
30427,-100,4,2,0,100,0,1
41707,-100,4,2,0,100,0,0
78840,-100,4,2,0,100,0,1
101028,-100,4,2,0,100,0,0
106674,-100,4,3,0,100,0,1
112283,-100,4,2,0,100,0,0

[Colours]
Combo1 : 255,0,0
Combo2 : 255,255,0

[HitObjects]
96,192,7146,5,0,0:0:0:0:
256,192,7499,1,0,0:0:0:0:
416,192,7851,1,0,0:0:0:0:
224,128,8116,1,0,0:0:0:0:
160,96,8204,1,0,0:0:0:0:
96,64,8292,1,0,0:0:0:0:
32,32,8380,1,0,0:0:0:0:
448,32,8469,5,0,0:0:0:0:
416,64,8557,1,0,0:0:0:0:
384,96,8645,1,0,0:0:0:0:
352,128,8733,1,0,0:0:0:0:
288,160,8822,1,0,0:0:0:0:
96,64,8910,5,0,0:0:0:0:
128,96,8998,1,0,0:0:0:0:
160,128,9086,1,0,0:0:0:0:
192,160,9174,1,0,0:0:0:0:
224,192,9263,1,0,0:0:0:0:
288,256,9351,5,0,0:0:0:0:
352,224,9439,1,0,0:0:0:0:
416,192,9527,1,0,0:0:0:0:
480,160,9616,1,0,0:0:0:0:
416,128,9704,1,0,0:0:0:0:
352,96,9792,5,0,0:0:0:0:
288,64,9880,1,0,0:0:0:0:
224,32,9969,1,0,0:0:0:0:
384,192,10057,1,0,0:0:0:0:
320,160,10145,1,0,0:0:0:0:
256,128,10233,5,0,0:0:0:0:
192,96,10322,1,0,0:0:0:0:
128,64,10410,1,0,0:0:0:0:
64,32,10499,1,0,0:0:0:0:
32,96,10587,1,0,0:0:0:0:
96,160,10675,1,0,0:0:0:0:
384,96,10763,5,0,0:0:0:0:
384,192,10851,1,0,0:0:0:0:
320,192,10939,1,0,0:0:0:0:
256,192,11028,1,0,0:0:0:0:
256,288,11116,1,0,0:0:0:0:
192,192,11204,5,0,0:0:0:0:
128,96,11293,1,0,0:0:0:0:
64,192,11381,1,0,0:0:0:0:
0,192,11469,1,0,0:0:0:0:
0,288,11558,1,0,0:0:0:0:
256,192,11646,5,0,0:0:0:0:
320,96,11734,1,0,0:0:0:0:
384,192,11822,1,0,0:0:0:0:
448,288,11911,1,0,0:0:0:0:
320,320,11999,1,0,0:0:0:0:
256,192,12087,5,0,0:0:0:0:
384,192,12175,1,0,0:0:0:0:
448,32,12263,1,0,0:0:0:0:
384,64,12351,1,0,0:0:0:0:
320,96,12440,1,0,0:0:0:0:
96,128,12528,5,0,0:0:0:0:
96,160,12616,1,0,0:0:0:0:
128,160,12704,1,0,0:0:0:0:
128,192,12793,1,0,0:0:0:0:
160,192,12881,1,0,0:0:0:0:
160,224,12969,5,0,0:0:0:0:
192,224,13057,1,0,0:0:0:0:
192,256,13146,1,0,0:0:0:0:
352,256,13234,1,0,0:0:0:0:
352,224,13322,1,0,0:0:0:0:
384,224,13410,5,0,0:0:0:0:
384,192,13499,1,0,0:0:0:0:
416,192,13587,1,0,0:0:0:0:
416,160,13675,1,0,0:0:0:0:
448,160,13763,1,0,0:0:0:0:
448,128,13851,5,0,0:0:0:0:
64,64,13940,1,0,0:0:0:0:
128,96,14028,1,0,0:0:0:0:
192,128,14116,1,0,0:0:0:0:
192,192,14204,1,0,0:0:0:0:
128,224,14293,5,0,0:0:0:0:
320,128,14381,1,0,0:0:0:0:
384,96,14469,1,0,0:0:0:0:
448,64,14557,1,0,0:0:0:0:
320,192,14646,1,0,0:0:0:0:
384,224,14734,5,0,0:0:0:0:
288,288,14822,1,0,0:0:0:0:
224,256,14910,1,0,0:0:0:0:
160,224,14999,1,0,0:0:0:0:
352,192,15087,1,0,0:0:0:0:
416,160,15175,5,0,0:0:0:0:
160,160,15263,1,0,0:0:0:0:
224,192,15351,1,0,0:0:0:0:
288,224,15440,1,0,0:0:0:0:
352,256,15528,1,0,0:0:0:0:
416,288,15616,5,0,0:0:0:0:
416,224,15704,1,0,0:0:0:0:
384,192,15793,1,0,0:0:0:0:
352,160,15881,1,0,0:0:0:0:
384,128,15969,1,0,0:0:0:0:
416,96,16057,5,0,0:0:0:0:
384,64,16146,1,0,0:0:0:0:
352,32,16234,1,0,0:0:0:0:
320,64,16322,1,0,0:0:0:0:
352,96,16410,1,0,0:0:0:0:
384,128,16499,5,0,0:0:0:0:
352,160,16587,1,0,0:0:0:0:
320,192,16675,1,0,0:0:0:0:
352,224,16763,1,0,0:0:0:0:
384,256,16851,1,0,0:0:0:0:
160,256,16940,5,0,0:0:0:0:
192,224,17028,1,0,0:0:0:0:
224,192,17116,1,0,0:0:0:0:
192,160,17204,1,0,0:0:0:0:
160,128,17293,1,0,0:0:0:0:
192,96,17381,5,0,0:0:0:0:
224,64,17469,1,0,0:0:0:0:
192,32,17557,1,0,0:0:0:0:
160,64,17646,1,0,0:0:0:0:
128,96,17734,1,0,0:0:0:0:
160,128,17822,5,0,0:0:0:0:
192,160,17910,1,0,0:0:0:0:
160,192,17999,1,0,0:0:0:0:
128,160,18087,1,0,0:0:0:0:
96,128,18175,1,0,0:0:0:0:
64,96,18263,5,0,0:0:0:0:
32,64,18351,1,0,0:0:0:0:
320,96,18440,1,0,0:0:0:0:
384,128,18528,5,0,0:0:0:0:
448,160,18616,1,0,0:0:0:0:
480,224,18704,1,0,0:0:0:0:
448,288,18793,1,0,0:0:0:0:
384,320,18881,1,0,0:0:0:0:
320,352,18969,1,0,0:0:0:0:
256,320,19057,1,0,0:0:0:0:
32,192,19499,5,0,0:0:0:0:
256,64,19851,1,0,0:0:0:0:
480,192,20204,1,0,0:0:0:0:
256,320,20557,1,0,0:0:0:0:
480,192,20910,1,0,0:0:0:0:
32,192,21263,5,0,0:0:0:0:
256,32,21616,1,0,0:0:0:0:
32,192,21969,1,0,0:0:0:0:
256,320,22322,1,0,0:0:0:0:
480,192,22675,1,0,0:0:0:0:
256,32,23028,5,0,0:0:0:0:
32,192,23381,1,0,0:0:0:0:
32,64,23734,1,0,0:0:0:0:
448,320,24087,1,0,0:0:0:0:
32,320,24440,1,0,0:0:0:0:
448,64,24793,5,0,0:0:0:0:
96,192,24969,1,0,0:0:0:0:
160,128,25146,1,0,0:0:0:0:
224,64,25322,1,0,0:0:0:0:
416,192,25499,1,0,0:0:0:0:
352,128,25675,5,0,0:0:0:0:
288,64,25851,1,0,0:0:0:0:
64,320,26028,1,0,0:0:0:0:
128,288,26204,1,0,0:0:0:0:
192,256,26381,1,0,0:0:0:0:
256,224,26557,5,0,0:0:0:0:
64,256,26734,1,0,0:0:0:0:
128,224,26910,1,0,0:0:0:0:
192,192,27087,1,0,0:0:0:0:
256,160,27263,1,0,0:0:0:0:
256,96,27440,5,0,0:0:0:0:
384,32,27616,1,0,0:0:0:0:
416,128,27704,5,0,0:0:0:0:
352,224,27793,1,0,0:0:0:0:
256,288,27881,1,0,0:0:0:0:
128,256,27969,1,0,0:0:0:0:
64,192,28057,1,0,0:0:0:0:
256,32,28146,5,0,0:0:0:0:
160,96,28234,1,0,0:0:0:0:
64,160,28322,1,0,0:0:0:0:
160,224,28410,1,0,0:0:0:0:
256,288,28499,1,0,0:0:0:0:
352,224,28587,5,0,0:0:0:0:
448,160,28675,1,0,0:0:0:0:
352,96,28763,1,0,0:0:0:0:
256,32,28851,1,0,0:0:0:0:
160,64,28940,1,0,0:0:0:0:
160,128,29028,5,0,0:0:0:0:
448,64,29116,1,0,0:0:0:0:
384,96,29204,1,0,0:0:0:0:
320,128,29293,1,0,0:0:0:0:
256,160,29381,1,0,0:0:0:0:
448,160,29469,5,0,0:0:0:0:
384,192,29557,1,0,0:0:0:0:
320,224,29646,1,0,0:0:0:0:
256,256,29734,1,0,0:0:0:0:
448,256,29822,5,0,0:0:0:0:
384,288,29910,1,0,0:0:0:0:
320,320,29999,1,0,0:0:0:0:
256,352,30087,1,0,0:0:0:0:
64,64,30440,2,0,L|224:64,2,135
224,160,31146,6,0,L|384:160,2,135
480,288,31851,2,0,L|320:288,2,135
32,256,32557,2,0,L|192:256,2,135
256,128,33263,2,0,L|352:128,2,90
384,224,33793,2,0,L|480:224,2,90
160,256,34322,6,0,L|64:256,2,90
256,32,34851,1,0,0:0:0:0:
64,32,35028,5,0,0:0:0:0:
256,192,35204,1,0,0:0:0:0:
448,64,35381,1,0,0:0:0:0:
64,320,35557,1,0,0:0:0:0:
448,320,35734,1,0,0:0:0:0:
416,224,35910,5,0,0:0:0:0:
352,160,36087,1,0,0:0:0:0:
288,96,36263,1,0,0:0:0:0:
96,224,36440,1,0,0:0:0:0:
160,160,36616,1,0,0:0:0:0:
224,96,36793,5,0,0:0:0:0:
448,256,36969,1,0,0:0:0:0:
352,224,37146,2,0,L|288:224,1,45
256,160,37322,2,0,L|192:160,1,45
160,96,37499,2,0,L|96:96,1,45
256,160,37675,6,0,L|320:160,1,45
352,224,37851,2,0,L|416:224,1,45
288,320,38028,1,0,0:0:0:0:
192,288,38204,1,0,0:0:0:0:
128,224,38381,1,0,0:0:0:0:
224,128,38557,6,0,L|288:128,1,45
320,64,38734,2,0,L|384:64,1,45
224,128,38910,2,0,L|160:128,1,45
128,192,39087,2,0,L|64:192,1,45
224,256,39263,2,0,L|288:256,1,45
352,320,39440,5,0,0:0:0:0:
448,256,39616,1,0,0:0:0:0:
352,192,39793,1,0,0:0:0:0:
256,128,39969,1,0,0:0:0:0:
160,96,40146,1,0,0:0:0:0:
384,160,40322,5,0,0:0:0:0:
416,128,40410,1,0,0:0:0:0:
448,96,40499,5,0,0:0:0:0:
480,64,40587,1,0,0:0:0:0:
224,256,40675,1,0,0:0:0:0:
160,224,40763,1,0,0:0:0:0:
128,192,40851,1,0,0:0:0:0:
128,160,40940,5,0,0:0:0:0:
160,128,41028,1,0,0:0:0:0:
192,96,41116,1,0,0:0:0:0:
256,64,41204,1,0,0:0:0:0:
320,64,41293,1,0,0:0:0:0:
192,32,41381,5,0,0:0:0:0:
128,64,41469,1,0,0:0:0:0:
64,128,41557,1,0,0:0:0:0:
96,192,41646,1,0,0:0:0:0:
256,224,41910,1,0,0:0:0:0:
384,288,42087,5,0,0:0:0:0:
384,160,42263,1,0,0:0:0:0:
256,96,42440,1,0,0:0:0:0:
128,160,42616,1,0,0:0:0:0:
256,224,42793,1,0,0:0:0:0:
128,288,42969,1,0,0:0:0:0:
384,288,43146,5,0,0:0:0:0:
480,224,43322,1,0,0:0:0:0:
384,160,43499,1,0,0:0:0:0:
480,96,43675,1,0,0:0:0:0:
384,32,43851,1,0,0:0:0:0:
256,96,44028,5,0,0:0:0:0:
128,160,44204,1,0,0:0:0:0:
256,224,44381,1,0,0:0:0:0:
128,288,44557,1,0,0:0:0:0:
256,352,44734,1,0,0:0:0:0:
448,288,44910,5,0,0:0:0:0:
128,224,45087,1,0,0:0:0:0:
448,160,45263,1,0,0:0:0:0:
128,96,45440,1,0,0:0:0:0:
256,96,45616,1,0,0:0:0:0:
384,32,45793,5,0,0:0:0:0:
128,32,45969,1,0,0:0:0:0:
128,128,46146,1,0,0:0:0:0:
128,224,46322,1,0,0:0:0:0:
384,32,46499,1,0,0:0:0:0:
384,128,46675,5,0,0:0:0:0:
384,224,46851,1,0,0:0:0:0:
256,96,47028,1,0,0:0:0:0:
256,192,47204,1,0,0:0:0:0:
256,288,47381,5,0,0:0:0:0:
128,192,47557,1,0,0:0:0:0:
32,128,47734,1,0,0:0:0:0:
128,64,47910,1,0,0:0:0:0:
224,128,48087,1,0,0:0:0:0:
288,128,48263,5,0,0:0:0:0:
480,128,48440,1,0,0:0:0:0:
384,192,48616,1,0,0:0:0:0:
384,64,48793,1,0,0:0:0:0:
256,256,48969,1,0,0:0:0:0:
448,320,49146,5,0,0:0:0:0:
64,320,49322,1,0,0:0:0:0:
128,256,49499,1,0,0:0:0:0:
192,192,49675,1,0,0:0:0:0:
256,128,49851,2,0,L|352:128,1,90
448,64,50204,6,0,L|448:160,1,90
416,224,50557,2,0,L|416:320,1,90
352,64,50910,2,0,L|352:160,1,90
288,224,51263,2,0,L|288:320,1,90
224,64,51616,2,0,L|224:160,1,90
160,224,51969,6,0,L|160:320,1,90
96,64,52322,2,0,L|160:64,6,45
320,64,53028,1,0,0:0:0:0:
128,160,53204,1,0,0:0:0:0:
320,256,53381,1,0,0:0:0:0:
384,320,53557,5,0,0:0:0:0:
448,160,53734,2,0,L|448:256,1,90
384,32,54087,2,0,L|384:128,1,90
256,32,54440,2,0,L|256:128,1,90
128,32,54793,2,0,L|128:128,1,90
128,256,55146,5,0,0:0:0:0:
256,320,55322,1,0,0:0:0:0:
384,256,55499,1,0,0:0:0:0:
448,192,55675,1,0,0:0:0:0:
384,128,55851,1,0,0:0:0:0:
320,64,56028,5,0,0:0:0:0:
256,32,56204,1,0,0:0:0:0:
64,96,56381,2,0,L|160:96,1,90
256,192,56734,2,0,L|160:192,1,90
64,288,57087,2,0,L|160:288,1,90
256,320,57440,5,0,0:0:0:0:
416,256,57616,1,0,0:0:0:0:
320,192,57793,1,0,0:0:0:0:
416,128,57969,1,0,0:0:0:0:
320,64,58146,1,0,0:0:0:0:
192,96,58322,5,0,0:0:0:0:
64,160,58499,1,0,0:0:0:0:
192,224,58675,1,0,0:0:0:0:
64,288,58851,1,0,0:0:0:0:
416,96,59028,2,0,L|320:96,1,90
64,192,59381,6,0,L|160:192,1,90
416,288,59734,2,0,L|320:288,1,90
64,320,60087,2,0,L|160:320,1,90
384,288,60440,1,0,0:0:0:0:
384,224,60616,1,0,0:0:0:0:
384,160,60793,5,0,0:0:0:0:
384,96,60969,1,0,0:0:0:0:
384,32,61146,1,0,0:0:0:0:
256,96,61322,1,0,0:0:0:0:
160,32,61499,1,0,0:0:0:0:
64,96,61675,5,0,0:0:0:0:
256,192,61851,1,0,0:0:0:0:
64,288,62028,1,0,0:0:0:0:
128,288,62204,1,0,0:0:0:0:
192,288,62381,1,0,0:0:0:0:
256,288,62557,5,0,0:0:0:0:
320,288,62734,1,0,0:0:0:0:
320,64,62910,1,0,0:0:0:0:
256,64,63087,1,0,0:0:0:0:
192,64,63263,1,0,0:0:0:0:
320,192,63440,5,0,0:0:0:0:
160,192,63616,2,0,L|32:320,1,180
416,64,64146,1,0,0:0:0:0:
96,128,64322,1,0,0:0:0:0:
416,160,64499,1,0,0:0:0:0:
96,224,64675,1,0,0:0:0:0:
160,288,64851,5,0,0:0:0:0:
224,224,65028,1,0,0:0:0:0:
288,160,65204,1,0,0:0:0:0:
352,96,65381,1,0,0:0:0:0:
416,192,65557,1,0,0:0:0:0:
352,288,65734,5,0,0:0:0:0:
256,288,65910,2,0,L|160:288,1,90
96,160,66263,2,0,L|96:256,1,90
256,96,66616,1,0,0:0:0:0:
320,96,66793,1,0,0:0:0:0:
384,96,66969,5,0,0:0:0:0:
448,96,67146,1,0,0:0:0:0:
256,192,67322,1,0,0:0:0:0:
160,288,67499,1,0,0:0:0:0:
64,192,67675,1,0,0:0:0:0:
128,32,67851,5,0,0:0:0:0:
192,64,68028,1,0,0:0:0:0:
384,192,68204,1,0,0:0:0:0:
288,256,68381,1,0,0:0:0:0:
192,192,68557,1,0,0:0:0:0:
416,96,68734,5,0,0:0:0:0:
288,160,68910,1,0,0:0:0:0:
416,224,69087,1,0,0:0:0:0:
224,288,69263,1,0,0:0:0:0:
64,128,69440,2,0,L|160:128,1,90
192,224,69793,6,0,L|288:224,1,90
352,320,70146,2,0,L|448:320,1,90
416,128,70499,1,0,0:0:0:0:
320,32,70675,2,0,L|224:32,1,90
192,128,71028,2,0,L|96:128,1,90
352,224,71381,6,0,L|352:320,1,90
256,224,71734,2,0,L|256:352,1,90
128,224,72087,1,0,0:0:0:0:
128,32,72263,1,0,0:0:0:0:
256,32,72440,1,0,0:0:0:0:
352,32,72616,5,0,0:0:0:0:
416,96,72793,1,0,0:0:0:0:
96,160,72969,1,0,0:0:0:0:
96,256,73146,2,0,L|160:256,12,45
480,288,74381,1,0,0:0:0:0:
32,288,74557,5,0,0:0:0:0:
480,96,74734,1,0,0:0:0:0:
32,96,74910,1,0,0:0:0:0:
384,224,75087,1,0,0:0:0:0:
160,224,75263,1,0,0:0:0:0:
224,128,75440,1,0,0:0:0:0:
384,96,75616,6,0,L|448:96,14,45
0,192,77028,1,0,0:0:0:0:
512,192,77204,1,0,0:0:0:0:
96,96,77381,1,0,0:0:0:0:
384,96,77557,1,0,0:0:0:0:
256,352,77734,5,0,0:0:0:0:
224,320,77910,1,0,0:0:0:0:
192,288,77999,5,0,0:0:0:0:
160,256,78087,1,0,0:0:0:0:
160,224,78175,1,0,0:0:0:0:
160,192,78263,1,0,0:0:0:0:
192,160,78351,1,0,0:0:0:0:
224,128,78440,5,0,0:0:0:0:
288,256,78528,1,0,0:0:0:0:
352,224,78616,1,0,0:0:0:0:
384,192,78704,1,0,0:0:0:0:
384,160,78793,1,0,0:0:0:0:
384,128,78881,5,0,0:0:0:0:
352,96,78969,1,0,0:0:0:0:
320,64,79057,1,0,0:0:0:0:
288,32,79146,1,0,0:0:0:0:
96,64,79234,1,0,0:0:0:0:
64,96,79322,5,0,0:0:0:0:
96,128,79410,1,0,0:0:0:0:
128,160,79499,1,0,0:0:0:0:
160,192,79587,1,0,0:0:0:0:
416,64,79675,1,0,0:0:0:0:
448,96,79763,5,0,0:0:0:0:
416,128,79851,1,0,0:0:0:0:
384,160,79940,1,0,0:0:0:0:
352,192,80028,1,0,0:0:0:0:
192,256,80116,1,0,0:0:0:0:
160,288,80204,5,0,0:0:0:0:
128,320,80293,1,0,0:0:0:0:
96,352,80381,1,0,0:0:0:0:
320,256,80469,1,0,0:0:0:0:
352,288,80557,1,0,0:0:0:0:
384,320,80646,5,0,0:0:0:0:
416,352,80734,1,0,0:0:0:0:
352,192,80822,1,0,0:0:0:0:
384,224,80910,1,0,0:0:0:0:
416,256,80999,1,0,0:0:0:0:
160,192,81087,5,0,0:0:0:0:
128,224,81175,1,0,0:0:0:0:
96,256,81263,1,0,0:0:0:0:
384,128,81351,1,0,0:0:0:0:
416,96,81440,1,0,0:0:0:0:
448,64,81528,5,0,0:0:0:0:
128,128,81616,1,0,0:0:0:0:
96,96,81704,1,0,0:0:0:0:
64,64,81793,1,0,0:0:0:0:
448,192,81881,1,0,0:0:0:0:
416,224,81969,5,0,0:0:0:0:
384,256,82057,1,0,0:0:0:0:
352,288,82146,1,0,0:0:0:0:
320,320,82234,1,0,0:0:0:0:
352,192,82322,1,0,0:0:0:0:
320,224,82410,5,0,0:0:0:0:
288,256,82499,1,0,0:0:0:0:
64,96,82587,1,0,0:0:0:0:
96,128,82675,1,0,0:0:0:0:
128,160,82763,1,0,0:0:0:0:
160,192,82851,5,0,0:0:0:0:
192,224,82940,1,0,0:0:0:0:
128,96,83028,1,0,0:0:0:0:
160,128,83116,1,0,0:0:0:0:
192,160,83204,1,0,0:0:0:0:
320,352,83293,5,0,0:0:0:0:
352,320,83381,1,0,0:0:0:0:
384,288,83469,1,0,0:0:0:0:
352,256,83557,1,0,0:0:0:0:
320,224,83646,1,0,0:0:0:0:
96,352,83734,5,0,0:0:0:0:
64,320,83822,1,0,0:0:0:0:
32,288,83910,1,0,0:0:0:0:
64,256,83999,1,0,0:0:0:0:
96,224,84087,1,0,0:0:0:0:
288,192,84175,5,0,0:0:0:0:
320,160,84263,1,0,0:0:0:0:
352,128,84351,1,0,0:0:0:0:
320,96,84440,1,0,0:0:0:0:
288,64,84528,1,0,0:0:0:0:
96,128,84616,5,0,0:0:0:0:
64,96,84704,1,0,0:0:0:0:
32,64,84793,1,0,0:0:0:0:
224,160,84881,1,0,0:0:0:0:
192,128,84969,1,0,0:0:0:0:
160,96,85057,5,0,0:0:0:0:
384,192,85146,1,0,0:0:0:0:
352,160,85234,1,0,0:0:0:0:
320,128,85322,1,0,0:0:0:0:
96,320,85410,1,0,0:0:0:0:
128,288,85499,5,0,0:0:0:0:
160,256,85587,1,0,0:0:0:0:
192,224,85675,1,0,0:0:0:0:
448,192,85763,1,0,0:0:0:0:
416,160,85851,1,0,0:0:0:0:
384,128,85940,5,0,0:0:0:0:
352,96,86028,1,0,0:0:0:0:
224,96,86116,1,0,0:0:0:0:
192,128,86204,1,0,0:0:0:0:
160,160,86293,1,0,0:0:0:0:
128,192,86381,5,0,0:0:0:0:
448,288,86469,5,0,0:0:0:0:
416,256,86557,1,0,0:0:0:0:
384,224,86646,1,0,0:0:0:0:
352,192,86734,1,0,0:0:0:0:
320,160,86822,1,0,0:0:0:0:
352,288,86910,5,0,0:0:0:0:
320,256,86999,1,0,0:0:0:0:
288,224,87087,1,0,0:0:0:0:
64,256,87175,2,0,L|128:256,3,45
256,160,87528,1,0,0:0:0:0:
320,128,87616,5,0,0:0:0:0:
352,96,87704,1,0,0:0:0:0:
320,64,87793,1,0,0:0:0:0:
256,32,87881,1,0,0:0:0:0:
64,32,87969,5,0,0:0:0:0:
192,96,88057,1,0,0:0:0:0:
64,160,88146,1,0,0:0:0:0:
192,224,88234,1,0,0:0:0:0:
224,256,88322,1,0,0:0:0:0:
256,288,88410,5,0,0:0:0:0:
288,320,88499,1,0,0:0:0:0:
256,224,88587,1,0,0:0:0:0:
288,256,88675,1,0,0:0:0:0:
320,288,88763,1,0,0:0:0:0:
448,64,88851,5,0,0:0:0:0:
384,32,88940,1,0,0:0:0:0:
320,32,89028,1,0,0:0:0:0:
256,64,89116,1,0,0:0:0:0:
224,128,89204,1,0,0:0:0:0:
256,192,89293,5,0,0:0:0:0:
320,224,89381,1,0,0:0:0:0:
352,288,89469,1,0,0:0:0:0:
320,352,89557,1,0,0:0:0:0:
256,352,89646,1,0,0:0:0:0:
224,320,89734,5,0,0:0:0:0:
160,288,89822,1,0,0:0:0:0:
128,256,89910,1,0,0:0:0:0:
96,224,89999,1,0,0:0:0:0:
64,192,90087,1,0,0:0:0:0:
96,160,90175,5,0,0:0:0:0:
128,128,90263,1,0,0:0:0:0:
160,96,90351,1,0,0:0:0:0:
352,128,90440,1,0,0:0:0:0:
256,32,90528,5,0,0:0:0:0:
288,64,90616,1,0,0:0:0:0:
320,96,90704,1,0,0:0:0:0:
160,128,90793,1,0,0:0:0:0:
128,160,90881,1,0,0:0:0:0:
256,192,90969,5,0,0:0:0:0:
288,224,91057,1,0,0:0:0:0:
320,256,91146,1,0,0:0:0:0:
352,288,91234,1,0,0:0:0:0:
160,224,91322,1,0,0:0:0:0:
128,256,91410,5,0,0:0:0:0:
96,288,91499,1,0,0:0:0:0:
384,160,91587,1,0,0:0:0:0:
416,128,91675,1,0,0:0:0:0:
448,96,91763,1,0,0:0:0:0:
128,160,91851,5,0,0:0:0:0:
96,128,91940,1,0,0:0:0:0:
64,96,92028,1,0,0:0:0:0:
256,32,92116,1,0,0:0:0:0:
352,96,92204,6,0,L|416:96,4,45
256,160,92734,1,0,0:0:0:0:
224,192,92822,1,0,0:0:0:0:
192,224,92910,1,0,0:0:0:0:
160,256,92999,1,0,0:0:0:0:
128,288,93087,5,0,0:0:0:0:
320,160,93175,1,0,0:0:0:0:
352,192,93263,1,0,0:0:0:0:
384,224,93351,1,0,0:0:0:0:
416,256,93440,1,0,0:0:0:0:
448,288,93528,5,0,0:0:0:0:
64,160,93616,1,0,0:0:0:0:
96,128,93704,1,0,0:0:0:0:
128,96,93793,1,0,0:0:0:0:
448,160,93881,5,0,0:0:0:0:
416,128,93969,1,0,0:0:0:0:
384,96,94057,1,0,0:0:0:0:
64,288,94146,5,0,0:0:0:0:
96,288,94234,1,0,0:0:0:0:
128,288,94322,1,0,0:0:0:0:
160,256,94410,1,0,0:0:0:0:
192,224,94499,1,0,0:0:0:0:
448,288,94587,5,0,0:0:0:0:
416,288,94675,1,0,0:0:0:0:
384,288,94763,1,0,0:0:0:0:
352,256,94851,1,0,0:0:0:0:
320,224,94940,1,0,0:0:0:0:
256,64,95028,5,0,0:0:0:0:
192,128,95116,1,0,0:0:0:0:
352,64,95204,1,0,0:0:0:0:
288,128,95293,1,0,0:0:0:0:
192,224,95381,1,0,0:0:0:0:
288,288,95469,5,0,0:0:0:0:
160,288,95557,1,0,0:0:0:0:
320,224,95646,1,0,0:0:0:0:
96,160,95734,1,0,0:0:0:0:
128,128,95822,1,0,0:0:0:0:
160,96,95910,5,0,0:0:0:0:
416,160,95999,1,0,0:0:0:0:
384,128,96087,1,0,0:0:0:0:
352,96,96175,1,0,0:0:0:0:
160,224,96263,1,0,0:0:0:0:
160,256,96351,5,0,0:0:0:0:
160,288,96440,1,0,0:0:0:0:
160,320,96528,1,0,0:0:0:0:
352,224,96616,1,0,0:0:0:0:
352,256,96704,1,0,0:0:0:0:
352,288,96793,5,0,0:0:0:0:
352,320,96881,1,0,0:0:0:0:
64,128,96969,1,0,0:0:0:0:
416,128,97146,1,0,0:0:0:0:
192,192,97322,1,0,0:0:0:0:
288,192,97499,5,0,0:0:0:0:
192,288,97675,1,0,0:0:0:0:
384,192,97851,1,0,0:0:0:0:
192,288,98028,1,0,0:0:0:0:
448,192,98204,1,0,0:0:0:0:
192,288,98381,5,0,0:0:0:0:
448,192,98557,1,0,0:0:0:0:
448,288,98734,1,0,0:0:0:0:
256,192,98910,1,0,0:0:0:0:
448,288,99087,1,0,0:0:0:0:
256,192,99263,1,0,0:0:0:0:
448,288,99440,5,0,0:0:0:0:
448,192,99616,1,0,0:0:0:0:
448,96,99793,1,0,0:0:0:0:
352,32,99969,1,0,0:0:0:0:
288,64,100146,1,0,0:0:0:0:
256,128,100322,5,0,0:0:0:0:
224,192,100499,1,0,0:0:0:0:
192,256,100675,1,0,0:0:0:0:
448,256,100851,1,0,0:0:0:0:
160,256,101028,1,0,0:0:0:0:
448,160,101204,5,0,0:0:0:0:
160,160,101381,1,0,0:0:0:0:
448,96,101557,2,0,L|352:96,1,90
256,160,101910,2,0,L|160:160,1,90
448,256,102263,2,0,L|352:256,1,90
96,256,102616,6,0,L|192:256,1,90
256,160,102969,2,0,L|352:160,1,90
96,64,103322,2,0,L|192:64,1,90
448,160,103675,2,0,L|448:256,1,90
320,160,104028,2,0,L|320:256,1,90
192,160,104381,6,0,L|192:256,1,90
64,160,104734,2,0,L|64:256,1,90
480,320,105087,2,0,L|384:320,1,90
64,64,105440,2,0,L|160:64,1,90
480,64,105793,2,0,L|384:64,1,90
64,320,106146,6,0,L|192:320,1,90
384,224,106410,1,0,0:0:0:0:
352,192,106499,1,0,0:0:0:0:
320,160,106587,1,0,0:0:0:0:
288,128,106675,1,0,0:0:0:0:
192,288,106763,5,0,0:0:0:0:
160,256,106851,1,0,0:0:0:0:
128,224,106940,1,0,0:0:0:0:
96,192,107028,1,0,0:0:0:0:
64,160,107116,1,0,0:0:0:0:
96,128,107204,5,0,0:0:0:0:
128,96,107293,1,0,0:0:0:0:
160,64,107381,1,0,0:0:0:0:
192,32,107469,1,0,0:0:0:0:
416,32,107557,5,0,0:0:0:0:
448,64,107646,1,0,0:0:0:0:
480,96,107734,1,0,0:0:0:0:
480,160,107822,1,0,0:0:0:0:
448,192,107910,1,0,0:0:0:0:
416,224,107999,5,0,0:0:0:0:
384,256,108087,1,0,0:0:0:0:
224,192,108175,1,0,0:0:0:0:
160,224,108263,1,0,0:0:0:0:
96,256,108351,1,0,0:0:0:0:
160,288,108440,5,0,0:0:0:0:
224,320,108528,1,0,0:0:0:0:
320,192,108616,1,0,0:0:0:0:
384,224,108704,1,0,0:0:0:0:
448,256,108793,1,0,0:0:0:0:
384,288,108881,5,0,0:0:0:0:
320,320,108969,1,0,0:0:0:0:
160,64,109057,5,0,0:0:0:0:
96,96,109146,1,0,0:0:0:0:
192,160,109234,1,0,0:0:0:0:
128,192,109322,1,0,0:0:0:0:
320,64,109410,1,0,0:0:0:0:
384,96,109499,5,0,0:0:0:0:
288,128,109587,1,0,0:0:0:0:
352,160,109675,1,0,0:0:0:0:
416,192,109763,1,0,0:0:0:0:
480,224,109851,1,0,0:0:0:0:
128,192,110028,6,0,L|192:192,3,45
448,192,110381,2,0,L|384:192,7,45
128,64,111087,2,0,L|160:96,7,45
384,224,111792,2,0,L|416:256,7,45
128,224,112499,2,0,L|64:224,6,45
448,224,113116,6,0,L|384:224,7,45
256,192,113910,12,0,116557,0:0:0:0:
