osu file format v14

[General]
AudioFilename: audio.mp3
AudioLeadIn: 0
PreviewTime: 35262
Countdown: 0
SampleSet: Normal
StackLeniency: 0.7
Mode: 3
LetterboxInBreaks: 0
SpecialStyle: 0
WidescreenStoryboard: 1

[Editor]
Bookmarks: 1380,12674,23968,35262,46556,57850,69144,80438,91732
DistanceSpacing: 1.5
BeatDivisor: 4
GridSize: 4
TimelineZoom: 1.3

[Metadata]
Title:Intimate with the Fire Bird (Toy Box)
TitleUnicode:Intimate with the Fire Bird (Toy Box)
Artist:Darius + Rotteen
ArtistUnicode:Darius + Rotteen
Creator:Hlimak
Version:Embers
Source:
Tags:Lapfox Trax Halley Labs B-SIDE-U 2016 Vol.1 MrDorian
BeatmapID:2647547
BeatmapSetID:916502

[Difficulty]
HPDrainRate:8
CircleSize:4
OverallDifficulty:8
ApproachRate:5
SliderMultiplier:1.4
SliderTickRate:1

[Events]
//Background and Video events
0,0,"bg.png",0,0
//Break Periods
//Storyboard Layer 0 (Background)
//Storyboard Layer 1 (Fail)
//Storyboard Layer 2 (Pass)
//Storyboard Layer 3 (Foreground)
//Storyboard Layer 4 (Overlay)
//Storyboard Sound Samples

[TimingPoints]
1380,352.941176470588,4,1,1,40,1,0
69144,-100,4,1,1,40,0,1
80438,-100,4,1,1,40,0,0

[HitObjects]
64,192,1380,5,0,0:0:0:0:
448,192,1380,1,0,0:0:0:0:
192,192,1556,1,0,0:0:0:0:
320,192,1732,1,0,0:0:0:0:
192,192,1909,1,0,0:0:0:0:
64,192,2085,1,0,0:0:0:0:
320,192,2085,1,0,0:0:0:0:
448,192,2262,1,0,0:0:0:0:
320,192,2438,1,0,0:0:0:0:
192,192,2615,1,0,0:0:0:0:
448,192,2791,1,0,0:0:0:0:
320,192,2968,1,0,0:0:0:0:
192,192,3144,1,0,0:0:0:0:
448,192,3321,1,0,0:0:0:0:
320,192,3497,1,0,0:0:0:0:
192,192,3674,1,0,0:0:0:0:
64,192,3850,1,0,0:0:0:0:
448,192,3850,1,0,0:0:0:0:
320,192,4027,1,0,0:0:0:0:
448,192,4203,1,0,0:0:0:0:
64,192,4203,1,0,0:0:0:0:
192,192,4379,1,0,0:0:0:0:
448,192,4556,1,0,0:0:0:0:
320,192,4732,1,0,0:0:0:0:
64,192,4909,1,0,0:0:0:0:
448,192,5085,1,0,0:0:0:0:
320,192,5262,1,0,0:0:0:0:
64,192,5438,1,0,0:0:0:0:
448,192,5615,1,0,0:0:0:0:
192,192,5615,1,0,0:0:0:0:
320,192,5791,1,0,0:0:0:0:
448,192,5968,1,0,0:0:0:0:
320,192,6144,1,0,0:0:0:0:
192,192,6321,1,0,0:0:0:0:
448,192,6497,1,0,0:0:0:0:
320,192,6674,1,0,0:0:0:0:
192,192,6850,1,0,0:0:0:0:
448,192,7027,1,0,0:0:0:0:
64,192,7027,1,0,0:0:0:0:
192,192,7203,1,0,0:0:0:0:
320,192,7379,1,0,0:0:0:0:
192,192,7556,1,0,0:0:0:0:
448,192,7732,1,0,0:0:0:0:
64,192,7732,1,0,0:0:0:0:
320,192,7909,1,0,0:0:0:0:
192,192,8085,1,0,0:0:0:0:
64,192,8262,1,0,0:0:0:0:
448,192,8438,1,0,0:0:0:0:
192,192,8615,1,0,0:0:0:0:
64,192,8791,1,0,0:0:0:0:
448,192,8968,1,0,0:0:0:0:
192,192,9144,1,0,0:0:0:0:
64,192,9321,1,0,0:0:0:0:
192,192,9497,1,0,0:0:0:0:
448,192,9497,1,0,0:0:0:0:
320,192,9674,1,0,0:0:0:0:
192,192,9850,1,0,0:0:0:0:
448,192,9850,1,0,0:0:0:0:
64,192,10027,1,0,0:0:0:0:
448,192,10203,1,0,0:0:0:0:
320,192,10379,1,0,0:0:0:0:
192,192,10556,1,0,0:0:0:0:
448,192,10732,1,0,0:0:0:0:
320,192,10909,1,0,0:0:0:0:
192,192,11085,1,0,0:0:0:0:
320,192,11262,1,0,0:0:0:0:
64,192,11262,1,0,0:0:0:0:
192,192,11438,1,0,0:0:0:0:
320,192,11615,1,0,0:0:0:0:
192,192,11791,1,0,0:0:0:0:
64,192,11968,1,0,0:0:0:0:
192,192,12144,1,0,0:0:0:0:
320,192,12321,1,0,0:0:0:0:
448,192,12321,1,0,0:0:0:0:
64,192,12321,1,0,0:0:0:0:
192,192,12497,1,0,0:0:0:0:
320,192,12674,1,0,0:0:0:0:
448,192,12674,1,0,0:0:0:0:
64,192,12674,128,0,13027:0:0:0:0:
192,192,13203,128,0,13379:0:0:0:0:
320,192,13379,128,0,13556:0:0:0:0:
192,192,13556,128,0,13732:0:0:0:0:
64,192,13732,1,0,0:0:0:0:
64,192,13909,128,0,14262:0:0:0:0:
192,192,14262,128,0,14615:0:0:0:0:
448,192,14615,128,0,14791:0:0:0:0:
320,192,14791,128,0,14968:0:0:0:0:
64,192,15144,128,0,15321:0:0:0:0:
320,192,15497,128,0,15850:0:0:0:0:
320,192,16027,128,0,16203:0:0:0:0:
448,192,16203,128,0,16379:0:0:0:0:
192,192,16379,128,0,16556:0:0:0:0:
64,192,16732,1,0,0:0:0:0:
64,192,16909,128,0,17262:0:0:0:0:
192,192,17438,128,0,17615:0:0:0:0:
448,192,17615,128,0,17968:0:0:0:0:
448,192,18321,1,0,0:0:0:0:
320,192,18321,1,0,0:0:0:0:
64,192,18321,128,0,18674:0:0:0:0:
320,192,18850,128,0,19027:0:0:0:0:
448,192,19027,128,0,19203:0:0:0:0:
320,192,19203,128,0,19379:0:0:0:0:
192,192,19379,1,0,0:0:0:0:
192,192,19556,128,0,19909:0:0:0:0:
320,192,19909,128,0,20262:0:0:0:0:
192,192,20262,128,0,20438:0:0:0:0:
64,192,20438,128,0,20615:0:0:0:0:
64,192,20791,128,0,20968:0:0:0:0:
192,192,21144,1,0,0:0:0:0:
320,192,21144,1,0,0:0:0:0:
448,192,21144,128,0,21497:0:0:0:0:
192,192,21674,128,0,21850:0:0:0:0:
448,192,21850,128,0,22027:0:0:0:0:
64,192,22027,128,0,22203:0:0:0:0:
192,192,22379,128,0,22556:0:0:0:0:
320,192,22556,1,0,0:0:0:0:
448,192,22556,128,0,22909:0:0:0:0:
64,192,22556,1,0,0:0:0:0:
192,192,23085,128,0,23262:0:0:0:0:
448,192,23262,5,0,0:0:0:0:
448,192,23438,1,0,0:0:0:0:
64,192,23527,1,0,0:0:0:0:
448,192,23615,1,0,0:0:0:0:
448,192,23791,1,0,0:0:0:0:
192,192,23968,1,0,0:0:0:0:
320,192,23968,1,0,0:0:0:0:
192,192,24144,1,0,0:0:0:0:
320,192,24321,1,0,0:0:0:0:
64,192,24321,1,0,0:0:0:0:
320,192,24497,1,0,0:0:0:0:
64,192,24674,1,0,0:0:0:0:
448,192,24674,1,0,0:0:0:0:
64,192,24850,1,0,0:0:0:0:
448,192,25027,1,0,0:0:0:0:
192,192,25027,1,0,0:0:0:0:
448,192,25203,1,0,0:0:0:0:
192,192,25379,1,0,0:0:0:0:
320,192,25379,1,0,0:0:0:0:
192,192,25556,1,0,0:0:0:0:
320,192,25732,1,0,0:0:0:0:
64,192,25732,1,0,0:0:0:0:
320,192,25909,1,0,0:0:0:0:
192,192,26085,1,0,0:0:0:0:
448,192,26085,1,0,0:0:0:0:
192,192,26262,1,0,0:0:0:0:
64,192,26438,1,0,0:0:0:0:
320,192,26438,1,0,0:0:0:0:
320,192,26615,1,0,0:0:0:0:
448,192,26791,1,0,0:0:0:0:
64,192,26791,1,0,0:0:0:0:
64,192,26968,1,0,0:0:0:0:
192,192,27144,1,0,0:0:0:0:
448,192,27144,1,0,0:0:0:0:
448,192,27321,1,0,0:0:0:0:
320,192,27497,1,0,0:0:0:0:
192,192,27497,1,0,0:0:0:0:
192,192,27674,1,0,0:0:0:0:
64,192,27850,1,0,0:0:0:0:
320,192,27850,1,0,0:0:0:0:
320,192,28027,1,0,0:0:0:0:
448,192,28203,1,0,0:0:0:0:
64,192,28203,1,0,0:0:0:0:
64,192,28379,1,0,0:0:0:0:
192,192,28556,1,0,0:0:0:0:
448,192,28556,1,0,0:0:0:0:
448,192,28732,1,0,0:0:0:0:
320,192,28909,1,0,0:0:0:0:
64,192,28909,1,0,0:0:0:0:
64,192,29085,1,0,0:0:0:0:
192,192,29262,1,0,0:0:0:0:
320,192,29262,1,0,0:0:0:0:
320,192,29438,1,0,0:0:0:0:
448,192,29615,1,0,0:0:0:0:
64,192,29615,1,0,0:0:0:0:
64,192,29791,1,0,0:0:0:0:
448,192,29968,1,0,0:0:0:0:
192,192,29968,1,0,0:0:0:0:
192,192,30144,1,0,0:0:0:0:
64,192,30321,1,0,0:0:0:0:
320,192,30321,1,0,0:0:0:0:
320,192,30497,1,0,0:0:0:0:
448,192,30674,1,0,0:0:0:0:
192,192,30674,1,0,0:0:0:0:
192,192,30850,1,0,0:0:0:0:
64,192,31027,1,0,0:0:0:0:
448,192,31027,1,0,0:0:0:0:
448,192,31203,1,0,0:0:0:0:
320,192,31379,1,0,0:0:0:0:
64,192,31379,1,0,0:0:0:0:
64,192,31556,1,0,0:0:0:0:
192,192,31732,1,0,0:0:0:0:
320,192,31732,1,0,0:0:0:0:
320,192,31909,1,0,0:0:0:0:
448,192,32085,1,0,0:0:0:0:
192,192,32085,1,0,0:0:0:0:
192,192,32262,1,0,0:0:0:0:
64,192,32438,1,0,0:0:0:0:
448,192,32438,1,0,0:0:0:0:
320,192,32438,1,0,0:0:0:0:
448,192,32615,1,0,0:0:0:0:
64,192,32791,1,0,0:0:0:0:
192,192,32791,1,0,0:0:0:0:
448,192,32791,1,0,0:0:0:0:
192,192,32968,1,0,0:0:0:0:
448,192,32968,1,0,0:0:0:0:
448,192,33144,1,0,0:0:0:0:
320,192,33144,1,0,0:0:0:0:
64,192,33144,1,0,0:0:0:0:
448,192,33321,1,0,0:0:0:0:
320,192,33321,1,0,0:0:0:0:
64,192,33497,1,0,0:0:0:0:
192,192,33497,1,0,0:0:0:0:
448,192,33497,1,0,0:0:0:0:
320,192,33674,1,0,0:0:0:0:
448,192,33674,1,0,0:0:0:0:
64,192,33850,1,0,0:0:0:0:
320,192,33850,1,0,0:0:0:0:
192,192,34027,1,0,0:0:0:0:
64,192,34027,1,0,0:0:0:0:
448,192,34115,1,0,0:0:0:0:
64,192,34203,1,0,0:0:0:0:
64,192,34379,1,0,0:0:0:0:
192,192,34379,1,0,0:0:0:0:
64,192,34556,1,0,0:0:0:0:
192,192,34556,1,0,0:0:0:0:
448,192,34644,1,0,0:0:0:0:
64,192,34732,1,0,0:0:0:0:
448,192,34821,1,0,0:0:0:0:
64,192,34909,1,0,0:0:0:0:
64,192,35262,1,0,0:0:0:0:
448,192,35262,1,0,0:0:0:0:
320,192,35284,1,0,0:0:0:0:
192,192,35438,1,0,0:0:0:0:
320,192,35438,1,0,0:0:0:0:
64,192,35615,1,0,0:0:0:0:
192,192,35615,1,0,0:0:0:0:
448,192,35615,1,0,0:0:0:0:
320,192,35791,1,0,0:0:0:0:
448,192,35791,1,0,0:0:0:0:
64,192,35968,1,0,0:0:0:0:
320,192,35968,1,0,0:0:0:0:
448,192,35968,1,0,0:0:0:0:
192,192,36144,1,0,0:0:0:0:
64,192,36144,1,0,0:0:0:0:
192,192,36321,1,0,0:0:0:0:
320,192,36321,1,0,0:0:0:0:
448,192,36321,1,0,0:0:0:0:
64,192,36497,1,0,0:0:0:0:
192,192,36497,1,0,0:0:0:0:
320,192,36497,1,0,0:0:0:0:
448,192,36674,1,0,0:0:0:0:
64,192,36674,1,0,0:0:0:0:
320,192,36696,1,0,0:0:0:0:
448,192,36850,1,0,0:0:0:0:
192,192,36850,1,0,0:0:0:0:
448,192,37027,1,0,0:0:0:0:
320,192,37027,1,0,0:0:0:0:
192,192,37027,1,0,0:0:0:0:
64,192,37203,1,0,0:0:0:0:
320,192,37203,1,0,0:0:0:0:
64,192,37379,1,0,0:0:0:0:
448,192,37379,1,0,0:0:0:0:
192,192,37402,1,0,0:0:0:0:
448,192,37556,1,0,0:0:0:0:
320,192,37556,1,0,0:0:0:0:
64,192,37732,1,0,0:0:0:0:
192,192,37732,1,0,0:0:0:0:
320,192,37732,1,0,0:0:0:0:
320,192,37909,1,0,0:0:0:0:
192,192,37909,1,0,0:0:0:0:
64,192,38085,1,0,0:0:0:0:
448,192,38085,1,0,0:0:0:0:
192,192,38107,1,0,0:0:0:0:
448,192,38262,1,0,0:0:0:0:
320,192,38262,1,0,0:0:0:0:
64,192,38438,1,0,0:0:0:0:
192,192,38438,1,0,0:0:0:0:
320,192,38438,1,0,0:0:0:0:
192,192,38615,1,0,0:0:0:0:
64,192,38615,1,0,0:0:0:0:
448,192,38791,1,0,0:0:0:0:
192,192,38791,1,0,0:0:0:0:
320,192,38791,1,0,0:0:0:0:
64,192,38968,1,0,0:0:0:0:
448,192,38968,1,0,0:0:0:0:
64,192,39144,1,0,0:0:0:0:
192,192,39144,1,0,0:0:0:0:
320,192,39144,1,0,0:0:0:0:
192,192,39321,1,0,0:0:0:0:
320,192,39321,1,0,0:0:0:0:
448,192,39321,1,0,0:0:0:0:
64,192,39497,1,0,0:0:0:0:
320,192,39497,1,0,0:0:0:0:
448,192,39519,1,0,0:0:0:0:
64,192,39674,1,0,0:0:0:0:
192,192,39674,1,0,0:0:0:0:
448,192,39850,1,0,0:0:0:0:
320,192,39850,1,0,0:0:0:0:
192,192,39850,1,0,0:0:0:0:
448,192,40027,1,0,0:0:0:0:
320,192,40027,1,0,0:0:0:0:
64,192,40203,1,0,0:0:0:0:
448,192,40203,1,0,0:0:0:0:
192,192,40225,1,0,0:0:0:0:
320,192,40379,1,0,0:0:0:0:
192,192,40379,1,0,0:0:0:0:
64,192,40556,1,0,0:0:0:0:
448,192,40556,1,0,0:0:0:0:
320,192,40556,1,0,0:0:0:0:
192,192,40732,1,0,0:0:0:0:
320,192,40732,1,0,0:0:0:0:
64,192,40909,1,0,0:0:0:0:
448,192,40909,1,0,0:0:0:0:
192,192,40931,1,0,0:0:0:0:
64,192,41085,1,0,0:0:0:0:
192,192,41085,1,0,0:0:0:0:
448,192,41262,1,0,0:0:0:0:
320,192,41262,1,0,0:0:0:0:
64,192,41262,1,0,0:0:0:0:
320,192,41438,1,0,0:0:0:0:
448,192,41438,1,0,0:0:0:0:
192,192,41615,1,0,0:0:0:0:
320,192,41615,1,0,0:0:0:0:
64,192,41615,1,0,0:0:0:0:
448,192,41791,1,0,0:0:0:0:
64,192,41791,1,0,0:0:0:0:
64,192,41968,1,0,0:0:0:0:
320,192,41968,1,0,0:0:0:0:
192,192,41968,1,0,0:0:0:0:
192,192,42144,1,0,0:0:0:0:
320,192,42144,1,0,0:0:0:0:
448,192,42144,1,0,0:0:0:0:
192,192,42321,1,0,0:0:0:0:
448,192,42321,1,0,0:0:0:0:
64,192,42343,1,0,0:0:0:0:
448,192,42497,1,0,0:0:0:0:
320,192,42497,1,0,0:0:0:0:
320,192,42674,1,0,0:0:0:0:
192,192,42674,1,0,0:0:0:0:
64,192,42674,1,0,0:0:0:0:
64,192,42850,1,0,0:0:0:0:
192,192,42850,1,0,0:0:0:0:
64,192,43027,1,0,0:0:0:0:
448,192,43027,1,0,0:0:0:0:
320,192,43049,1,0,0:0:0:0:
192,192,43203,1,0,0:0:0:0:
448,192,43203,1,0,0:0:0:0:
448,192,43379,1,0,0:0:0:0:
320,192,43379,1,0,0:0:0:0:
192,192,43379,1,0,0:0:0:0:
64,192,43556,1,0,0:0:0:0:
192,192,43556,1,0,0:0:0:0:
64,192,43732,1,0,0:0:0:0:
320,192,43732,1,0,0:0:0:0:
448,192,43754,1,0,0:0:0:0:
192,192,43909,1,0,0:0:0:0:
320,192,43909,1,0,0:0:0:0:
448,192,44085,1,0,0:0:0:0:
192,192,44085,1,0,0:0:0:0:
64,192,44085,1,0,0:0:0:0:
64,192,44262,1,0,0:0:0:0:
320,192,44262,1,0,0:0:0:0:
448,192,44438,1,0,0:0:0:0:
320,192,44438,1,0,0:0:0:0:
192,192,44438,1,0,0:0:0:0:
192,192,44615,1,0,0:0:0:0:
64,192,44615,1,0,0:0:0:0:
448,192,44791,1,0,0:0:0:0:
320,192,44791,1,0,0:0:0:0:
192,192,44791,1,0,0:0:0:0:
64,192,44968,1,0,0:0:0:0:
320,192,44968,1,0,0:0:0:0:
448,192,44968,1,0,0:0:0:0:
448,192,45144,1,0,0:0:0:0:
192,192,45144,1,0,0:0:0:0:
64,192,45166,1,0,0:0:0:0:
320,192,45321,1,0,0:0:0:0:
192,192,45321,1,0,0:0:0:0:
192,192,45497,1,0,0:0:0:0:
64,192,45497,1,0,0:0:0:0:
448,192,45674,1,0,0:0:0:0:
320,192,45762,1,0,0:0:0:0:
192,192,45850,1,0,0:0:0:0:
64,192,45850,1,0,0:0:0:0:
448,192,46027,1,0,0:0:0:0:
320,192,46027,1,0,0:0:0:0:
320,192,46203,1,0,0:0:0:0:
448,192,46203,1,0,0:0:0:0:
448,192,46379,1,0,0:0:0:0:
320,192,46379,1,0,0:0:0:0:
64,192,46556,1,0,0:0:0:0:
192,192,46556,1,0,0:0:0:0:
320,192,46556,1,0,0:0:0:0:
448,192,46556,1,0,0:0:0:0:
64,192,46732,1,0,0:0:0:0:
192,192,46909,1,0,0:0:0:0:
320,192,46909,1,0,0:0:0:0:
64,192,46909,1,0,0:0:0:0:
192,192,47085,1,0,0:0:0:0:
448,192,47262,1,0,0:0:0:0:
320,192,47262,1,0,0:0:0:0:
192,192,47262,1,0,0:0:0:0:
320,192,47438,1,0,0:0:0:0:
64,192,47615,1,0,0:0:0:0:
320,192,47615,1,0,0:0:0:0:
448,192,47615,1,0,0:0:0:0:
192,192,47791,1,0,0:0:0:0:
448,192,47791,1,0,0:0:0:0:
320,192,47968,1,0,0:0:0:0:
64,192,47968,1,0,0:0:0:0:
192,192,48056,1,0,0:0:0:0:
448,192,48056,1,0,0:0:0:0:
320,192,48144,1,0,0:0:0:0:
64,192,48144,1,0,0:0:0:0:
448,192,48232,1,0,0:0:0:0:
192,192,48232,1,0,0:0:0:0:
320,192,48321,1,0,0:0:0:0:
64,192,48321,1,0,0:0:0:0:
192,192,48497,1,0,0:0:0:0:
448,192,48497,1,0,0:0:0:0:
448,192,48674,1,0,0:0:0:0:
320,192,48674,1,0,0:0:0:0:
64,192,48674,1,0,0:0:0:0:
320,192,48850,1,0,0:0:0:0:
64,192,49027,1,0,0:0:0:0:
192,192,49027,1,0,0:0:0:0:
448,192,49027,1,0,0:0:0:0:
192,192,49203,1,0,0:0:0:0:
64,192,49379,1,0,0:0:0:0:
192,192,49379,1,0,0:0:0:0:
320,192,49379,1,0,0:0:0:0:
64,192,49556,1,0,0:0:0:0:
320,192,49556,1,0,0:0:0:0:
448,192,49732,1,0,0:0:0:0:
320,192,49732,1,0,0:0:0:0:
192,192,49732,1,0,0:0:0:0:
448,192,49909,1,0,0:0:0:0:
320,192,50085,1,0,0:0:0:0:
192,192,50085,1,0,0:0:0:0:
64,192,50085,1,0,0:0:0:0:
192,192,50262,1,0,0:0:0:0:
448,192,50438,1,0,0:0:0:0:
320,192,50438,1,0,0:0:0:0:
192,192,50438,1,0,0:0:0:0:
320,192,50615,1,0,0:0:0:0:
64,192,50615,1,0,0:0:0:0:
448,192,50791,1,0,0:0:0:0:
192,192,50791,1,0,0:0:0:0:
320,192,50879,1,0,0:0:0:0:
64,192,50879,1,0,0:0:0:0:
192,192,50968,1,0,0:0:0:0:
448,192,50968,1,0,0:0:0:0:
320,192,51056,1,0,0:0:0:0:
64,192,51056,1,0,0:0:0:0:
192,192,51144,1,0,0:0:0:0:
448,192,51144,1,0,0:0:0:0:
320,192,51321,1,0,0:0:0:0:
64,192,51321,1,0,0:0:0:0:
64,192,51497,1,0,0:0:0:0:
320,192,51497,1,0,0:0:0:0:
448,192,51585,1,0,0:0:0:0:
192,192,51585,1,0,0:0:0:0:
320,192,51674,1,0,0:0:0:0:
64,192,51674,1,0,0:0:0:0:
192,192,51762,1,0,0:0:0:0:
448,192,51762,1,0,0:0:0:0:
320,192,51850,1,0,0:0:0:0:
64,192,51850,1,0,0:0:0:0:
448,192,52027,1,0,0:0:0:0:
192,192,52027,1,0,0:0:0:0:
64,192,52203,1,0,0:0:0:0:
448,192,52203,1,0,0:0:0:0:
320,192,52203,1,0,0:0:0:0:
320,192,52379,1,0,0:0:0:0:
64,192,52556,1,0,0:0:0:0:
192,192,52556,1,0,0:0:0:0:
448,192,52556,1,0,0:0:0:0:
192,192,52732,1,0,0:0:0:0:
64,192,52909,1,0,0:0:0:0:
320,192,52909,1,0,0:0:0:0:
448,192,52909,1,0,0:0:0:0:
64,192,53085,1,0,0:0:0:0:
320,192,53262,1,0,0:0:0:0:
448,192,53262,1,0,0:0:0:0:
192,192,53262,1,0,0:0:0:0:
192,192,53438,1,0,0:0:0:0:
320,192,53438,1,0,0:0:0:0:
448,192,53615,1,0,0:0:0:0:
64,192,53615,1,0,0:0:0:0:
320,192,53615,1,0,0:0:0:0:
448,192,53791,1,0,0:0:0:0:
64,192,53968,1,0,0:0:0:0:
320,192,53968,1,0,0:0:0:0:
192,192,53968,1,0,0:0:0:0:
64,192,54144,1,0,0:0:0:0:
192,192,54321,1,0,0:0:0:0:
448,192,54321,1,0,0:0:0:0:
320,192,54321,1,0,0:0:0:0:
320,192,54497,1,0,0:0:0:0:
448,192,54674,1,0,0:0:0:0:
192,192,54674,1,0,0:0:0:0:
320,192,54762,1,0,0:0:0:0:
64,192,54762,1,0,0:0:0:0:
448,192,54850,1,0,0:0:0:0:
192,192,54850,1,0,0:0:0:0:
320,192,54938,1,0,0:0:0:0:
64,192,54938,1,0,0:0:0:0:
448,192,55027,1,0,0:0:0:0:
192,192,55027,1,0,0:0:0:0:
320,192,55203,1,0,0:0:0:0:
64,192,55203,1,0,0:0:0:0:
64,192,55379,1,0,0:0:0:0:
192,192,55379,1,0,0:0:0:0:
320,192,55379,1,0,0:0:0:0:
64,192,55556,1,0,0:0:0:0:
320,192,55732,1,0,0:0:0:0:
192,192,55732,1,0,0:0:0:0:
448,192,55732,1,0,0:0:0:0:
448,192,55909,1,0,0:0:0:0:
64,192,56085,1,0,0:0:0:0:
192,192,56085,1,0,0:0:0:0:
320,192,56085,1,0,0:0:0:0:
192,192,56262,1,0,0:0:0:0:
448,192,56262,1,0,0:0:0:0:
64,192,56438,1,0,0:0:0:0:
320,192,56438,1,0,0:0:0:0:
192,192,56527,1,0,0:0:0:0:
448,192,56527,1,0,0:0:0:0:
64,192,56615,1,0,0:0:0:0:
320,192,56615,1,0,0:0:0:0:
192,192,56703,1,0,0:0:0:0:
448,192,56703,1,0,0:0:0:0:
64,192,56791,1,0,0:0:0:0:
320,192,56791,1,0,0:0:0:0:
192,192,56968,1,0,0:0:0:0:
448,192,56968,1,0,0:0:0:0:
64,192,57144,1,0,0:0:0:0:
192,192,57144,1,0,0:0:0:0:
320,192,57321,1,0,0:0:0:0:
448,192,57321,1,0,0:0:0:0:
448,192,57497,1,0,0:0:0:0:
320,192,57497,1,0,0:0:0:0:
320,192,57674,1,0,0:0:0:0:
448,192,57674,1,0,0:0:0:0:
192,192,57850,1,0,0:0:0:0:
64,192,57850,128,0,60674:0:0:0:0:
320,192,57850,1,0,0:0:0:0:
320,192,58071,1,0,0:0:0:0:
448,192,58247,1,0,0:0:0:0:
192,192,58379,1,0,0:0:0:0:
192,192,60674,128,0,63497:0:0:0:0:
320,192,60718,1,0,0:0:0:0:
448,192,60850,1,0,0:0:0:0:
64,192,61027,1,0,0:0:0:0:
320,192,61203,1,0,0:0:0:0:
320,192,63497,128,0,66321:0:0:0:0:
64,192,63541,1,0,0:0:0:0:
192,192,63674,1,0,0:0:0:0:
448,192,63850,1,0,0:0:0:0:
64,192,64027,1,0,0:0:0:0:
64,192,66321,128,0,68791:0:0:0:0:
192,192,66321,1,0,0:0:0:0:
320,192,66541,1,0,0:0:0:0:
448,192,66718,1,0,0:0:0:0:
192,192,66850,1,0,0:0:0:0:
448,192,68791,1,0,0:0:0:0:
448,192,68879,1,0,0:0:0:0:
192,192,68968,1,0,0:0:0:0:
192,192,69056,1,0,0:0:0:0:
320,192,69144,1,0,0:0:0:0:
448,192,69144,1,0,0:0:0:0:
192,192,69232,1,0,0:0:0:0:
64,192,69321,1,0,0:0:0:0:
192,192,69409,1,0,0:0:0:0:
448,192,69409,1,0,0:0:0:0:
320,192,69497,1,0,0:0:0:0:
448,192,69585,1,0,0:0:0:0:
320,192,69674,1,0,0:0:0:0:
64,192,69674,1,0,0:0:0:0:
192,192,69762,1,0,0:0:0:0:
64,192,69850,1,0,0:0:0:0:
192,192,69938,1,0,0:0:0:0:
448,192,69938,1,0,0:0:0:0:
320,192,70027,1,0,0:0:0:0:
64,192,70115,1,0,0:0:0:0:
448,192,70203,1,0,0:0:0:0:
192,192,70203,1,0,0:0:0:0:
320,192,70291,1,0,0:0:0:0:
448,192,70379,1,0,0:0:0:0:
64,192,70379,1,0,0:0:0:0:
192,192,70468,1,0,0:0:0:0:
320,192,70556,1,0,0:0:0:0:
64,192,70556,1,0,0:0:0:0:
192,192,70644,1,0,0:0:0:0:
320,192,70732,1,0,0:0:0:0:
448,192,70821,1,0,0:0:0:0:
64,192,70821,1,0,0:0:0:0:
192,192,70909,1,0,0:0:0:0:
64,192,70997,1,0,0:0:0:0:
192,192,71085,1,0,0:0:0:0:
448,192,71085,1,0,0:0:0:0:
320,192,71174,1,0,0:0:0:0:
192,192,71262,1,0,0:0:0:0:
448,192,71262,1,0,0:0:0:0:
64,192,71350,1,0,0:0:0:0:
448,192,71438,1,0,0:0:0:0:
64,192,71527,1,0,0:0:0:0:
320,192,71527,1,0,0:0:0:0:
192,192,71615,1,0,0:0:0:0:
64,192,71703,1,0,0:0:0:0:
448,192,71791,1,0,0:0:0:0:
320,192,71791,1,0,0:0:0:0:
192,192,71879,1,0,0:0:0:0:
448,192,71968,1,0,0:0:0:0:
64,192,72056,1,0,0:0:0:0:
320,192,72056,1,0,0:0:0:0:
192,192,72144,1,0,0:0:0:0:
64,192,72232,1,0,0:0:0:0:
448,192,72232,1,0,0:0:0:0:
192,192,72321,1,0,0:0:0:0:
320,192,72409,1,0,0:0:0:0:
448,192,72497,1,0,0:0:0:0:
64,192,72497,1,0,0:0:0:0:
320,192,72585,1,0,0:0:0:0:
192,192,72674,1,0,0:0:0:0:
64,192,72762,1,0,0:0:0:0:
448,192,72762,1,0,0:0:0:0:
320,192,72850,1,0,0:0:0:0:
192,192,72938,1,0,0:0:0:0:
448,192,73027,1,0,0:0:0:0:
64,192,73027,1,0,0:0:0:0:
192,192,73115,1,0,0:0:0:0:
64,192,73203,1,0,0:0:0:0:
320,192,73203,1,0,0:0:0:0:
448,192,73291,1,0,0:0:0:0:
64,192,73379,1,0,0:0:0:0:
320,192,73379,1,0,0:0:0:0:
192,192,73468,1,0,0:0:0:0:
320,192,73556,1,0,0:0:0:0:
192,192,73644,1,0,0:0:0:0:
448,192,73644,1,0,0:0:0:0:
64,192,73732,1,0,0:0:0:0:
320,192,73821,1,0,0:0:0:0:
448,192,73909,1,0,0:0:0:0:
64,192,73909,1,0,0:0:0:0:
192,192,73997,1,0,0:0:0:0:
448,192,74085,1,0,0:0:0:0:
320,192,74085,1,0,0:0:0:0:
192,192,74174,1,0,0:0:0:0:
320,192,74262,1,0,0:0:0:0:
448,192,74350,1,0,0:0:0:0:
64,192,74350,1,0,0:0:0:0:
192,192,74438,1,0,0:0:0:0:
320,192,74527,1,0,0:0:0:0:
192,192,74615,1,0,0:0:0:0:
448,192,74615,1,0,0:0:0:0:
64,192,74703,1,0,0:0:0:0:
320,192,74791,1,0,0:0:0:0:
448,192,74791,1,0,0:0:0:0:
192,192,74879,1,0,0:0:0:0:
64,192,74968,1,0,0:0:0:0:
192,192,75056,1,0,0:0:0:0:
448,192,75056,1,0,0:0:0:0:
320,192,75144,1,0,0:0:0:0:
448,192,75232,1,0,0:0:0:0:
320,192,75321,1,0,0:0:0:0:
64,192,75321,1,0,0:0:0:0:
192,192,75409,1,0,0:0:0:0:
64,192,75497,1,0,0:0:0:0:
192,192,75585,1,0,0:0:0:0:
448,192,75585,1,0,0:0:0:0:
320,192,75674,1,0,0:0:0:0:
64,192,75762,1,0,0:0:0:0:
448,192,75850,1,0,0:0:0:0:
192,192,75850,1,0,0:0:0:0:
320,192,75938,1,0,0:0:0:0:
448,192,76027,1,0,0:0:0:0:
64,192,76027,1,0,0:0:0:0:
192,192,76115,1,0,0:0:0:0:
320,192,76203,1,0,0:0:0:0:
64,192,76203,1,0,0:0:0:0:
192,192,76291,1,0,0:0:0:0:
320,192,76379,1,0,0:0:0:0:
448,192,76468,1,0,0:0:0:0:
64,192,76468,1,0,0:0:0:0:
192,192,76556,1,0,0:0:0:0:
64,192,76644,1,0,0:0:0:0:
192,192,76732,1,0,0:0:0:0:
448,192,76732,1,0,0:0:0:0:
320,192,76821,1,0,0:0:0:0:
192,192,76909,1,0,0:0:0:0:
448,192,76909,1,0,0:0:0:0:
64,192,76997,1,0,0:0:0:0:
448,192,77085,1,0,0:0:0:0:
64,192,77174,1,0,0:0:0:0:
320,192,77174,1,0,0:0:0:0:
192,192,77262,1,0,0:0:0:0:
64,192,77350,1,0,0:0:0:0:
448,192,77438,1,0,0:0:0:0:
320,192,77438,1,0,0:0:0:0:
192,192,77527,1,0,0:0:0:0:
448,192,77615,1,0,0:0:0:0:
320,192,77703,1,0,0:0:0:0:
192,192,77791,1,0,0:0:0:0:
64,192,77879,1,0,0:0:0:0:
448,192,77879,1,0,0:0:0:0:
192,192,77968,1,0,0:0:0:0:
320,192,78056,1,0,0:0:0:0:
448,192,78144,1,0,0:0:0:0:
64,192,78144,1,0,0:0:0:0:
320,192,78232,1,0,0:0:0:0:
192,192,78321,1,0,0:0:0:0:
64,192,78409,1,0,0:0:0:0:
448,192,78409,1,0,0:0:0:0:
320,192,78497,1,0,0:0:0:0:
192,192,78585,1,0,0:0:0:0:
448,192,78674,1,0,0:0:0:0:
64,192,78674,1,0,0:0:0:0:
192,192,78762,1,0,0:0:0:0:
64,192,78850,1,0,0:0:0:0:
320,192,78850,1,0,0:0:0:0:
448,192,78938,1,0,0:0:0:0:
64,192,79027,1,0,0:0:0:0:
320,192,79027,1,0,0:0:0:0:
192,192,79115,1,0,0:0:0:0:
320,192,79203,1,0,0:0:0:0:
192,192,79291,1,0,0:0:0:0:
448,192,79291,1,0,0:0:0:0:
64,192,79379,1,0,0:0:0:0:
192,192,79468,1,0,0:0:0:0:
448,192,79556,1,0,0:0:0:0:
64,192,79556,1,0,0:0:0:0:
320,192,79644,1,0,0:0:0:0:
448,192,79732,1,0,0:0:0:0:
192,192,79732,1,0,0:0:0:0:
64,192,79909,1,0,0:0:0:0:
320,192,79909,1,0,0:0:0:0:
192,192,79997,1,0,0:0:0:0:
64,192,80085,1,0,0:0:0:0:
320,192,80085,1,0,0:0:0:0:
192,192,80262,1,0,0:0:0:0:
448,192,80262,1,0,0:0:0:0:
64,192,80438,1,0,0:0:0:0:
320,192,80438,1,0,0:0:0:0:
448,192,80438,1,0,0:0:0:0:
192,192,80615,1,0,0:0:0:0:
448,192,80615,1,0,0:0:0:0:
64,192,80791,1,0,0:0:0:0:
192,192,80791,1,0,0:0:0:0:
320,192,80791,1,0,0:0:0:0:
64,192,80968,1,0,0:0:0:0:
320,192,80968,1,0,0:0:0:0:
448,192,81144,1,0,0:0:0:0:
320,192,81144,1,0,0:0:0:0:
64,192,81144,1,0,0:0:0:0:
192,192,81321,1,0,0:0:0:0:
320,192,81321,1,0,0:0:0:0:
64,192,81497,1,0,0:0:0:0:
192,192,81497,1,0,0:0:0:0:
448,192,81497,1,0,0:0:0:0:
64,192,81674,1,0,0:0:0:0:
320,192,81674,1,0,0:0:0:0:
448,192,81850,1,0,0:0:0:0:
320,192,81850,1,0,0:0:0:0:
192,192,81850,1,0,0:0:0:0:
448,192,82027,1,0,0:0:0:0:
320,192,82027,1,0,0:0:0:0:
64,192,82203,1,0,0:0:0:0:
192,192,82203,1,0,0:0:0:0:
320,192,82203,1,0,0:0:0:0:
64,192,82379,1,0,0:0:0:0:
320,192,82379,1,0,0:0:0:0:
192,192,82556,1,0,0:0:0:0:
448,192,82556,1,0,0:0:0:0:
64,192,82556,1,0,0:0:0:0:
448,192,82732,1,0,0:0:0:0:
192,192,82732,1,0,0:0:0:0:
448,192,82909,1,0,0:0:0:0:
320,192,82909,1,0,0:0:0:0:
192,192,82909,1,0,0:0:0:0:
320,192,83085,1,0,0:0:0:0:
64,192,83085,1,0,0:0:0:0:
448,192,83262,1,0,0:0:0:0:
192,192,83262,1,0,0:0:0:0:
320,192,83350,1,0,0:0:0:0:
64,192,83350,1,0,0:0:0:0:
192,192,83438,1,0,0:0:0:0:
448,192,83438,1,0,0:0:0:0:
192,192,83615,1,0,0:0:0:0:
320,192,83615,1,0,0:0:0:0:
448,192,83615,1,0,0:0:0:0:
320,192,83791,1,0,0:0:0:0:
192,192,83791,1,0,0:0:0:0:
64,192,83968,1,0,0:0:0:0:
320,192,83968,1,0,0:0:0:0:
448,192,83968,1,0,0:0:0:0:
192,192,84144,1,0,0:0:0:0:
64,192,84144,1,0,0:0:0:0:
192,192,84321,1,0,0:0:0:0:
320,192,84321,1,0,0:0:0:0:
448,192,84321,1,0,0:0:0:0:
448,192,84497,1,0,0:0:0:0:
64,192,84674,1,0,0:0:0:0:
192,192,84674,1,0,0:0:0:0:
320,192,84674,1,0,0:0:0:0:
320,192,84850,1,0,0:0:0:0:
64,192,84850,1,0,0:0:0:0:
192,192,84938,1,0,0:0:0:0:
448,192,84938,1,0,0:0:0:0:
64,192,85027,1,0,0:0:0:0:
320,192,85027,1,0,0:0:0:0:
320,192,85203,1,0,0:0:0:0:
192,192,85203,1,0,0:0:0:0:
64,192,85379,1,0,0:0:0:0:
448,192,85379,1,0,0:0:0:0:
320,192,85379,1,0,0:0:0:0:
64,192,85556,1,0,0:0:0:0:
192,192,85732,1,0,0:0:0:0:
320,192,85732,1,0,0:0:0:0:
448,192,85732,1,0,0:0:0:0:
192,192,85909,1,0,0:0:0:0:
64,192,86085,1,0,0:0:0:0:
448,192,86085,1,0,0:0:0:0:
320,192,86085,1,0,0:0:0:0:
320,192,86262,1,0,0:0:0:0:
448,192,86350,1,0,0:0:0:0:
320,192,86438,1,0,0:0:0:0:
64,192,86438,1,0,0:0:0:0:
448,192,86527,1,0,0:0:0:0:
320,192,86615,1,0,0:0:0:0:
448,192,86703,1,0,0:0:0:0:
192,192,86791,1,0,0:0:0:0:
320,192,86791,1,0,0:0:0:0:
192,192,86968,1,0,0:0:0:0:
64,192,87056,1,0,0:0:0:0:
192,192,87144,1,0,0:0:0:0:
448,192,87144,1,0,0:0:0:0:
64,192,87232,1,0,0:0:0:0:
192,192,87321,1,0,0:0:0:0:
64,192,87409,1,0,0:0:0:0:
448,192,87497,1,0,0:0:0:0:
320,192,87585,1,0,0:0:0:0:
192,192,87674,1,0,0:0:0:0:
64,192,87762,1,0,0:0:0:0:
448,192,87850,1,0,0:0:0:0:
192,192,87850,1,0,0:0:0:0:
320,192,87938,1,0,0:0:0:0:
192,192,88027,1,0,0:0:0:0:
64,192,88115,1,0,0:0:0:0:
448,192,88203,1,0,0:0:0:0:
320,192,88203,1,0,0:0:0:0:
320,192,88379,1,0,0:0:0:0:
64,192,88556,1,0,0:0:0:0:
192,192,88556,1,0,0:0:0:0:
448,192,88556,1,0,0:0:0:0:
192,192,88732,1,0,0:0:0:0:
64,192,88909,1,0,0:0:0:0:
320,192,88909,1,0,0:0:0:0:
448,192,88909,1,0,0:0:0:0:
448,192,89085,1,0,0:0:0:0:
64,192,89262,1,0,0:0:0:0:
192,192,89262,1,0,0:0:0:0:
320,192,89262,1,0,0:0:0:0:
192,192,89438,1,0,0:0:0:0:
320,192,89527,1,0,0:0:0:0:
192,192,89615,1,0,0:0:0:0:
448,192,89615,1,0,0:0:0:0:
64,192,89615,1,0,0:0:0:0:
64,192,89791,1,0,0:0:0:0:
320,192,89791,1,0,0:0:0:0:
448,192,89968,1,0,0:0:0:0:
320,192,89968,1,0,0:0:0:0:
192,192,89968,1,0,0:0:0:0:
320,192,90144,1,0,0:0:0:0:
64,192,90144,1,0,0:0:0:0:
192,192,90321,1,0,0:0:0:0:
320,192,90321,1,0,0:0:0:0:
448,192,90321,1,0,0:0:0:0:
448,192,90497,1,0,0:0:0:0:
192,192,90497,1,0,0:0:0:0:
448,192,90585,5,0,0:0:0:0:
320,192,90674,1,0,0:0:0:0:
64,192,90674,1,0,0:0:0:0:
448,192,90850,1,0,0:0:0:0:
64,192,90850,1,0,0:0:0:0:
64,192,91027,1,0,0:0:0:0:
320,192,91027,1,0,0:0:0:0:
192,192,91027,1,0,0:0:0:0:
320,192,91203,1,0,0:0:0:0:
192,192,91203,1,0,0:0:0:0:
192,192,91291,1,0,0:0:0:0:
64,192,91379,1,0,0:0:0:0:
448,192,91379,1,0,0:0:0:0:
448,192,91556,1,0,0:0:0:0:
320,192,91556,1,0,0:0:0:0:
64,192,91732,5,0,0:0:0:0:
192,192,91732,1,0,0:0:0:0:
320,192,91732,1,0,0:0:0:0:
448,192,92085,128,0,92262:0:0:0:0:
448,192,92438,128,0,92791:0:0:0:0:
64,192,92791,128,0,92968:0:0:0:0:
192,192,92968,128,0,93144:0:0:0:0:
448,192,93144,128,0,93409:0:0:0:0:
448,192,93497,128,0,93674:0:0:0:0:
320,192,93850,128,0,94203:0:0:0:0:
192,192,94203,128,0,94379:0:0:0:0:
64,192,94556,128,0,94909:0:0:0:0:
192,192,94909,128,0,95085:0:0:0:0:
64,192,95262,128,0,95527:0:0:0:0:
64,192,95615,128,0,95791:0:0:0:0:
192,192,95791,128,0,95968:0:0:0:0:
320,192,95968,128,0,96232:0:0:0:0:
320,192,96321,128,0,96497:0:0:0:0:
192,192,96674,128,0,97027:0:0:0:0:
64,192,97027,128,0,97203:0:0:0:0:
448,192,97379,128,0,97732:0:0:0:0:
320,192,97732,128,0,97909:0:0:0:0:
192,192,98085,128,0,98438:0:0:0:0:
64,192,98438,128,0,98615:0:0:0:0:
192,192,98615,128,0,98791:0:0:0:0:
320,192,98791,128,0,99056:0:0:0:0:
320,192,99144,128,0,99321:0:0:0:0:
192,192,99497,128,0,99850:0:0:0:0:
64,192,99850,128,0,100027:0:0:0:0:
320,192,100203,128,0,100556:0:0:0:0:
448,192,100556,128,0,100732:0:0:0:0:
192,192,100909,128,0,101262:0:0:0:0:
64,192,101262,128,0,101438:0:0:0:0:
320,192,101438,128,0,101615:0:0:0:0:
448,192,101615,128,0,102144:0:0:0:0:
192,192,102144,1,0,0:0:0:0:
320,192,102232,1,0,0:0:0:0:
192,192,102321,128,0,102674:0:0:0:0:
64,192,102674,128,0,103027:0:0:0:0:
320,192,103027,128,0,104438:0:0:0:0:
448,192,103027,128,0,104438:0:0:0:0:
