osu file format v14

[General]
AudioFilename: audio.mp3
AudioLeadIn: 0
PreviewTime: 62566
Countdown: 1
SampleSet: Normal
StackLeniency: 0.7
Mode: 0
LetterboxInBreaks: 0
WidescreenStoryboard: 0

[Editor]
Bookmarks: 1147,197485,220917
DistanceSpacing: 1
BeatDivisor: 4
GridSize: 4
TimelineZoom: 1

[Metadata]
Title:Avenir
TitleUnicode:Avenir
Artist:Daria
ArtistUnicode:Daria
Creator:Ameyy
Version:BELIEVE AR9.2
Source:
Tags:
BeatmapID:1307603
BeatmapSetID:617138

[Difficulty]
HPDrainRate:7
CircleSize:4
OverallDifficulty:8
ApproachRate:9.2
SliderMultiplier:2
SliderTickRate:1

[Events]
//Background and Video events
0,0,"Konachan.com - 240357 ass aya_(star) black_hair brown_hair clouds kneehighs landscape original phone scenic seifuku short_hair skirt sky stars (1).jpg",0,0
//Break Periods
2,142063,150374
2,189863,196915
//Storyboard Layer 0 (Background)
//Storyboard Layer 1 (Fail)
//Storyboard Layer 2 (Pass)
//Storyboard Layer 3 (Foreground)
//Storyboard Sound Samples

[TimingPoints]
418,324.324324324324,4,1,0,100,1,0
418,-133.333333333333,4,2,0,20,0,0
3580,-133.333333333333,4,3,0,40,0,0
3742,-133.333333333333,4,2,0,20,0,0
4877,-133.333333333333,4,3,0,40,0,0
5039,-133.333333333333,4,2,0,20,0,0
5039,-133.333333333333,4,2,0,30,0,0
14688,-133.333333333333,4,3,0,5,0,0
16025,-100,4,2,0,70,0,0
16026,324.324324324324,4,1,0,70,1,0
21053,-83.3333333333333,4,1,0,100,0,0
25917,-83.3333333333333,4,1,0,100,0,0
25917,-83.3333333333333,4,3,0,100,0,0
26242,-100,4,2,0,100,0,0
33053,-83.3333333333333,4,1,0,100,0,0
34188,-100,4,2,0,100,0,0
40836,-100,4,3,0,100,0,0
42296,-100,4,2,0,100,0,0
48782,-100,4,3,0,100,0,0
49593,-100,4,2,0,100,0,0
51215,-90.9090909090909,4,1,0,100,0,0
51539,-83.3333333333333,4,1,0,100,0,0
51863,-76.9230769230769,4,1,0,100,0,0
52188,-66.6666666666667,4,1,0,100,0,0
52998,-100,4,2,0,100,0,0
57539,-100,4,3,0,100,0,0
59485,-100,4,3,0,100,0,0
59971,-100,4,2,0,100,0,0
60458,-100,4,3,0,100,0,0
60620,-100,4,2,0,100,0,0
62566,-83.3333333333333,4,1,0,100,0,1
78296,-100,4,1,0,100,0,1
83485,-100,4,1,0,100,0,0
85917,-100,4,2,0,100,0,0
95809,-83.3333333333333,4,2,0,100,0,0
96134,-90.9090909090909,4,2,0,100,0,0
96458,-90.9090909090909,4,2,0,100,0,0
103107,-90.9090909090909,4,3,0,100,0,0
104080,-90.9090909090909,4,2,0,100,0,0
106188,-90.9090909090909,4,2,0,100,0,0
106188,-90.9090909090909,4,3,0,100,0,0
106836,-100,4,2,0,100,0,0
106836,-90.9090909090909,4,2,0,100,0,0
107971,-90.9090909090909,4,2,0,100,0,0
108620,-100,4,2,0,100,0,0
111539,-100,4,3,0,99,0,0
111539,-100,4,2,0,100,0,0
112025,-100,4,2,0,100,0,0
113647,-100,4,3,0,100,0,0
114296,-100,4,2,0,100,0,0
116404,-100,4,3,0,100,0,0
116566,-100,4,2,0,100,0,0
116566,-100,4,3,0,100,0,0
118350,-83.3333333333333,4,1,0,100,0,1
133755,-100,4,1,0,100,0,1
141863,-100,4,2,0,100,0,0
150944,-166.666666666667,4,2,0,100,0,0
151593,-166.666666666667,4,3,0,100,0,0
152242,-90.9090909090909,4,2,0,100,0,0
153215,-90.9090909090909,4,2,0,100,0,0
153215,-90.9090909090909,4,3,0,100,0,0
154188,-90.9090909090909,4,2,0,100,0,0
155809,-90.9090909090909,4,3,0,100,0,0
156782,-90.9090909090909,4,2,0,100,0,0
183377,-71.4285714285714,4,2,0,100,0,0
197485,-90.9090909090909,4,2,0,100,0,0
200080,-83.3333333333333,4,1,0,100,0,1
205755,-100,4,1,0,100,0,1
215647,-100,4,2,0,100,0,0
219377,-100,4,3,0,100,0,0
221080,-100,4,1,0,100,0,0

[HitObjects]
80,148,418,6,0,P|132:164|240:136,1,150.000005722046,0|2,0:0|0:0,0:0:0:0:
76,44,904,1,0,0:0:0:0:
76,44,985,1,0,0:0:0:0:
76,44,1066,1,0,0:0:0:0:
40,224,1228,1,0,0:0:0:0:
151,85,1390,1,2,0:0:0:0:
176,235,1553,6,0,L|196:329,1,75.0000028610231
40,224,1877,1,0,0:0:0:0:
249,361,2039,2,0,P|267:302|258:264,1,75.0000028610231,2|0,0:0|0:0,0:0:0:0:
40,224,2363,5,0,0:0:0:0:
190,309,2526,1,0,0:0:0:0:
84,326,2688,1,2,0:0:0:0:
190,220,2850,1,0,0:0:0:0:
342,316,3012,6,0,B|371:315|371:315|379:266|417:237,1,112.500004291535
403,207,3336,2,0,P|343:172|321:142,1,75.0000028610231,2|0,0:0|0:0,0:0:0:0:
414,117,3661,1,0,0:0:0:0:
339,168,3823,1,0,0:0:0:0:
266,101,3985,1,2,0:0:0:0:
414,117,4147,2,0,L|497:182,1,75.0000028610231
266,101,4472,5,0,0:0:0:0:
98,117,4634,2,0,L|15:182,1,75.0000028610231,2|0,0:0|0:0,0:0:0:0:
169,282,4958,1,0,0:0:0:0:
82,254,5120,1,0,0:0:0:0:
98,344,5282,1,2,0:0:0:0:
228,209,5445,1,0,0:0:0:0:
23,306,5607,2,0,P|5:252|61:176,1,150.000005722046,0|2,0:0|0:0,0:0:0:0:
228,209,6093,5,0,0:0:0:0:
228,209,6174,1,0,0:0:0:0:
228,209,6255,1,0,0:0:0:0:
202,307,6418,1,0,0:0:0:0:
311,279,6580,1,2,0:0:0:0:
201,126,6742,2,0,L|275:83,1,75.0000028610231
351,64,7066,1,0,0:0:0:0:
140,240,7228,2,0,L|223:191,1,75.0000028610231,2|0,0:0|0:0,0:0:0:0:
324,154,7553,5,0,0:0:0:0:
425,291,7715,1,0,0:0:0:0:
299,257,7877,1,2,0:0:0:0:
481,210,8039,1,0,0:0:0:0:
315,347,8201,1,0,0:0:0:0:
397,161,8363,6,0,L|402:268,1,75.0000028610231,0|2,0:0|0:0,0:0:0:0:
315,347,8688,1,0,0:0:0:0:
322,84,8850,2,0,L|326:192,1,75.0000028610231
255,247,9174,1,2,0:0:0:0:
246,24,9336,2,0,L|247:129,1,75.0000028610231
185,181,9661,1,0,0:0:0:0:
292,319,9823,6,0,P|327:282|333:237,1,75.0000028610231,2|0,0:0|0:0,0:0:0:0:
185,181,10147,1,0,0:0:0:0:
146,295,10309,1,0,0:0:0:0:
75,212,10472,1,0,0:0:0:0:
234,267,10634,1,0,0:0:0:0:
37,144,10796,2,0,P|4:180|19:262,1,112.500004291535
35,278,11120,6,0,P|96:296|127:285,1,75.0000028610231,2|0,0:0|0:0,0:0:0:0:
185,237,11445,1,0,0:0:0:0:
283,136,11607,2,0,L|284:222,1,75.0000028610231,0|2,0:0|0:0,0:0:0:0:
185,237,11931,1,0,0:0:0:0:
241,50,12093,2,0,P|185:90|161:89,1,75.0000028610231
334,57,12418,1,2,0:0:0:0:
432,208,12580,2,0,L|414:134,1,75.0000028610231
334,57,12904,5,0,0:0:0:0:
238,117,13066,1,0,0:0:0:0:
339,177,13228,1,0,0:0:0:0:
250,40,13390,6,0,P|187:56|172:158,1,150.000005722046,0|2,0:0|0:0,0:0:0:0:
228,239,13877,1,0,0:0:0:0:
60,239,14039,2,0,L|149:290,1,75.0000028610231
228,239,14363,1,2,0:0:0:0:
75,342,14526,1,0,0:0:0:0:
290,142,14688,6,0,P|379:109|323:343,1,525.000020027162
300,328,15904,1,0,0:0:0:0:
256,300,16025,6,0,P|204:316|119:298,1,100,12|0,0:0|0:0,0:0:0:0:
305,205,16349,2,0,P|357:189|442:207,1,100
368,283,16674,1,8,0:0:0:0:
200,207,16836,1,0,0:0:0:0:
394,296,16998,1,0,0:0:0:0:
171,189,17160,1,0,0:0:0:0:
470,267,17322,2,0,P|467:336|417:375,1,100,8|0,0:0|0:0,0:0:0:0:
363,189,17647,5,0,0:0:0:0:
363,189,17728,1,0,0:0:0:0:
363,189,17809,1,0,0:0:0:0:
274,292,17971,1,8,0:0:0:0:
231,172,18133,1,0,0:0:0:0:
371,279,18295,1,0,0:0:0:0:
299,110,18458,1,0,0:0:0:0:
190,260,18620,6,0,P|139:305|42:288,1,150,8|0,0:0|0:0,0:0:0:0:
45,237,18944,2,0,L|44:128,1,100
200,116,19268,1,8,0:0:0:0:
200,116,19349,1,0,0:0:0:0:
200,116,19430,1,0,0:0:0:0:
115,64,19593,5,0,0:0:0:0:
281,66,19755,1,0,0:0:0:0:
209,216,19917,2,0,L|165:312,1,100,8|0,0:0|0:0,0:0:0:0:
306,186,20241,1,0,0:0:0:0:
104,224,20404,1,0,0:0:0:0:
360,304,20566,5,8,0:0:0:0:
400,276,20647,1,0,0:0:0:0:
428,232,20728,1,0,0:0:0:0:
440,184,20809,1,0,0:0:0:0:
428,136,20890,1,0,0:0:0:0:
404,92,20971,1,0,0:0:0:0:
344,80,21053,6,0,P|276:88|196:64,1,119.999996337891,4|0,0:0|0:0,0:0:0:0:
352,184,21377,1,0,0:0:0:0:
80,184,21539,2,0,P|148:176|228:200,2,119.999996337891,8|0|0,0:0|0:0|0:0,0:0:0:0:
137,291,22025,1,0,0:0:0:0:
85,68,22188,1,8,0:0:0:0:
209,319,22350,6,0,P|163:363|74:245,1,239.999992675781
304,257,22836,2,0,L|391:342,1,119.999996337891,8|0,0:0|0:0,0:0:0:0:
390,215,23161,1,0,0:0:0:0:
287,364,23323,1,0,0:0:0:0:
261,180,23485,1,8,0:0:0:0:
474,142,23647,6,0,L|209:79,1,239.999992675781
55,160,24134,2,0,L|185:139,2,119.999996337891,8|0|0,0:0|0:0|0:0,0:0:0:0:
96,60,24620,1,0,0:0:0:0:
145,251,24782,1,8,0:0:0:0:
230,42,24944,2,0,B|299:40|341:68|341:68|389:41|465:43,1,239.999992675781
337,181,25431,5,8,0:0:0:0:
439,318,25593,1,8,0:0:0:0:
439,318,25674,1,8,0:0:0:0:
439,318,25755,1,8,0:0:0:0:
329,293,25917,1,0,0:0:0:0:
259,358,26080,1,8,0:0:0:0:
197,295,26242,6,0,P|121:306|1:226,1,200
177,145,26890,1,0,0:0:0:0:
271,110,27053,2,0,L|373:157,2,100,0|0|8,0:0|0:0|0:0,0:0:0:0:
429,110,27539,2,0,P|438:178|320:218,1,200
192,135,28187,5,0,0:0:0:0:
162,234,28350,1,0,0:0:0:0:
68,197,28512,1,0,0:0:0:0:
100,108,28674,1,8,0:0:0:0:
125,316,28836,2,0,B|197:335|204:320,1,50,0|2,0:0|0:0,0:0:0:0:
256,192,28998,12,0,31431,0:0:0:0:
255,193,31593,5,4,0:0:0:0:
393,117,33053,6,0,P|304:195|200:137,1,239.999992675781,4|0,0:0|0:0,0:0:0:0:
293,92,33539,1,0,0:0:0:0:
387,268,33701,1,0,0:0:0:0:
387,268,33863,2,0,L|240:312,1,119.999996337891
61,263,34188,6,0,P|87:335|209:300,1,200,0|8,0:0|0:0,0:0:0:0:
145,160,34674,1,0,0:0:0:0:
135,275,34836,1,0,0:0:0:0:
268,144,34998,1,0,0:0:0:0:
96,93,35161,1,8,0:0:0:0:
204,67,35323,1,0,0:0:0:0:
296,218,35485,2,0,P|344:164|337:111,1,100
22,64,35809,2,0,P|29:135|57:158,1,100,8|0,0:0|0:0,0:0:0:0:
267,313,36134,6,0,L|297:212,1,100
47,154,36458,2,0,L|56:287,1,100,8|0,0:0|0:0,0:0:0:0:
250,142,36782,1,0,0:0:0:0:
267,133,37107,5,8,0:0:0:0:
265,134,37269,2,0,B|336:130|361:67,1,100
265,47,37593,1,0,0:0:0:0:
369,201,37755,1,8,0:0:0:0:
445,28,37917,1,0,0:0:0:0:
305,246,38080,2,0,P|354:279|414:262,1,100
246,191,38404,2,0,P|216:247|235:311,1,100,8|0,0:0|0:0,0:0:0:0:
369,201,38728,5,0,0:0:0:0:
161,170,38890,1,0,0:0:0:0:
283,320,39053,2,0,P|222:356|148:296,1,150,8|0,0:0|0:0,0:0:0:0:
129,280,39377,2,0,L|24:285,1,100
161,170,39701,1,8,0:0:0:0:
160,171,39863,2,0,L|281:167,1,100
318,72,40188,1,0,0:0:0:0:
338,235,40350,1,8,0:0:0:0:
200,95,40512,1,0,0:0:0:0:
423,132,40674,1,0,0:0:0:0:
253,29,40836,5,0,0:0:0:0:
429,220,40998,1,8,0:0:0:0:
200,95,41161,5,0,0:0:0:0:
376,285,41323,1,0,0:0:0:0:
130,152,41485,5,0,0:0:0:0:
331,351,41647,1,8,0:0:0:0:
59,204,41809,5,0,0:0:0:0:
256,383,41971,1,0,0:0:0:0:
256,383,42296,5,8,0:0:0:0:
251,380,42458,2,0,L|128:303,1,100
251,181,42782,1,0,0:0:0:0:
286,301,42944,1,8,0:0:0:0:
161,240,43107,1,0,0:0:0:0:
352,255,43269,2,0,P|363:318|317:372,1,100
97,284,43593,2,0,P|86:221|132:167,1,100,8|0,0:0|0:0,0:0:0:0:
274,124,43917,5,0,0:0:0:0:
195,208,44080,1,0,0:0:0:0:
378,90,44242,1,8,0:0:0:0:
173,92,44404,1,0,0:0:0:0:
425,249,44566,2,0,B|441:275|441:275|393:306|264:288,1,200,0|8,0:0|0:0,0:0:0:0:
96,210,45053,2,0,P|182:204|229:221,2,100
152,292,45539,5,8,0:0:0:0:
194,82,45701,1,0,0:0:0:0:
194,82,45863,2,0,L|424:111,1,200,0|8,0:0|0:0,0:0:0:0:
422,217,46350,2,0,L|298:200,2,100
471,71,46836,1,8,0:0:0:0:
321,203,46998,1,0,0:0:0:0:
505,268,47161,1,0,0:0:0:0:
505,268,47485,5,8,0:0:0:0:
505,268,47647,2,0,P|434:319|386:319,1,100
343,252,47971,1,0,0:0:0:0:
218,343,48134,1,8,0:0:0:0:
317,352,48296,2,0,L|198:341,1,100
153,227,48620,2,0,L|272:238,1,100,0|8,0:0|0:0,0:0:0:0:
119,132,48944,5,0,0:0:0:0:
72,293,49107,1,0,0:0:0:0:
240,155,49269,1,0,0:0:0:0:
11,102,49431,1,8,0:0:0:0:
46,204,49593,1,0,0:0:0:0:
46,204,49674,1,0,0:0:0:0:
46,204,49755,6,0,L|122:130,1,100
232,66,50080,1,8,0:0:0:0:
284,247,50242,2,0,P|335:203|336:149,1,100
167,243,50566,1,0,0:0:0:0:
315,333,50728,1,8,0:0:0:0:
175,344,50890,6,0,L|40:362,1,100
284,247,51215,6,0,L|438:268,1,110.000003356934,0|8,0:0|0:0,0:0:0:0:
141,158,51539,6,0,L|-27:177,1,119.999996337891
332,82,51863,6,0,L|489:108,1,129.999994049073,0|8,0:0|0:0,0:0:0:0:
141,158,52188,6,0,P|113:234|130:128,1,450.000017166138,8|8,0:0|0:0,0:0:0:0:
367,155,52998,6,0,P|317:213|267:222,1,100
367,65,53323,1,8,0:0:0:0:
367,65,53485,2,0,L|468:123,1,100
291,304,53809,2,0,L|190:246,1,100,0|8,0:0|0:0,0:0:0:0:
245,177,54134,5,0,0:0:0:0:
203,345,54296,1,8,0:0:0:0:
136,189,54458,1,8,0:0:0:0:
365,284,54620,2,0,P|361:341|332:371,1,100,8|0,0:0|0:0,0:0:0:0:
36,112,54944,6,0,B|127:83|142:135|242:107,1,200,0|8,0:0|0:0,0:0:0:0:
327,72,55431,1,0,0:0:0:0:
394,145,55593,2,0,L|453:240,2,100,0|0|8,0:0|0:0|0:0,0:0:0:0:
241,204,56080,2,0,P|205:272|308:267,1,200
136,198,56566,5,8,0:0:0:0:
329,213,56728,1,0,0:0:0:0:
211,373,56809,1,0,0:0:0:0:
97,285,57053,1,8,0:0:0:0:
97,285,57134,1,8,0:0:0:0:
97,285,57215,1,8,0:0:0:0:
188,109,57378,5,8,0:0:0:0:
188,109,57459,1,8,0:0:0:0:
188,109,57540,2,0,L|297:138,1,100
121,44,57864,2,0,P|96:106|115:160,1,100,8|0,0:0|0:0,0:0:0:0:
345,195,58188,2,0,P|368:151|364:102,1,100
58,226,58512,2,0,L|170:255,1,100,8|0,0:0|0:0,0:0:0:0:
400,333,58836,2,0,L|303:307,1,100
235,216,59161,5,8,0:0:0:0:
224,329,59323,1,0,0:0:0:0:
148,175,59485,1,0,0:0:0:0:
306,311,59647,1,0,0:0:0:0:
133,329,59809,1,8,0:0:0:0:
323,187,59971,6,0,P|394:200|450:88,1,200
363,97,60458,1,8,0:0:0:0:
265,117,60620,2,0,L|56:143,1,200
138,51,61107,5,8,0:0:0:0:
161,214,61269,1,0,0:0:0:0:
50,43,61431,2,0,L|70:164,1,100
48,288,61755,1,8,0:0:0:0:
161,214,61917,1,0,0:0:0:0:
385,214,62080,5,0,0:0:0:0:
339,266,62161,1,0,0:0:0:0:
272,287,62242,1,0,0:0:0:0:
204,270,62323,1,0,0:0:0:0:
161,214,62404,1,8,0:0:0:0:
157,144,62485,1,0,0:0:0:0:
201,90,62566,6,0,P|327:115|422:23,1,239.999992675781,4|0,0:0|0:0,0:0:0:0:
286,13,63053,1,8,0:0:0:0:
73,85,63215,1,0,0:0:0:0:
247,226,63377,1,0,0:0:0:0:
181,43,63539,1,0,0:0:0:0:
97,264,63701,1,8,0:0:0:0:
304,171,63863,6,0,P|326:232|188:282,1,239.999992675781
226,117,64350,1,8,0:0:0:0:
400,283,64512,1,0,0:0:0:0:
110,210,64674,1,0,0:0:0:0:
312,45,64836,1,0,0:0:0:0:
195,287,64998,1,8,0:0:0:0:
349,193,65161,6,0,L|94:211,1,239.999992675781
172,103,65647,1,8,0:0:0:0:
279,297,65809,1,0,0:0:0:0:
346,91,65971,1,0,0:0:0:0:
109,210,66134,1,0,0:0:0:0:
373,353,66296,1,8,0:0:0:0:
211,173,66458,6,0,B|173:126|22:101|22:101|40:177,1,239.999992675781
77,288,66944,1,8,0:0:0:0:
295,221,67107,1,0,0:0:0:0:
312,163,67188,1,0,0:0:0:0:
282,110,67269,1,0,0:0:0:0:
143,44,67431,1,0,0:0:0:0:
398,142,67593,1,0,0:0:0:0:
127,180,67755,1,0,0:0:0:0:
384,245,67917,6,0,P|334:318|307:212,1,239.999992675781,4|8,0:0|0:0,0:0:0:0:
472,212,68404,1,0,0:0:0:0:
207,284,68566,1,0,0:0:0:0:
264,52,68728,1,0,0:0:0:0:
384,245,68890,1,8,0:0:0:0:
134,235,69053,6,0,P|123:328|271:346,1,239.999992675781
228,184,69539,1,8,0:0:0:0:
26,280,69701,1,0,0:0:0:0:
121,91,69863,1,0,0:0:0:0:
331,248,70025,1,0,0:0:0:0:
144,244,70188,1,8,0:0:0:0:
337,114,70350,6,0,L|484:324,1,239.999992675781
260,185,70836,1,8,0:0:0:0:
503,175,70998,1,0,0:0:0:0:
211,91,71161,1,0,0:0:0:0:
508,261,71323,1,0,0:0:0:0:
194,285,71485,1,8,0:0:0:0:
323,64,71647,6,0,B|254:64|212:93|212:93|164:62|68:62,1,239.999992675781
375,172,72134,1,8,0:0:0:0:
194,285,72296,2,0,L|324:253,1,119.999996337891
294,116,72620,1,0,0:0:0:0:
112,290,72782,1,8,0:0:0:0:
112,290,72863,1,0,0:0:0:0:
112,290,72944,6,0,P|137:202|91:57,1,239.999992675781,4|0,0:0|0:0,0:0:0:0:
4,229,73431,1,8,0:0:0:0:
294,116,73593,1,0,0:0:0:0:
185,345,73755,1,0,0:0:0:0:
133,144,73917,1,0,0:0:0:0:
343,320,74080,1,8,0:0:0:0:
243,42,74242,6,0,B|320:19|428:98|428:98|365:114,1,239.999992675781
245,247,74728,1,8,0:0:0:0:
389,107,74890,1,0,0:0:0:0:
442,303,75053,1,0,0:0:0:0:
148,309,75215,1,0,0:0:0:0:
439,209,75377,1,8,0:0:0:0:
152,132,75539,6,0,P|88:187|157:311,1,239.999992675781
276,124,76025,1,8,0:0:0:0:
274,336,76188,2,0,L|344:215,1,119.999996337891
467,239,76512,1,0,0:0:0:0:
276,124,76674,1,8,0:0:0:0:
147,308,76836,5,0,0:0:0:0:
471,129,76998,1,0,0:0:0:0:
125,58,77161,1,0,0:0:0:0:
327,351,77323,1,8,0:0:0:0:
302,33,77485,1,0,0:0:0:0:
60,228,77647,1,0,0:0:0:0:
353,236,77809,1,0,0:0:0:0:
353,236,77890,1,0,0:0:0:0:
353,236,77971,1,8,0:0:0:0:
187,165,78134,5,0,0:0:0:0:
187,165,78215,1,0,0:0:0:0:
187,165,78296,2,0,L|178:290,1,100
287,115,78620,1,8,0:0:0:0:
125,319,78944,2,0,P|177:341|240:309,1,100
327,251,79269,1,8,0:0:0:0:
403,104,79431,2,0,L|402:328,1,200
203,182,79917,5,8,0:0:0:0:
327,251,80080,1,0,0:0:0:0:
306,126,80242,1,0,0:0:0:0:
293,355,80404,1,0,0:0:0:0:
129,258,80566,2,0,L|138:325,1,50,8|4,0:0|0:0,0:0:0:0:
256,192,80728,12,0,83485,0:0:0:0:
88,88,84782,6,0,L|92:156,1,50
96,164,84944,1,0,0:0:0:0:
100,188,85025,1,0,0:0:0:0:
224,144,85107,2,0,L|268:180,1,50
372,188,85269,2,0,L|392:160,6,25
372,192,85917,6,0,P|312:280|196:264,1,200,4|0,0:0|0:0,0:0:0:0:
264,176,86404,1,8,0:0:0:0:
232,360,86566,1,0,0:0:0:0:
98,243,86728,1,0,0:0:0:0:
228,280,86890,1,0,0:0:0:0:
192,146,87053,1,8,0:0:0:0:
28,271,87215,2,0,P|95:319|128:311,1,100
262,117,87539,6,0,P|195:69|162:77,1,100,0|8,0:0|0:0,0:0:0:0:
96,240,87863,1,0,0:0:0:0:
69,114,88025,1,0,0:0:0:0:
182,250,88188,2,0,L|294:281,1,100,0|8,0:0|0:0,0:0:0:0:
220,356,88512,1,0,0:0:0:0:
462,212,88674,6,0,P|395:222|266:172,1,200,0|8,0:0|0:0,0:0:0:0:
350,97,89161,2,0,P|418:69|444:38,2,100
237,80,89647,1,8,0:0:0:0:
394,312,89809,5,0,0:0:0:0:
394,312,89971,2,0,B|332:332|305:359|305:359|256:329|166:348,1,200,0|8,0:0|0:0,0:0:0:0:
66,250,90458,2,0,L|185:272,2,100
247,162,90944,1,8,0:0:0:0:
83,107,91107,1,0,0:0:0:0:
324,48,91269,1,0,0:0:0:0:
324,48,91755,6,0,L|384:141,1,100
298,283,92080,1,0,0:0:0:0:
461,269,92242,1,8,0:0:0:0:
250,218,92404,2,0,P|220:267|236:335,1,100
379,265,92728,1,0,0:0:0:0:
224,137,92890,1,8,0:0:0:0:
122,287,93053,2,0,L|136:387,1,100
171,202,93377,1,0,0:0:0:0:
67,215,93539,2,0,L|26:327,1,100,8|0,0:0|0:0,0:0:0:0:
303,123,93863,6,0,P|235:60|145:125,1,200,0|8,0:0|0:0,0:0:0:0:
396,141,94350,2,0,L|442:41,1,100
309,254,94674,2,0,L|265:351,1,100,0|8,0:0|0:0,0:0:0:0:
401,265,94998,1,0,0:0:0:0:
240,193,95161,1,0,0:0:0:0:
143,313,95323,1,0,0:0:0:0:
143,313,95485,6,0,P|97:254|100:214,1,100
205,113,95809,2,0,P|168:58|161:129,1,179.999994506836
189,185,96134,2,0,P|264:160|275:90,1,110.000003356934,8|0,0:0|0:0,0:0:0:0:
350,66,96458,5,4,0:0:0:0:
350,66,96782,6,0,L|392:185,1,110.000003356934,8|0,0:0|0:0,0:0:0:0:
454,248,97107,1,0,0:0:0:0:
302,204,97269,1,0,0:0:0:0:
424,339,97431,1,8,0:0:0:0:
272,294,97593,1,0,0:0:0:0:
424,339,97755,2,0,L|303:376,1,110.000003356934
500,306,98080,5,8,0:0:0:0:
272,294,98242,2,0,L|163:321,1,110.000003356934
128,222,98566,1,0,0:0:0:0:
88,365,98728,1,8,0:0:0:0:
17,241,98890,1,0,0:0:0:0:
140,112,99053,6,0,P|207:134|359:80,1,220.000006713867,0|8,0:0|0:0,0:0:0:0:
77,59,99539,2,0,P|58:118|84:174,1,110.000003356934
406,142,99863,2,0,P|421:90|402:39,1,110.000003356934,0|8,0:0|0:0,0:0:0:0:
139,108,100188,1,0,0:0:0:0:
359,259,100350,6,0,B|292:260|253:295|253:295|216:258|105:262,1,220.000006713867,0|8,0:0|0:0,0:0:0:0:
406,193,100836,2,0,P|443:266|328:331,1,220.000006713867
203,183,101323,1,8,0:0:0:0:
275,360,101485,1,0,0:0:0:0:
51,249,101647,1,0,0:0:0:0:
51,249,101971,6,0,L|75:137,1,110.000003356934,8|0,0:0|0:0,0:0:0:0:
180,129,102296,1,0,0:0:0:0:
78,34,102458,1,0,0:0:0:0:
256,123,102620,2,0,P|230:188|177:205,1,110.000003356934,8|0,0:0|0:0,0:0:0:0:
74,141,102944,1,0,0:0:0:0:
168,36,103107,5,0,0:0:0:0:
163,299,103269,1,8,0:0:0:0:
256,58,103431,5,0,0:0:0:0:
256,281,103593,1,0,0:0:0:0:
342,85,103755,5,0,0:0:0:0:
343,257,103917,1,8,0:0:0:0:
422,127,104080,5,0,0:0:0:0:
422,127,104161,1,0,0:0:0:0:
422,127,104242,2,0,L|422:253,1,110.000003356934
305,167,104566,1,8,0:0:0:0:
472,322,104728,1,0,0:0:0:0:
296,326,104890,1,0,0:0:0:0:
350,101,105053,6,0,P|286:90|225:151,1,110.000003356934,0|8,0:0|0:0,0:0:0:0:
81,252,105377,2,0,P|145:263|206:202,1,110.000003356934
156,102,105701,5,0,0:0:0:0:
295,241,105863,1,8,0:0:0:0:
81,252,106025,1,0,0:0:0:0:
309,43,106188,1,0,0:0:0:0:
309,43,106269,1,0,0:0:0:0:
309,43,106350,1,0,0:0:0:0:
54,112,106512,1,8,0:0:0:0:
402,229,106674,1,4,0:0:0:0:
402,229,107161,6,0,L|282:239,1,100,8|0,0:0|0:0,0:0:0:0:
100,176,107486,1,0,0:0:0:0:
260,158,107647,1,0,0:0:0:0:
173,107,107809,1,8,0:0:0:0:
57,244,107971,2,0,P|22:181|43:121,1,110.000003356934,2|0,0:0|0:0,0:0:0:0:
304,94,108296,2,0,P|339:157|313:214,1,110.000003356934,2|8,0:0|0:0,0:0:0:0:
231,45,108620,5,0,0:0:0:0:
419,132,108782,1,0,0:0:0:0:
254,244,108944,1,8,0:0:0:0:
304,94,109107,1,8,0:0:0:0:
137,141,109269,1,8,0:0:0:0:
343,263,109431,6,0,P|305:319|171:286,1,200,4|8,0:0|0:0,0:0:0:0:
452,232,109917,1,0,0:0:0:0:
343,263,110080,2,0,L|130:263,1,200,0|8,0:0|0:0,0:0:0:0:
257,135,110566,2,0,B|323:135|351:157|351:157|400:131|400:131|486:132,1,200
318,51,111053,1,8,0:0:0:0:
322,281,111215,1,0,0:0:0:0:
446,131,111377,1,0,0:0:0:0:
189,83,111539,5,0,0:0:0:0:
189,83,111620,1,0,0:0:0:0:
189,83,111701,1,8,0:0:0:0:
322,281,111863,1,0,0:0:0:0:
322,281,111944,1,0,0:0:0:0:
322,281,112025,2,0,P|280:340|238:358,1,100
424,218,112350,2,0,P|472:247|500:306,1,100,8|0,0:0|0:0,0:0:0:0:
365,115,112674,2,0,P|407:56|449:38,1,100
260,168,112998,2,0,P|212:139|184:80,1,100,8|0,0:0|0:0,0:0:0:0:
288,67,113323,5,0,0:0:0:0:
174,287,113485,1,0,0:0:0:0:
87,122,113647,1,8,0:0:0:0:
286,264,113809,1,8,0:0:0:0:
188,33,113971,1,8,0:0:0:0:
80,266,114134,1,8,0:0:0:0:
328,174,114296,5,8,0:0:0:0:
228,347,114458,2,0,L|445:338,1,200
228,180,114944,1,8,0:0:0:0:
395,54,115107,2,0,B|392:129|433:174|433:174|408:223|425:286,1,200
311,118,115593,1,8,0:0:0:0:
228,180,115755,2,0,L|131:132,1,100
225,57,116080,5,0,0:0:0:0:
159,302,116242,1,8,0:0:0:0:
311,118,116404,1,0,0:0:0:0:
35,144,116566,5,8,0:0:0:0:
325,331,116809,1,8,0:0:0:0:
329,27,117012,1,8,0:0:0:0:
134,216,117215,1,8,0:0:0:0:
421,164,117458,1,0,0:0:0:0:
415,233,117539,1,0,0:0:0:0:
374,289,117620,1,0,0:0:0:0:
309,315,117701,1,0,0:0:0:0:
239,310,117782,1,0,0:0:0:0:
211,245,117863,6,8,L|215:123,1,100
211,245,118350,6,0,P|96:227|43:360,1,239.999992675781
137,309,118836,1,8,0:0:0:0:
70,127,118998,1,0,0:0:0:0:
237,317,119161,1,0,0:0:0:0:
10,188,119323,1,0,0:0:0:0:
229,78,119485,1,8,0:0:0:0:
124,25,119647,6,0,L|196:257,1,239.999992675781
229,78,120134,1,8,0:0:0:0:
70,127,120296,1,0,0:0:0:0:
302,155,120458,1,0,0:0:0:0:
100,280,120620,1,0,0:0:0:0:
393,243,120782,1,8,0:0:0:0:
32,329,120944,6,0,P|121:359|167:232,1,239.999992675781
160,161,121431,1,8,0:0:0:0:
276,298,121593,1,0,0:0:0:0:
273,82,121755,1,0,0:0:0:0:
96,232,121917,1,0,0:0:0:0:
386,188,122080,1,8,0:0:0:0:
34,89,122242,6,0,B|153:45|152:109|274:81,1,239.999992675781
160,161,122728,1,8,0:0:0:0:
386,188,122890,1,0,0:0:0:0:
406,244,122971,1,0,0:0:0:0:
379,298,123053,1,0,0:0:0:0:
126,270,123215,1,0,0:0:0:0:
287,150,123377,1,8,0:0:0:0:
303,382,123539,1,8,0:0:0:0:
9,327,123701,6,0,L|36:63,1,239.999992675781,0|8,0:0|0:0,0:0:0:0:
222,68,124188,1,0,0:0:0:0:
126,270,124350,1,0,0:0:0:0:
332,158,124512,1,0,0:0:0:0:
113,156,124674,1,8,0:0:0:0:
353,267,124836,6,0,B|292:263|292:263|262:287|262:287|233:262|116:270,1,239.999992675781
431,228,125323,1,8,0:0:0:0:
227,355,125485,1,0,0:0:0:0:
437,353,125647,1,0,0:0:0:0:
332,158,125809,1,0,0:0:0:0:
333,362,125971,1,8,0:0:0:0:
410,152,126134,6,0,P|335:78|253:164,1,239.999992675781
305,261,126620,1,8,0:0:0:0:
124,194,126782,1,0,0:0:0:0:
227,355,126944,1,0,0:0:0:0:
197,82,127107,1,0,0:0:0:0:
25,213,127269,1,8,0:0:0:0:
67,287,127431,2,0,L|306:260,1,239.999992675781
98,143,127917,5,8,0:0:0:0:
67,287,128080,2,0,P|96:355|162:365,1,119.999996337891
420,215,128404,5,8,0:0:0:0:
420,215,128485,1,8,0:0:0:0:
420,215,128566,1,8,0:0:0:0:
420,215,128647,1,8,0:0:0:0:
420,215,128728,6,0,P|318:221|268:80,1,239.999992675781
129,126,129215,1,8,0:0:0:0:
186,249,129377,1,0,0:0:0:0:
258,113,129539,1,0,0:0:0:0:
53,32,129701,1,0,0:0:0:0:
84,232,129863,1,8,0:0:0:0:
408,250,130025,2,0,B|333:256|289:290|289:290|215:244|166:249,1,239.999992675781
447,178,130512,5,8,0:0:0:0:
369,341,130674,1,0,0:0:0:0:
276,184,130836,1,0,0:0:0:0:
455,306,130998,1,0,0:0:0:0:
310,90,131161,1,8,0:0:0:0:
369,341,131323,6,0,B|280:324|92:344,1,239.999992675781
276,184,131809,5,8,0:0:0:0:
127,66,131971,1,0,0:0:0:0:
278,259,132134,1,0,0:0:0:0:
421,65,132296,1,0,0:0:0:0:
108,237,132458,1,8,0:0:0:0:
420,208,132620,5,0,0:0:0:0:
127,66,132782,1,0,0:0:0:0:
260,342,132944,1,0,0:0:0:0:
329,37,133107,1,8,0:0:0:0:
108,237,133269,1,0,0:0:0:0:
108,237,133350,1,0,0:0:0:0:
108,237,133431,1,0,0:0:0:0:
422,309,133593,1,0,0:0:0:0:
422,309,133674,1,0,0:0:0:0:
422,309,133755,2,0,L|421:189,1,100,8|0,0:0|0:0,0:0:0:0:
361,132,134080,5,0,0:0:0:0:
256,297,134404,2,0,P|179:305|140:279,1,100,8|0,0:0|0:0,0:0:0:0:
211,220,134728,1,0,0:0:0:0:
335,259,134890,2,0,L|346:362,1,100,0|8,0:0|0:0,0:0:0:0:
133,194,135215,2,0,P|188:143|289:196,1,200
42,207,135701,6,0,L|66:101,1,100,8|0,0:0|0:0,0:0:0:0:
169,36,136025,1,0,0:0:0:0:
306,47,136188,1,0,0:0:0:0:
409,123,136350,2,0,L|429:194,1,50,8|0,0:0|0:0,0:0:0:0:
256,192,136512,12,0,139107,0:0:0:0:
256,192,139269,12,0,140404,0:0:0:0:
256,192,140566,12,4,141863,0:0:0:0:
192,208,150944,6,0,L|160:144,2,59.9999981689454
264,108,151431,1,0,0:0:0:0:
64,260,151512,1,0,0:0:0:0:
64,260,151593,1,0,0:0:0:0:
60,256,151674,2,0,L|100:288,1,29.9999990844727
152,332,151836,2,0,L|192:312,1,29.9999990844727
268,280,151998,2,0,L|312:308,1,29.9999990844727
368,352,152242,1,8,0:0:0:0:
368,352,152728,5,8,0:0:0:0:
364,168,152890,1,8,0:0:0:0:
472,292,153053,1,8,0:0:0:0:
335,240,153215,2,0,P|287:186|360:92,1,165.000005035401
458,49,153539,2,0,L|293:56,1,165.000005035401
198,94,153863,2,0,B|206:149|190:176|190:176|206:214|189:290,1,165.000005035401
136,343,154188,1,2,0:0:0:0:
39,152,154512,5,0,0:0:0:0:
39,152,154593,1,0,0:0:0:0:
39,152,154674,2,0,L|122:177,1,55.0000016784668
114,74,154836,1,8,0:0:0:0:
438,196,155161,6,0,L|373:239,1,55.0000016784668
311,244,155324,1,8,0:0:0:0:
363,118,155486,1,8,0:0:0:0:
417,330,155647,1,8,0:0:0:0:
277,333,155810,6,0,B|223:306|188:303|188:303|147:328|88:295,1,165.000005035401
57,132,156134,2,0,P|130:163|145:248,1,165.000005035401
16,199,156458,2,0,L|107:43,1,165.000005035401
189,68,156782,1,0,0:0:0:0:
361,135,156944,5,0,0:0:0:0:
361,135,157025,1,0,0:0:0:0:
361,135,157107,2,0,L|386:221,1,55.0000016784668
416,61,157269,1,0,0:0:0:0:
172,158,157431,5,8,0:0:0:0:
469,193,157593,1,0,0:0:0:0:
237,87,157755,1,0,0:0:0:0:
332,281,157917,1,8,0:0:0:0:
335,52,158080,1,8,0:0:0:0:
172,158,158242,1,8,0:0:0:0:
195,253,158404,6,0,L|273:342,1,110.000003356934
101,232,158728,2,0,P|146:167|199:158,1,110.000003356934,0|8,0:0|0:0,0:0:0:0:
112,321,159053,1,8,0:0:0:0:
32,155,159215,1,8,0:0:0:0:
257,189,159377,5,0,0:0:0:0:
17,267,159539,1,0,0:0:0:0:
153,78,159701,1,8,0:0:0:0:
235,298,159863,1,8,0:0:0:0:
43,70,160025,6,0,L|164:78,1,110.000003356934
464,142,160350,2,0,L|343:134,1,110.000003356934
153,78,160674,1,8,0:0:0:0:
218,212,160836,1,8,0:0:0:0:
355,134,160998,1,8,0:0:0:0:
108,163,161161,5,0,0:0:0:0:
308,45,161323,1,0,0:0:0:0:
296,290,161485,1,8,0:0:0:0:
177,51,161647,1,0,0:0:0:0:
203,330,161809,1,8,0:0:0:0:
308,45,161971,6,0,L|416:88,1,110.000003356934,8|8,0:0|0:0,0:0:0:0:
296,290,162296,1,8,0:0:0:0:
177,51,162458,1,8,0:0:0:0:
376,285,162620,6,0,P|344:354|219:302,1,220.000006713867
450,222,163107,1,8,0:0:0:0:
179,263,163269,2,0,L|141:155,1,110.000003356934,8|8,0:0|0:0,0:0:0:0:
320,90,163593,5,0,0:0:0:0:
288,246,163755,1,2,0:0:0:0:
400,81,163917,2,0,P|366:155|241:91,1,220.000006713867,2|0,0:0|0:0,0:0:0:0:
29,308,164404,2,0,P|63:234|188:298,1,220.000006713867,2|0,0:0|0:0,0:0:0:0:
108,301,164890,1,8,0:0:0:0:
258,133,165053,5,8,0:0:0:0:
258,133,165134,1,8,0:0:0:0:
258,133,165215,2,0,P|176:130|136:83,1,110.000003356934
307,52,165539,1,0,0:0:0:0:
388,223,165701,2,0,B|326:250|278:232|278:232|249:261|161:263,1,220.000006713867,2|0,0:0|0:0,0:0:0:0:
384,142,166188,2,0,P|442:164|419:297,1,220.000006713867,2|0,0:0|0:0,0:0:0:0:
265,85,166674,5,0,0:0:0:0:
307,323,166836,1,0,0:0:0:0:
485,137,166998,1,0,0:0:0:0:
163,183,167161,1,0,0:0:0:0:
405,69,167323,2,0,L|389:192,1,110.000003356934,0|8,0:0|0:0,0:0:0:0:
209,276,167647,5,8,0:0:0:0:
209,276,167728,1,0,0:0:0:0:
209,276,167809,2,0,P|163:208|173:146,1,110.000003356934,4|0,0:0|0:0,0:0:0:0:
253,92,168134,1,0,0:0:0:0:
208,359,168296,2,0,L|87:329,1,110.000003356934
74,173,168620,1,0,0:0:0:0:
286,225,168782,1,0,0:0:0:0:
100,330,168944,1,0,0:0:0:0:
20,82,169107,6,0,B|114:26|177:82|177:82|160:118|156:172,1,220.000006713867,2|0,0:0|0:0,0:0:0:0:
427,272,169593,2,0,B|333:328|270:272|270:272|287:236|291:182,1,220.000006713867,2|0,0:0|0:0,0:0:0:0:
433,158,170080,1,0,0:0:0:0:
187,233,170242,5,8,0:0:0:0:
187,233,170323,1,8,0:0:0:0:
187,233,170404,2,0,P|183:297|211:355,1,110.000003356934,4|0,0:0|0:0,0:0:0:0:
251,147,170728,1,0,0:0:0:0:
45,198,170890,2,0,L|239:58,1,220.000006713867,2|0,0:0|0:0,0:0:0:0:
404,176,171377,1,0,0:0:0:0:
223,68,171539,2,0,L|355:40,1,110.000003356934
404,176,171863,5,0,0:0:0:0:
224,67,172025,1,0,0:0:0:0:
290,296,172188,1,0,0:0:0:0:
431,256,172350,1,0,0:0:0:0:
142,226,172512,1,0,0:0:0:0:
410,330,172674,1,8,0:0:0:0:
275,72,172836,1,8,0:0:0:0:
156,306,172998,6,0,P|92:291|63:227,1,110.000003356934,4|0,0:0|0:0,0:0:0:0:
444,257,173323,2,0,P|409:298|356:306,1,110.000003356934,8|0,0:0|0:0,0:0:0:0:
134,161,173647,1,8,0:0:0:0:
378,161,173809,1,0,0:0:0:0:
255,260,173971,1,8,0:0:0:0:
203,93,174134,5,0,0:0:0:0:
203,93,174215,1,0,0:0:0:0:
203,93,174296,2,0,B|256:84|256:84|314:92,1,110.000003356934,8|0,0:0|0:0,0:0:0:0:
255,260,174620,1,8,0:0:0:0:
378,161,174782,2,0,L|418:275,1,110.000003356934,0|8,0:0|0:0,0:0:0:0:
255,260,175107,1,0,0:0:0:0:
97,264,175269,2,0,L|134:161,1,110.000003356934,8|0,0:0|0:0,0:0:0:0:
336,280,175593,6,0,P|270:342|175:257,1,220.000006713867,12|8,0:0|0:0,0:0:0:0:
76,101,176080,1,0,0:0:0:0:
134,161,176242,2,0,P|175:123|239:113,1,110.000003356934,8|0,0:0|0:0,0:0:0:0:
428,230,176566,2,0,P|387:268|323:278,1,110.000003356934,8|0,0:0|0:0,0:0:0:0:
268,186,176890,1,8,0:0:0:0:
228,109,177053,1,0,0:0:0:0:
226,262,177215,1,8,0:0:0:0:
355,178,177377,5,0,0:0:0:0:
113,160,177539,1,8,0:0:0:0:
355,317,177701,1,0,0:0:0:0:
348,57,177863,1,8,0:0:0:0:
113,160,178025,1,0,0:0:0:0:
443,124,178188,6,0,B|454:189|430:235|430:235|453:278|440:360,1,220.000006713867,12|8,0:0|0:0,0:0:0:0:
358,169,178674,1,0,0:0:0:0:
442,338,178836,2,0,L|304:307,1,110.000003356934,8|0,0:0|0:0,0:0:0:0:
215,194,179161,1,8,0:0:0:0:
241,348,179323,1,0,0:0:0:0:
142,168,179485,2,0,P|190:121|242:122,1,110.000003356934,8|0,0:0|0:0,0:0:0:0:
215,194,179809,1,8,0:0:0:0:
76,77,179971,2,0,L|49:197,1,110.000003356934,0|8,0:0|0:0,0:0:0:0:
131,268,180296,1,0,0:0:0:0:
375,184,180458,5,8,0:0:0:0:
375,184,180539,1,0,0:0:0:0:
375,184,180620,2,0,L|325:134,1,55.0000016784668
448,148,180782,2,0,P|448:222|306:219,1,220.000006713867,12|8,0:0|0:0,0:0:0:0:
241,137,181269,1,0,0:0:0:0:
273,341,181431,2,0,L|329:237,1,110.000003356934,8|0,0:0|0:0,0:0:0:0:
241,137,181755,5,8,0:0:0:0:
154,253,181917,1,0,0:0:0:0:
280,66,182080,2,0,P|214:62|163:111,1,110.000003356934,8|0,0:0|0:0,0:0:0:0:
265,235,182404,1,8,0:0:0:0:
110,148,182566,1,0,0:0:0:0:
360,147,182728,1,8,0:0:0:0:
154,253,182890,1,0,0:0:0:0:
280,66,183053,1,8,0:0:0:0:
359,312,183215,5,0,0:0:0:0:
359,312,183296,1,0,0:0:0:0:
359,312,183377,2,0,P|272:318|216:257,1,139.999995727539,4|0,0:0|0:0,0:0:0:0:
360,147,183701,1,0,0:0:0:0:
125,180,183863,2,0,L|287:210,1,139.999995727539,4|0,0:0|0:0,0:0:0:0:
243,51,184188,1,0,0:0:0:0:
49,171,184350,2,0,P|76:238|150:254,1,139.999995727539,4|0,0:0|0:0,0:0:0:0:
299,340,184674,6,0,L|259:193,1,139.999995727539,4|0,0:0|0:0,0:0:0:0:
388,131,184998,1,0,0:0:0:0:
468,276,185161,2,0,P|383:265|343:198,1,139.999995727539,4|0,0:0|0:0,0:0:0:0:
254,89,185485,1,0,0:0:0:0:
131,209,185647,2,0,B|154:242|188:250|188:250|196:287|241:308,1,139.999995727539,4|0,0:0|0:0,0:0:0:0:
94,134,185971,6,0,P|46:205|51:254,1,69.9999978637696
62,284,186134,1,8,0:0:0:0:
230,304,186296,1,0,0:0:0:0:
265,142,186458,2,0,L|308:209,1,69.9999978637696
230,304,186620,1,8,0:0:0:0:
179,139,186782,1,8,0:0:0:0:
370,223,186944,2,8,P|338:264|296:268,1,69.9999978637696
400,135,187107,1,8,0:0:0:0:
449,184,187188,1,8,0:0:0:0:
455,253,187269,1,8,0:0:0:0:
418,312,187350,1,8,0:0:0:0:
362,354,187431,1,8,0:0:0:0:
292,352,187512,1,8,0:0:0:0:
224,334,187593,1,8,0:0:0:0:
183,277,187674,1,8,0:0:0:0:
174,207,187755,1,8,0:0:0:0:
187,138,187836,1,8,0:0:0:0:
248,105,187917,5,6,0:0:0:0:
248,105,187998,1,2,0:0:0:0:
83,254,188161,1,2,0:0:0:0:
83,254,188242,1,2,0:0:0:0:
361,206,188404,1,10,0:0:0:0:
64,57,188566,1,2,0:0:0:0:
64,57,188647,1,2,0:0:0:0:
216,279,188809,5,6,0:0:0:0:
216,279,188890,1,2,0:0:0:0:
394,55,189053,1,10,0:0:0:0:
221,143,189215,1,6,0:0:0:0:
221,143,189296,1,2,0:0:0:0:
429,261,189458,1,6,0:0:0:0:
429,261,189539,1,2,0:0:0:0:
292,240,197485,6,0,P|208:231|200:96,1,220.000006713867,4|8,0:0|0:0,0:0:0:0:
316,98,197971,1,0,0:0:0:0:
369,233,198134,2,0,P|350:295|274:318,1,110.000003356934,8|0,0:0|0:0,0:0:0:0:
112,127,198458,2,0,P|131:65|207:42,1,110.000003356934,8|0,0:0|0:0,0:0:0:0:
157,349,198782,2,0,B|81:316|114:208|114:208|88:214|88:214|22:178,1,220.000006713867,12|8,0:0|0:0,0:0:0:0:
19,316,199269,1,0,0:0:0:0:
214,193,199431,1,8,0:0:0:0:
235,217,199512,1,8,0:0:0:0:
260,238,199593,1,8,0:0:0:0:
288,254,199674,1,8,0:0:0:0:
318,266,199755,1,8,0:0:0:0:
354,224,199836,1,8,0:0:0:0:
374,173,199917,1,8,0:0:0:0:
378,118,199998,1,8,0:0:0:0:
359,65,200080,6,0,B|272:92|166:57|166:57|248:11,1,239.999992675781,4|0,0:0|0:0,0:0:0:0:
463,159,200566,1,8,0:0:0:0:
223,189,200728,1,0,0:0:0:0:
437,41,200890,1,0,0:0:0:0:
348,286,201053,1,0,0:0:0:0:
201,33,201215,1,8,0:0:0:0:
425,311,201377,6,0,P|362:364|280:247,1,239.999992675781
472,216,201863,1,8,0:0:0:0:
272,268,202025,1,0,0:0:0:0:
419,40,202188,1,0,0:0:0:0:
158,224,202350,1,0,0:0:0:0:
302,0,202512,1,8,0:0:0:0:
381,232,202674,6,0,B|325:200|305:142|305:142|248:160|165:122,1,239.999992675781
98,64,203161,1,8,0:0:0:0:
101,295,203323,1,0,0:0:0:0:
266,45,203485,1,0,0:0:0:0:
394,294,203647,1,0,0:0:0:0:
46,143,203809,5,8,0:0:0:0:
409,77,203971,1,0,0:0:0:0:
224,352,204134,1,0,0:0:0:0:
160,38,204296,1,0,0:0:0:0:
394,294,204458,1,8,0:0:0:0:
65,228,204620,5,0,0:0:0:0:
65,228,204701,1,0,0:0:0:0:
65,228,204782,1,0,0:0:0:0:
378,179,204944,1,0,0:0:0:0:
378,179,205025,1,0,0:0:0:0:
378,179,205107,2,0,L|257:113,1,119.999996337891,8|0,0:0|0:0,0:0:0:0:
249,225,205431,5,0,0:0:0:0:
458,142,205755,2,8,L|460:263,1,100,8|0,0:0|0:0,0:0:0:0:
347,289,206080,1,0,0:0:0:0:
441,348,206242,1,0,0:0:0:0:
458,143,206404,1,8,0:0:0:0:
253,293,206566,2,0,P|186:286|257:233,1,200
72,286,207053,5,8,0:0:0:0:
147,110,207215,2,0,L|162:188,1,50
65,186,207377,1,0,0:0:0:0:
243,72,207539,1,0,0:0:0:0:
46,45,207701,2,0,L|64:118,1,50,8|4,0:0|0:0,0:0:0:0:
256,192,207863,12,0,209971,0:0:0:0:
256,192,210620,12,0,211269,0:0:0:0:
256,192,211917,12,0,212566,0:0:0:0:
256,192,213215,12,0,215647,0:0:0:0:
256,197,215809,5,0,0:0:0:0:
414,109,216296,1,0,0:0:0:0:
422,284,216458,1,8,0:0:0:0:
389,34,216620,2,0,P|343:82|350:154,1,100
254,44,216944,1,0,0:0:0:0:
254,44,217025,1,0,0:0:0:0:
254,44,217107,1,8,0:0:0:0:
474,217,217268,5,0,0:0:0:0:
422,284,217431,2,0,L|317:266,1,100
120,157,217755,1,8,0:0:0:0:
93,237,217917,2,0,P|157:233|199:187,1,100,0|8,0:0|0:0,0:0:0:0:
92,75,218242,1,0,0:0:0:0:
59,306,218404,6,0,P|164:314|262:234,1,200,8|0,0:0|0:0,0:0:0:0:
296,159,218890,1,0,0:0:0:0:
317,319,219053,1,8,0:0:0:0:
426,216,219215,1,0,0:0:0:0:
406,72,219377,6,0,L|382:148,1,50,0|8,0:0|0:0,0:0:0:0:
317,319,219620,2,0,L|301:253,1,50,0|8,0:0|0:0,0:0:0:0:
208,60,219863,2,0,L|184:136,1,50,0|8,0:0|0:0,0:0:0:0:
98,299,220107,2,0,L|82:233,1,50,0|8,0:0|0:0,0:0:0:0:
78,55,220350,6,0,L|102:131,1,50,0|8,0:0|0:0,0:0:0:0:
196,306,220593,2,0,L|212:240,1,50,0|8,0:0|0:0,0:0:0:0:
298,58,220836,6,0,L|322:134,1,50,0|8,0:0|0:0,0:0:0:0:
405,312,221080,1,4,0:0:0:0:
