osu file format v14

[General]
AudioFilename: audio.ogg
AudioLeadIn: 0
PreviewTime: 192742
Countdown: 0
SampleSet: Soft
StackLeniency: 0.2
Mode: 0
LetterboxInBreaks: 0
WidescreenStoryboard: 0

[Editor]
Bookmarks: 957,4385,18099,31814,45528,59242,72957,86671,100385,120957,134671,148385,162099,175814,192957,213528,227242
DistanceSpacing: 1.1
BeatDivisor: 16
GridSize: 8
TimelineZoom: 4.500004

[Metadata]
Title:Pure Blood
TitleUnicode:순혈주의자
Artist:Dareharu
ArtistUnicode:달의하루
Creator:Weeklycare
Version:Innocent
Source:
Tags:sunhyeoljuuija 앰프스타일 ampstyle 예은수 김초희 チョヒ 초희 Chohee 유경환 KyunghwanYoo KevPlays ミツキヨ Mitsukiyo OSUM TAK seibin AZ Roséthic TMDC 람다람 RAMDARAM pop korean kpop k-pop rock Enon Sweets Rose Pacifica Rose_Pacifica Kaguya_Sama Kaguya Sama midorijeon
BeatmapID:4248306
BeatmapSetID:2037012

[Difficulty]
HPDrainRate:5
CircleSize:4
OverallDifficulty:8.5
ApproachRate:9.5
SliderMultiplier:2.8
SliderTickRate:1

[Events]
//Background and Video events
0,0,"bg.jpg",0,0
Video,0,"video.mp4"
//Break Periods
//Storyboard Layer 0 (Background)
//Storyboard Layer 1 (Fail)
//Storyboard Layer 2 (Pass)
//Storyboard Layer 3 (Foreground)
//Storyboard Layer 4 (Overlay)
//Storyboard Sound Samples

[TimingPoints]
957,428.571428571429,4,2,1,50,1,0
3528,-100,4,2,1,60,0,0
4385,-100,4,2,1,75,0,0
4599,-100,4,2,2,75,0,0
4653,-100,4,2,1,75,0,0
5028,-125,4,2,2,75,0,0
5242,-125,4,2,1,75,0,0
5457,-125,4,2,2,75,0,0
5671,-100,4,2,1,75,0,0
5885,-100,4,2,2,75,0,0
5939,-100,4,2,1,75,0,0
6314,-125,4,2,2,75,0,0
6528,-125,4,2,1,75,0,0
6742,-125,4,2,2,75,0,0
6957,-100,4,2,1,75,0,0
7171,-100,4,2,2,75,0,0
7224,-100,4,2,1,75,0,0
7599,-100,4,2,2,75,0,0
7814,-100,4,2,1,75,0,0
8028,-100,4,2,2,75,0,0
8082,-100,4,2,1,75,0,0
8457,-125,4,2,2,75,0,0
8671,-125,4,2,1,75,0,0
8885,-125,4,2,2,75,0,0
9099,-100,4,2,1,75,0,0
9528,-83.3333333333333,4,2,1,75,0,0
10814,-100,4,2,1,75,0,0
11242,-71.4285714285714,4,2,1,75,0,0
11457,-71.4285714285714,4,2,2,75,0,0
11510,-71.4285714285714,4,2,1,75,0,0
11885,-71.4285714285714,4,2,2,75,0,0
12099,-71.4285714285714,4,2,1,75,0,0
12314,-83.3333333333333,4,2,2,75,0,0
12421,-83.3333333333333,4,2,1,75,0,0
12528,-71.4285714285714,4,2,1,75,0,0
12742,-71.4285714285714,4,2,2,75,0,0
12796,-71.4285714285714,4,2,1,75,0,0
13171,-71.4285714285714,4,2,2,75,0,0
13385,-71.4285714285714,4,2,1,75,0,0
13599,-71.4285714285714,4,2,2,75,0,0
13814,-71.4285714285714,4,2,1,75,0,0
14028,-71.4285714285714,4,2,2,75,0,0
14082,-71.4285714285714,4,2,1,75,0,0
14457,-71.4285714285714,4,2,2,75,0,0
14671,-71.4285714285714,4,2,1,75,0,0
14885,-71.4285714285714,4,2,2,75,0,0
14939,-71.4285714285714,4,2,1,75,0,0
15314,-71.4285714285714,4,2,2,75,0,0
15528,-71.4285714285714,4,2,1,75,0,0
15742,-71.4285714285714,4,2,2,75,0,0
15957,-71.4285714285714,4,2,1,75,0,0
17028,-285.714285714286,4,2,1,75,0,0
18099,-500.000000000003,4,2,3,60,0,0
18957,-166.666666666667,4,2,3,60,0,0
19814,-125,4,2,3,60,0,0
19974,-125,4,2,3,5,0,0
20028,-166.666666666667,4,2,3,60,0,0
20671,-111.111111111111,4,2,4,60,0,0
21528,-142.857142857143,4,2,3,60,0,0
22171,-250.000000000001,4,2,3,60,0,0
22385,-100,4,2,3,60,0,0
22814,-200,4,2,3,60,0,0
23028,-76.9230769230769,4,2,3,60,0,0
23457,-125,4,2,3,60,0,0
23671,-125,4,2,5,60,0,0
23724,-125,4,2,2,60,0,0
24099,-136.427627431036,4,2,3,60,0,0
24957,-500,4,2,3,60,0,0
25599,-500,4,2,6,60,0,0
25814,-100,4,2,3,60,0,0
26135,-76.9230769230769,4,2,3,60,0,0
26457,-200,4,2,3,60,0,0
26671,-138.888888888889,4,2,3,60,0,0
27528,-90.9090909090909,4,2,4,60,0,0
28385,-250,4,2,3,60,0,0
28599,-125,4,2,3,60,0,0
29242,-200,4,2,3,60,0,0
29349,-200,4,2,3,5,0,0
29457,-250,4,2,3,60,0,0
29671,-250,4,2,3,60,0,0
29778,-250,4,2,3,60,0,0
29885,-62.5,4,2,3,60,0,0
30046,-62.5,4,2,3,5,0,0
30099,-500,4,2,3,60,0,0
30260,-500,4,2,3,5,0,0
30314,-166.666666666667,4,2,7,60,0,0
30340,-166.666666666667,4,2,3,60,0,0
30474,-166.666666666667,4,2,3,5,0,0
30528,-500,4,2,2,60,0,0
30742,-500,4,2,5,60,0,0
30796,-500,4,2,2,60,0,0
30957,-90.9090909090909,4,2,1,60,0,0
31385,-285.714285714286,4,2,1,60,0,0
31814,-80,4,2,1,70,0,0
32242,-80,4,2,8,70,0,0
32457,-142.857142857143,4,2,1,70,0,0
32671,-83.3333333333333,4,2,8,70,0,0
32885,-83.3333333333333,4,2,1,70,0,0
33099,-83.3333333333333,4,2,9,70,0,0
33314,-83.3333333333333,4,2,4,70,0,0
33528,-66.6666666666667,4,2,4,70,0,0
33957,-80,4,2,9,70,0,0
34171,-500,4,2,4,70,0,0
34492,-500,4,2,1,70,0,0
34599,-83.3333333333333,4,2,1,70,0,0
34814,-83.3333333333333,4,2,8,70,0,0
35028,-83.3333333333333,4,2,5,70,0,0
35242,-76.9230769230769,4,2,10,70,0,0
35671,-76.9230769230769,4,2,8,70,0,0
35885,-76.9230769230769,4,2,1,70,0,0
36099,-76.9230769230769,4,2,8,70,0,0
36314,-76.9230769230769,4,2,1,70,0,0
36528,-333.333333333333,4,2,9,70,0,0
36742,-66.6666666666667,4,2,10,70,0,0
37064,-66.6666666666667,4,2,1,70,0,0
37171,-66.6666666666667,4,2,10,70,0,0
37385,-66.6666666666667,4,2,1,70,0,0
38671,-58.8235294117647,4,2,1,70,0,0
39099,-83.3333333333333,4,2,8,70,0,0
39314,-83.3333333333333,4,2,1,70,0,0
39528,-83.3333333333333,4,2,8,70,0,0
39742,-83.3333333333333,4,2,1,70,0,0
39957,-83.3333333333333,4,2,9,70,0,0
40171,-83.3333333333333,4,2,4,70,0,0
40385,-58.8235294117647,4,2,4,70,0,0
40814,-83.3333333333333,4,2,9,70,0,0
41028,-83.3333333333333,4,2,4,70,0,0
41349,-83.3333333333333,4,2,1,70,0,0
41457,-500,4,2,1,70,0,0
41671,-500,4,2,9,70,0,0
41778,-500,4,2,1,70,0,0
41885,-66.6666666666667,4,2,1,70,0,0
42099,-66.6666666666667,4,2,10,70,0,0
42528,-83.3333333333333,4,2,8,70,0,0
42742,-83.3333333333333,4,2,1,70,0,0
42957,-83.3333333333333,4,2,8,70,0,0
43064,-83.3333333333333,4,2,1,70,0,0
43385,-333.333333333333,4,2,9,70,0,0
43599,-83.3333333333333,4,2,10,70,0,0
44028,-83.3333333333333,4,2,1,70,0,0
44885,-142.857142857143,4,2,1,70,0,0
45099,-100,4,2,1,70,0,0
45314,-250,4,2,1,70,0,0
45528,-105.263157894737,4,2,11,60,0,0
45957,-105.263157894737,4,2,5,60,0,0
46385,-333.333333333334,4,2,12,60,0,0
46814,-333.333333333334,4,2,5,60,0,0
47242,-333.333333333334,4,2,12,60,0,0
47671,-333.333333333334,4,2,5,60,0,0
47885,-333.333333333334,4,2,1,60,0,0
48099,-333.333333333334,4,2,12,60,0,0
48207,-333.333333333334,4,2,1,60,0,0
48528,-333.333333333334,4,2,5,60,0,0
48742,-333.333333333334,4,2,1,60,0,0
48957,-153.846153846154,4,2,13,60,0,0
49385,-181.818181818181,4,2,12,60,0,0
49814,-222.222222222222,4,2,12,60,0,0
50135,-222.222222222222,4,2,1,60,0,0
50242,-285.714285714286,4,2,12,60,0,0
50457,-285.714285714286,4,2,1,60,0,0
50671,-105.263157894737,4,2,11,60,0,0
51528,-181.818181818183,4,2,6,60,0,0
52171,-181.818181818183,4,2,6,60,0,0
52385,-90.9090909090909,4,2,11,60,0,0
52814,-90.9090909090909,4,2,5,60,0,0
53028,-90.9090909090909,4,2,1,60,0,0
53242,-250,4,2,12,60,0,0
53564,-250,4,2,1,60,0,0
53671,-250,4,2,5,60,0,0
53885,-250,4,2,1,60,0,0
54099,-111.111111111111,4,2,11,60,0,0
54528,-111.111111111111,4,2,6,60,0,0
54742,-166.666666666667,4,2,6,60,0,0
55385,-1000,4,2,13,60,0,0
55814,-166.666666666667,4,2,1,60,0,0
56242,-125,4,2,1,60,0,0
56671,-250.000000000001,4,2,1,60,0,0
57528,-100,4,2,1,70,0,0
58385,-500,4,2,1,70,0,0
58492,-500,4,2,1,5,0,0
58599,-500,4,2,1,70,0,0
59242,-66.6666666666667,4,2,1,80,0,1
59457,-66.6666666666667,4,2,2,80,0,1
59671,-83.3333333333333,4,2,1,80,0,1
59885,-83.3333333333333,4,2,2,80,0,1
60099,-66.6666666666667,4,2,1,80,0,1
60314,-66.6666666666667,4,2,7,80,0,1
60421,-66.6666666666667,4,2,1,80,0,1
60528,-83.3333333333333,4,2,1,80,0,1
60742,-83.3333333333333,4,2,2,80,0,1
60957,-66.6666666666667,4,2,1,80,0,1
61171,-66.6666666666667,4,2,2,80,0,1
61385,-83.3333333333333,4,2,1,80,0,1
61599,-83.3333333333333,4,2,2,80,0,1
61814,-83.3333333333333,4,2,1,80,0,1
62028,-83.3333333333333,4,2,7,80,0,1
62135,-83.3333333333333,4,2,1,80,0,1
62457,-83.3333333333333,4,2,2,80,0,1
62671,-80,4,2,1,80,0,1
62885,-80,4,2,2,80,0,1
63099,-66.6666666666667,4,2,1,80,0,1
63314,-66.6666666666667,4,2,2,80,0,1
63528,-83.3333333333333,4,2,1,80,0,1
63742,-83.3333333333333,4,2,2,80,0,1
63957,-83.3333333333333,4,2,1,80,0,1
64385,-58.8235294117647,4,2,1,80,0,1
64814,-83.3333333333333,4,2,1,80,0,1
65028,-66.6666666666667,4,2,1,80,0,1
65457,-83.3333333333333,4,2,1,80,0,1
65671,-111.111111111111,4,2,1,80,0,1
66099,-66.6666666666667,4,2,1,80,0,1
66314,-66.6666666666667,4,2,2,80,0,1
66528,-83.3333333333333,4,2,1,80,0,1
66742,-83.3333333333333,4,2,2,80,0,1
66957,-83.3333333333333,4,2,1,80,0,1
67171,-83.3333333333333,4,2,2,80,0,1
67278,-83.3333333333333,4,2,1,80,0,1
67385,-83.3333333333333,4,2,1,80,0,1
67599,-83.3333333333333,4,2,2,80,0,1
67814,-55.5555555555556,4,2,1,80,0,1
68028,-55.5555555555556,4,2,2,80,0,1
68242,-66.6666666666667,4,2,1,80,0,1
68457,-83.3333333333333,4,2,2,80,0,1
68671,-83.3333333333333,4,2,1,80,0,1
68885,-83.3333333333333,4,2,2,80,0,1
68992,-83.3333333333333,4,2,1,80,0,1
69314,-100,4,2,2,80,0,1
69528,-66.6666666666667,4,2,1,80,0,1
69742,-66.6666666666667,4,2,2,80,0,1
69957,-83.3333333333333,4,2,1,80,0,1
70171,-83.3333333333333,4,2,11,80,0,1
70278,-83.3333333333333,4,2,1,80,0,1
70492,-83.3333333333333,4,2,8,80,0,1
70599,-83.3333333333333,4,2,1,80,0,1
70814,-100,4,2,1,80,0,1
71242,-66.6666666666667,4,2,1,80,0,1
71564,-83.3333333333333,4,2,1,80,0,1
71885,-66.6666666666667,4,2,1,80,0,1
72314,-83.3333333333333,4,2,1,80,0,1
72742,-111.111111111111,4,2,1,80,0,1
72957,-66.6666666666666,4,2,1,80,0,1
73171,-66.6666666666666,4,2,2,80,0,1
73224,-66.6666666666666,4,2,1,80,0,1
73385,-83.3333333333333,4,2,1,80,0,1
73599,-83.3333333333333,4,2,2,80,0,1
73814,-125,4,2,1,80,0,1
74028,-83.3333333333333,4,2,2,80,0,1
74242,-83.3333333333333,4,2,1,80,0,1
74457,-100,4,2,2,80,0,1
74510,-100,4,2,1,80,0,1
74671,-66.6666666666667,4,2,1,80,0,1
74885,-125,4,2,2,80,0,1
75099,-83.3333333333333,4,2,1,80,0,1
75314,-83.3333333333333,4,2,2,80,0,1
75528,-100,4,2,1,80,0,1
75742,-100,4,2,2,80,0,1
75796,-83.3333333333333,4,2,1,80,0,1
76171,-125,4,2,2,80,0,1
76385,-66.6666666666667,4,2,1,80,0,1
76599,-66.6666666666667,4,2,2,80,0,1
76653,-66.6666666666667,4,2,1,80,0,1
76814,-83.3333333333333,4,2,1,80,0,1
77028,-83.3333333333333,4,2,2,80,0,1
77242,-125,4,2,1,80,0,1
77457,-83.3333333333333,4,2,2,80,0,1
77671,-100,4,2,1,80,0,1
77885,-100,4,2,2,80,0,1
77939,-100,4,2,1,80,0,1
78099,-83.3333333333333,4,2,1,80,0,1
78314,-83.3333333333333,4,2,2,80,0,1
78421,-83.3333333333333,4,2,1,80,0,1
78742,-83.3333333333333,4,2,2,80,0,1
78957,-100,4,2,1,80,0,1
79171,-100,4,2,2,80,0,1
79224,-100,4,2,1,80,0,1
79599,-100,4,2,2,80,0,1
79814,-66.6666666666667,4,2,1,80,0,1
80028,-66.6666666666667,4,2,2,80,0,1
80082,-66.6666666666667,4,2,1,80,0,1
80242,-83.3333333333333,4,2,1,80,0,1
80457,-83.3333333333333,4,2,2,80,0,1
80671,-125,4,2,1,80,0,1
80885,-125,4,2,2,80,0,1
81099,-100,4,2,1,80,0,1
81314,-100,4,2,2,80,0,1
81367,-100,4,2,1,80,0,1
81742,-100,4,2,2,80,0,1
81957,-83.3333333333333,4,2,1,80,0,1
82171,-125,4,2,2,80,0,1
82385,-125,4,2,1,80,0,1
82599,-83.3333333333333,4,2,2,80,0,1
82653,-125,4,2,1,80,0,1
82814,-100,4,2,1,80,0,1
83028,-100,4,2,2,80,0,1
83242,-66.6666666666667,4,2,1,80,0,1
83457,-66.6666666666667,4,2,2,80,0,1
83510,-66.6666666666667,4,2,1,80,0,1
83671,-83.3333333333333,4,2,1,80,0,1
83885,-125,4,2,2,80,0,1
84099,-125,4,2,1,80,0,1
84314,-125,4,2,2,80,0,1
84528,-83.3333333333333,4,2,1,80,0,1
84742,-100,4,2,2,80,0,1
84796,-100,4,2,1,80,0,1
84957,-66.6666666666667,4,2,1,80,0,1
85278,-76.9230769230769,4,2,1,80,0,1
85599,-1000,4,2,1,80,0,1
85814,-166.666666666667,4,2,1,80,0,1
86242,-200,4,2,1,80,0,1
86457,-400,4,2,1,80,0,1
86617,-400,4,2,1,80,0,1
86671,-125,4,2,2,65,0,0
86885,-50,4,2,2,65,0,0
87099,-66.6666666666667,4,2,2,65,0,0
87314,-125,4,2,2,65,0,0
87528,-50,4,2,14,65,0,0
87742,-66.6666666666667,4,2,2,65,0,0
87957,-66.6666666666667,4,2,2,65,0,0
88171,-40,4,2,15,65,0,0
88385,-66.6666666666667,4,2,2,65,0,0
88599,-100,4,2,2,65,0,0
88814,-125,4,2,2,65,0,0
89028,-125,4,2,2,65,0,0
89242,-66.6666666666667,4,2,14,65,0,0
89457,-66.6666666666667,4,2,2,65,0,0
89671,-66.6666666666667,4,2,7,65,0,0
89698,-66.6666666666667,4,2,3,65,0,0
90099,-50,4,2,15,65,0,0
90207,-50,4,2,2,65,0,0
90314,-50,4,2,2,65,0,0
90528,-66.6666666666667,4,2,2,65,0,0
90742,-125,4,2,2,65,0,0
90957,-50,4,2,14,65,0,0
91171,-66.6666666666667,4,2,2,65,0,0
91528,-83.3333333333333,4,2,2,65,0,0
91671,-125,4,2,2,65,0,0
91814,-125,4,2,15,65,0,0
91867,-125,4,2,2,65,0,0
92028,-50,4,2,14,65,0,0
92242,-66.6666666666667,4,2,2,65,0,0
92457,-125,4,2,2,65,0,0
92671,-66.6666666666667,4,2,14,65,0,0
92885,-100,4,2,2,65,0,0
93099,-125,4,2,3,65,0,0
93314,-100,4,2,14,65,0,0
93528,-200,4,2,1,55,0,0
95242,-500,4,2,1,55,0,0
96957,-142.857142857143,4,2,1,55,0,0
98457,-200,4,2,1,55,0,0
102099,-500,4,2,1,55,0,0
103814,-142.857142857143,4,2,1,55,0,0
105314,-200,4,2,1,55,0,0
107242,-80,4,2,1,70,0,0
107671,-80,4,2,8,70,0,0
107885,-142.857142857143,4,2,1,70,0,0
108099,-83.3333333333333,4,2,8,70,0,0
108314,-83.3333333333333,4,2,1,70,0,0
108528,-83.3333333333333,4,2,9,70,0,0
108742,-83.3333333333333,4,2,4,70,0,0
108957,-66.6666666666667,4,2,4,70,0,0
109385,-80,4,2,9,70,0,0
109599,-500,4,2,4,70,0,0
109921,-500,4,2,1,70,0,0
110028,-83.3333333333333,4,2,1,70,0,0
110242,-83.3333333333333,4,2,8,70,0,0
110457,-83.3333333333333,4,2,5,70,0,0
110671,-76.9230769230769,4,2,10,70,0,0
111099,-76.9230769230769,4,2,8,70,0,0
111314,-76.9230769230769,4,2,1,70,0,0
111528,-76.9230769230769,4,2,8,70,0,0
111742,-76.9230769230769,4,2,1,70,0,0
111957,-333.333333333333,4,2,9,70,0,0
112171,-66.6666666666667,4,2,10,70,0,0
112492,-66.6666666666667,4,2,1,70,0,0
112599,-66.6666666666667,4,2,10,70,0,0
112814,-66.6666666666667,4,2,1,70,0,0
114099,-80,4,2,1,70,0,0
114528,-80,4,2,8,70,0,0
114742,-142.857142857143,4,2,1,70,0,0
114957,-83.3333333333333,4,2,8,70,0,0
115171,-83.3333333333333,4,2,1,70,0,0
115385,-83.3333333333333,4,2,9,70,0,0
115599,-83.3333333333333,4,2,4,70,0,0
115814,-58.8235294117647,4,2,4,70,0,0
116242,-83.3333333333333,4,2,8,70,0,0
116457,-83.3333333333333,4,2,4,70,0,0
116778,-83.3333333333333,4,2,1,70,0,0
116885,-500,4,2,1,70,0,0
117099,-500,4,2,9,70,0,0
117207,-500,4,2,1,70,0,0
117528,-66.6666666666667,4,2,10,70,0,0
117957,-83.3333333333333,4,2,8,70,0,0
118171,-83.3333333333333,4,2,1,70,0,0
118385,-83.3333333333333,4,2,8,70,0,0
118492,-83.3333333333333,4,2,1,70,0,0
118814,-333.333333333333,4,2,9,70,0,0
119028,-83.3333333333333,4,2,10,70,0,0
119457,-83.3333333333333,4,2,1,70,0,0
120314,-142.857142857143,4,2,1,70,0,0
120528,-100,4,2,1,70,0,0
120742,-250,4,2,1,70,0,0
120957,-100,4,2,11,60,0,0
121814,-250,4,2,1,60,0,0
122671,-250,4,2,12,60,0,0
123314,-250,4,2,1,60,0,0
123528,-166.666666666667,4,2,1,60,0,0
124385,-166.666666666667,4,2,12,60,0,0
124814,-125,4,2,1,60,0,0
125242,-125,4,2,1,60,0,0
126099,-125,4,2,12,60,0,0
126742,-125,4,2,1,60,0,0
127385,-100,4,2,1,60,0,0
127814,-100,4,2,16,65,0,0
128028,-100,4,2,5,65,0,0
128242,-90.9090909090909,4,2,17,65,0,0
128457,-90.9090909090909,4,2,5,65,0,0
128564,-90.9090909090909,4,2,7,65,0,0
128671,-90.9090909090909,4,2,18,65,0,0
128778,-90.9090909090909,4,2,7,65,0,0
128885,-90.9090909090909,4,2,9,65,0,0
129099,-90.9090909090909,4,2,17,65,0,0
129314,-90.9090909090909,4,2,6,65,0,0
129421,-90.9090909090909,4,2,1,65,0,0
129528,-90.9090909090909,4,2,18,65,0,0
129742,-90.9090909090909,4,2,6,65,0,0
129957,-90.9090909090909,4,2,19,65,0,0
130171,-90.9090909090909,4,2,1,65,0,0
130385,-90.9090909090909,4,2,19,65,0,0
130492,-90.9090909090909,4,2,7,65,0,0
130707,-90.9090909090909,4,2,1,65,0,0
130814,-90.9090909090909,4,2,20,65,0,0
130921,-90.9090909090909,4,2,7,65,0,0
131242,-90.9090909090909,4,2,1,65,0,0
132099,-125,4,2,1,65,0,0
132314,-188.679245283019,4,2,1,65,0,0
132957,-100,4,2,1,70,0,0
133814,-500,4,2,1,70,0,0
134671,-66.6666666666667,4,2,1,80,0,1
134885,-66.6666666666667,4,2,2,80,0,1
135099,-83.3333333333333,4,2,1,80,0,1
135314,-83.3333333333333,4,2,2,80,0,1
135528,-66.6666666666667,4,2,1,80,0,1
135742,-66.6666666666667,4,2,7,80,0,1
135849,-66.6666666666667,4,2,1,80,0,1
135957,-83.3333333333333,4,2,1,80,0,1
136171,-83.3333333333333,4,2,2,80,0,1
136385,-66.6666666666667,4,2,1,80,0,1
136599,-66.6666666666667,4,2,2,80,0,1
136814,-83.3333333333333,4,2,1,80,0,1
137028,-83.3333333333333,4,2,2,80,0,1
137242,-83.3333333333333,4,2,1,80,0,1
137457,-83.3333333333333,4,2,7,80,0,1
137564,-83.3333333333333,4,2,1,80,0,1
137885,-83.3333333333333,4,2,2,80,0,1
138099,-80,4,2,1,80,0,1
138314,-80,4,2,2,80,0,1
138528,-66.6666666666667,4,2,1,80,0,1
138742,-66.6666666666667,4,2,2,80,0,1
138957,-83.3333333333333,4,2,1,80,0,1
139171,-83.3333333333333,4,2,2,80,0,1
139385,-83.3333333333333,4,2,1,80,0,1
139814,-58.8235294117647,4,2,1,80,0,1
140242,-83.3333333333333,4,2,1,80,0,1
140457,-66.6666666666667,4,2,1,80,0,1
140885,-83.3333333333333,4,2,1,80,0,1
141099,-111.111111111111,4,2,1,80,0,1
141528,-66.6666666666667,4,2,1,80,0,1
141742,-66.6666666666667,4,2,2,80,0,1
141957,-83.3333333333333,4,2,1,80,0,1
142171,-83.3333333333333,4,2,2,80,0,1
142385,-83.3333333333333,4,2,1,80,0,1
142599,-83.3333333333333,4,2,2,80,0,1
142707,-83.3333333333333,4,2,1,80,0,1
143028,-83.3333333333333,4,2,2,80,0,1
143242,-55.5555555555556,4,2,1,80,0,1
143457,-55.5555555555556,4,2,2,80,0,1
143671,-66.6666666666667,4,2,1,80,0,1
143885,-83.3333333333333,4,2,2,80,0,1
144099,-83.3333333333333,4,2,1,80,0,1
144314,-83.3333333333333,4,2,2,80,0,1
144421,-83.3333333333333,4,2,1,80,0,1
144742,-100,4,2,2,80,0,1
144957,-66.6666666666667,4,2,1,80,0,1
145171,-66.6666666666667,4,2,2,80,0,1
145385,-83.3333333333333,4,2,1,80,0,1
145599,-83.3333333333333,4,2,11,80,0,1
145707,-83.3333333333333,4,2,1,80,0,1
145921,-83.3333333333333,4,2,8,80,0,1
146028,-83.3333333333333,4,2,1,80,0,1
146349,-100,4,2,1,80,0,1
146671,-66.6666666666667,4,2,1,80,0,1
146992,-83.3333333333333,4,2,1,80,0,1
147207,-66.6666666666667,4,2,1,80,0,1
147957,-83.3333333333333,4,2,1,80,0,1
148385,-66.6666666666667,4,2,1,80,0,1
148599,-66.6666666666667,4,2,2,80,0,1
148653,-66.6666666666667,4,2,1,80,0,1
148814,-100,4,2,1,80,0,1
149028,-100,4,2,2,80,0,1
149242,-100,4,2,1,80,0,1
149457,-83.3333333333333,4,2,2,80,0,1
149671,-83.3333333333333,4,2,1,80,0,1
149885,-83.3333333333333,4,2,2,80,0,1
149939,-83.3333333333333,4,2,1,80,0,1
150314,-83.3333333333333,4,2,2,80,0,1
150528,-83.3333333333333,4,2,1,80,0,1
150742,-83.3333333333333,4,2,2,80,0,1
150957,-83.3333333333333,4,2,1,80,0,1
151171,-83.3333333333333,4,2,2,80,0,1
151224,-83.3333333333333,4,2,1,80,0,1
151599,-83.3333333333333,4,2,2,80,0,1
151814,-83.3333333333333,4,2,1,80,0,1
152028,-83.3333333333333,4,2,2,80,0,1
152082,-83.3333333333333,4,2,1,80,0,1
152457,-100,4,2,2,80,0,1
152671,-83.3333333333333,4,2,1,80,0,1
152885,-83.3333333333333,4,2,2,80,0,1
153099,-83.3333333333333,4,2,1,80,0,1
153314,-83.3333333333333,4,2,2,80,0,1
153367,-83.3333333333333,4,2,1,80,0,1
153742,-83.3333333333333,4,2,2,80,0,1
153849,-83.3333333333333,4,2,1,80,0,1
154171,-83.3333333333333,4,2,2,80,0,1
154385,-83.3333333333333,4,2,1,80,0,1
154599,-83.3333333333333,4,2,2,80,0,1
154653,-83.3333333333333,4,2,1,80,0,1
155028,-83.3333333333333,4,2,2,80,0,1
155242,-76.9230769230769,4,2,1,80,0,1
155457,-76.9230769230769,4,2,2,80,0,1
155510,-76.9230769230769,4,2,1,80,0,1
155885,-76.9230769230769,4,2,2,80,0,1
156099,-76.9230769230769,4,2,1,80,0,1
156314,-76.9230769230769,4,2,2,80,0,1
156528,-76.9230769230769,4,2,1,80,0,1
156742,-76.9230769230769,4,2,2,80,0,1
156796,-76.9230769230769,4,2,1,80,0,1
157171,-76.9230769230769,4,2,2,80,0,1
157385,-83.3333333333333,4,2,1,80,0,1
157599,-83.3333333333333,4,2,2,80,0,1
157814,-76.9230769230769,4,2,1,80,0,1
158028,-76.9230769230769,4,2,2,80,0,1
158082,-76.9230769230769,4,2,1,80,0,1
158457,-76.9230769230769,4,2,2,80,0,1
158671,-76.9230769230769,4,2,1,80,0,1
158885,-76.9230769230769,4,2,2,80,0,1
158939,-76.9230769230769,4,2,1,80,0,1
159314,-76.9230769230769,4,2,2,80,0,1
159528,-76.9230769230769,4,2,1,80,0,1
159742,-76.9230769230769,4,2,2,80,0,1
159957,-76.9230769230769,4,2,1,80,0,1
160385,-500,4,2,1,65,0,1
162099,-500,4,2,21,50,0,0
162421,-500,4,2,2,50,0,0
162528,-500,4,2,14,50,0,0
162957,-166.666666666667,4,2,21,50,0,0
163278,-166.666666666667,4,2,1,50,0,0
163814,-250.000000000001,4,2,21,50,0,0
164457,-250.000000000001,4,2,22,50,0,0
164671,-250.000000000001,4,2,21,50,0,0
164992,-250.000000000001,4,2,10,50,0,0
165099,-250.000000000001,4,2,4,50,0,0
165314,-250.000000000001,4,2,8,50,0,0
165421,-250.000000000001,4,2,10,50,0,0
165528,-250.000000000001,4,2,21,50,0,0
165849,-250.000000000001,4,2,2,50,0,0
165957,-250.000000000001,4,2,10,50,0,0
166171,-250.000000000001,4,2,22,50,0,0
166385,-250.000000000001,4,2,21,50,0,0
166707,-250.000000000001,4,2,1,50,0,0
167242,-250.000000000001,4,2,21,50,0,0
167885,-250.000000000001,4,2,22,50,0,0
168099,-250.000000000001,4,2,23,50,0,0
168314,-250.000000000001,4,2,21,50,0,0
168421,-250.000000000001,4,2,10,50,0,0
168528,-250.000000000001,4,2,4,50,0,0
168742,-250.000000000001,4,2,8,50,0,0
168849,-250.000000000001,4,2,10,50,0,0
168957,-125,4,2,21,50,0,0
169385,-125,4,2,10,50,0,0
169599,-125,4,2,22,50,0,0
169707,-125,4,2,1,50,0,0
169814,-250,4,2,21,50,0,0
170135,-250,4,2,1,50,0,0
170671,-166.666666666667,4,2,21,50,0,0
170992,-166.666666666667,4,2,1,50,0,0
171099,-166.666666666667,4,2,10,50,0,0
171314,-166.666666666667,4,2,22,50,0,0
171528,-125,4,2,21,50,0,0
171742,-125,4,2,10,50,0,0
171849,-125,4,2,21,50,0,0
171957,-125,4,2,4,50,0,0
172171,-125,4,2,8,50,0,0
172278,-125,4,2,21,50,0,0
172707,-125,4,2,3,50,0,0
172814,-125,4,2,10,50,0,0
173028,-125,4,2,22,50,0,0
173242,-125,4,2,21,50,0,0
173457,-125,4,2,14,50,0,0
173564,-125,4,2,21,50,0,0
173671,-125,4,2,4,50,0,0
173885,-125,4,2,8,50,0,0
173992,-125,4,2,10,50,0,0
174099,-500,4,2,13,50,0,0
174314,-250,4,2,1,50,0,0
174528,-166.666666666667,4,2,1,50,0,0
174742,-125,4,2,1,50,0,0
175814,-90.9090909090909,4,2,24,60,0,0
176242,-90.9090909090909,4,2,10,60,0,0
176671,-90.9090909090909,4,2,25,60,0,0
176992,-90.9090909090909,4,2,1,60,0,0
177099,-90.9090909090909,4,2,10,60,0,0
177314,-90.9090909090909,4,2,1,60,0,0
177528,-166.666666666667,4,2,21,60,0,0
177742,-166.666666666667,4,2,3,60,0,0
177957,-166.666666666667,4,2,21,60,0,0
178171,-166.666666666667,4,2,3,60,0,0
178385,-125,4,2,26,60,0,0
178599,-125,4,2,1,60,0,0
178814,-125,4,2,10,60,0,0
179028,-125,4,2,1,60,0,0
179242,-100,4,2,23,60,0,0
179457,-100,4,2,3,60,0,0
179671,-100,4,2,10,60,0,0
179885,-100,4,2,3,60,0,0
180099,-100,4,2,25,60,0,0
180421,-100,4,2,1,60,0,0
180528,-100,4,2,10,60,0,0
180742,-100,4,2,3,60,0,0
180957,-100,4,2,25,60,0,0
181171,-100,4,2,3,60,0,0
181385,-66.6666666666667,4,2,5,60,0,0
181439,-66.6666666666667,4,2,2,60,0,0
181599,-66.6666666666667,4,2,27,60,0,0
181653,-66.6666666666667,4,2,2,60,0,0
181707,-66.6666666666667,4,2,24,60,0,0
181814,-66.6666666666667,4,2,26,60,0,0
182028,-66.6666666666667,4,2,3,60,0,0
182242,-66.6666666666667,4,2,21,60,0,0
182349,-66.6666666666667,4,2,3,60,0,0
182671,-66.6666666666667,4,2,25,60,0,0
183099,-66.6666666666667,4,2,23,60,0,0
183314,-90.9090909090909,4,2,23,60,0,0
183528,-90.9090909090909,4,2,25,60,0,0
183957,-90.9090909090909,4,2,10,60,0,0
184385,-100,4,2,25,60,0,0
184599,-100,4,2,3,60,0,0
184814,-100,4,2,23,60,0,0
185242,-100,4,2,25,60,0,0
185671,-100,4,2,10,60,0,0
185885,-100,4,2,11,60,0,0
186099,-100,4,2,25,60,0,0
186314,-100,4,2,3,60,0,0
186528,-100,4,2,10,60,0,0
186742,-100,4,2,3,60,0,0
186957,-100,4,2,25,60,0,0
187278,-100,4,2,1,60,0,0
187385,-100,4,2,10,60,0,0
187599,-100,4,2,3,60,0,0
187814,-100,4,2,25,60,0,0
188028,-100,4,2,3,60,0,0
188242,-100,4,2,2,60,0,0
188457,-100,4,2,24,60,0,0
188510,-100,4,2,2,60,0,0
188671,-100,4,2,28,60,0,0
188885,-125,4,2,23,60,0,0
189528,-125,4,2,25,60,0,0
192742,-125,4,2,1,60,0,0
197671,-250,4,2,1,60,0,0
198099,-83.3333333333333,4,2,1,60,0,0
198421,-250,4,2,10,60,0,0
198742,-250,4,2,1,60,0,0
198957,-83.3333333333333,4,2,1,70,0,0
199814,-66.6666666666667,4,2,1,80,0,1
200028,-66.6666666666667,4,2,2,80,0,1
200242,-83.3333333333333,4,2,1,80,0,1
200457,-83.3333333333333,4,2,2,80,0,1
200671,-83.3333333333333,4,2,1,80,0,1
200885,-83.3333333333333,4,2,2,80,0,1
200992,-83.3333333333333,4,2,1,80,0,1
201314,-83.3333333333333,4,2,2,80,0,1
201528,-55.5555555555556,4,2,1,80,0,1
201742,-55.5555555555556,4,2,2,80,0,1
201957,-66.6666666666667,4,2,1,80,0,1
202171,-83.3333333333333,4,2,2,80,0,1
202385,-83.3333333333333,4,2,1,80,0,1
202599,-83.3333333333333,4,2,2,80,0,1
202707,-83.3333333333333,4,2,1,80,0,1
203028,-100,4,2,2,80,0,1
203242,-66.6666666666667,4,2,1,80,0,1
203457,-66.6666666666667,4,2,2,80,0,1
203671,-83.3333333333333,4,2,1,80,0,1
203885,-83.3333333333333,4,2,11,80,0,1
203992,-83.3333333333333,4,2,1,80,0,1
204207,-83.3333333333333,4,2,8,80,0,1
204314,-83.3333333333333,4,2,1,80,0,1
204635,-100,4,2,1,80,0,1
204957,-66.6666666666667,4,2,1,80,0,1
205278,-83.3333333333333,4,2,1,80,0,1
205599,-66.6666666666667,4,2,1,80,0,1
206242,-83.3333333333333,4,2,1,80,0,1
206671,-66.6666666666667,4,2,1,80,0,1
206885,-66.6666666666667,4,2,2,80,0,1
206939,-66.6666666666667,4,2,1,80,0,1
207099,-100,4,2,1,80,0,1
207314,-100,4,2,2,80,0,1
207528,-100,4,2,1,80,0,1
207742,-83.3333333333333,4,2,2,80,0,1
207957,-83.3333333333333,4,2,1,80,0,1
208171,-83.3333333333333,4,2,2,80,0,1
208224,-83.3333333333333,4,2,1,80,0,1
208385,-66.6666666666667,4,2,1,80,0,1
208599,-66.6666666666667,4,2,2,80,0,1
208814,-66.6666666666667,4,2,1,80,0,1
209028,-66.6666666666667,4,2,2,80,0,1
209242,-83.3333333333333,4,2,1,80,0,1
209457,-83.3333333333333,4,2,2,80,0,1
209510,-83.3333333333333,4,2,1,80,0,1
209885,-166.666666666667,4,2,2,80,0,1
210099,-66.6666666666667,4,2,1,80,0,1
210314,-66.6666666666667,4,2,2,80,0,1
210367,-66.6666666666667,4,2,1,80,0,1
210528,-83.3333333333333,4,2,1,80,0,1
210742,-83.3333333333333,4,2,2,80,0,1
210957,-83.3333333333333,4,2,1,80,0,1
211171,-83.3333333333333,4,2,2,80,0,1
211385,-83.3333333333333,4,2,1,80,0,1
211599,-83.3333333333333,4,2,2,80,0,1
211653,-83.3333333333333,4,2,1,80,0,1
211814,-66.6666666666667,4,2,1,80,0,1
212028,-66.6666666666667,4,2,2,80,0,1
212135,-66.6666666666667,4,2,1,80,0,1
212457,-83.3333333333333,4,2,2,80,0,1
212671,-83.3333333333333,4,2,1,80,0,1
212885,-83.3333333333333,4,2,2,80,0,1
212939,-83.3333333333333,4,2,1,80,0,1
213314,-83.3333333333333,4,2,2,80,0,1
213528,-66.6666666666667,4,2,1,80,0,1
213742,-66.6666666666667,4,2,2,80,0,1
213796,-66.6666666666667,4,2,1,80,0,1
213957,-83.3333333333333,4,2,1,80,0,1
214171,-83.3333333333333,4,2,2,80,0,1
214385,-83.3333333333333,4,2,1,80,0,1
214599,-83.3333333333333,4,2,2,80,0,1
214814,-66.6666666666667,4,2,1,80,0,1
215028,-66.6666666666667,4,2,2,80,0,1
215082,-66.6666666666667,4,2,1,80,0,1
215242,-125,4,2,1,80,0,1
215457,-100,4,2,2,80,0,1
215671,-83.3333333333333,4,2,1,80,0,1
215885,-125,4,2,2,80,0,1
216099,-100,4,2,1,80,0,1
216314,-83.3333333333333,4,2,2,80,0,1
216367,-83.3333333333333,4,2,1,80,0,1
216742,-83.3333333333333,4,2,2,80,0,1
216957,-71.4285714285714,4,2,1,80,0,1
217171,-71.4285714285714,4,2,2,80,0,1
217224,-71.4285714285714,4,2,1,80,0,1
217599,-71.4285714285714,4,2,2,80,0,1
217814,-71.4285714285714,4,2,1,80,0,1
218028,-71.4285714285714,4,2,2,80,0,1
218242,-66.6666666666667,4,2,1,80,0,1
218457,-66.6666666666667,4,2,2,80,0,1
218510,-66.6666666666667,4,2,1,80,0,1
218671,-90.9090909090909,4,2,1,80,0,1
220385,-66.6666666666667,4,2,1,75,0,0
220599,-66.6666666666667,4,2,2,75,0,0
220814,-83.3333333333333,4,2,1,75,0,0
221028,-83.3333333333333,4,2,2,75,0,0
221242,-83.3333333333333,4,2,1,75,0,0
221457,-83.3333333333333,4,2,2,75,0,0
221564,-83.3333333333333,4,2,1,75,0,0
221671,-66.6666666666667,4,2,1,75,0,0
221885,-83.3333333333333,4,2,2,75,0,0
222099,-66.6666666666667,4,2,1,75,0,0
222314,-66.6666666666667,4,2,2,75,0,0
222528,-66.6666666666667,4,2,1,75,0,0
222742,-66.6666666666667,4,2,2,75,0,0
222957,-66.6666666666667,4,2,1,75,0,0
223171,-66.6666666666667,4,2,2,75,0,0
223278,-66.6666666666667,4,2,1,75,0,0
223599,-66.6666666666667,4,2,2,75,0,0
223707,-66.6666666666667,4,2,1,75,0,0
224028,-100,4,2,8,75,0,0
224135,-100,4,2,1,75,0,0
224457,-100,4,2,11,75,0,0
224564,-100,4,2,1,75,0,0
224778,-66.6666666666667,4,2,1,75,0,0
224885,-66.6666666666667,4,2,8,75,0,0
224992,-66.6666666666667,4,2,1,75,0,0
225528,-58.8235294117647,4,2,1,75,0,0
225957,-76.9230769230769,4,2,1,75,0,0
226171,-58.8235294117647,4,2,1,75,0,0
226599,-76.9230769230769,4,2,11,75,0,0
226814,-83.3333333333333,4,2,1,75,0,0
227242,-66.6666666666667,4,2,1,75,0,0
227457,-66.6666666666667,4,2,2,75,0,0
227671,-83.3333333333333,4,2,1,75,0,0
227885,-83.3333333333333,4,2,2,75,0,0
228099,-83.3333333333333,4,2,1,75,0,0
228314,-83.3333333333333,4,2,2,75,0,0
228421,-83.3333333333333,4,2,1,75,0,0
228528,-66.6666666666667,4,2,1,75,0,0
228742,-66.6666666666667,4,2,2,75,0,0
228957,-66.6666666666667,4,2,1,75,0,0
229171,-66.6666666666667,4,2,2,75,0,0
229385,-66.6666666666667,4,2,1,75,0,0
229599,-66.6666666666667,4,2,2,75,0,0
229814,-83.3333333333333,4,2,1,75,0,0
230028,-83.3333333333333,4,2,2,75,0,0
230135,-83.3333333333333,4,2,1,75,0,0
230457,-125,4,2,2,75,0,0
230528,-125,4,2,1,75,0,0
230671,-66.6666666666667,4,2,1,75,0,0
230885,-66.6666666666667,4,2,2,75,0,0
230992,-66.6666666666667,4,2,1,75,0,0
231314,-66.6666666666667,4,2,11,75,0,0
231421,-66.6666666666667,4,2,1,75,0,0
231528,-100,4,2,1,75,0,0
231635,-100,4,2,8,75,0,0
231849,-100,4,2,1,75,0,0
232385,-66.6666666666667,4,2,1,75,0,0
232707,-76.9230769230769,4,2,1,75,0,0
233028,-1000,4,2,1,75,0,0
233457,-166.666666666667,4,2,1,75,0,0
233671,-200,4,2,1,75,0,0
233885,-400,4,2,1,75,0,0
234099,-125,4,2,2,65,0,0
234314,-50,4,2,2,65,0,0
234528,-66.6666666666667,4,2,15,65,0,0
234742,-125,4,2,15,65,0,0
234957,-50,4,2,15,65,0,0
235171,-66.6666666666667,4,2,2,65,0,0
235278,-66.6666666666667,4,2,1,65,0,0
235385,-66.6666666666667,4,2,2,65,0,0
235599,-40,4,2,15,65,0,0
235814,-66.6666666666667,4,2,2,65,0,0
236028,-100,4,2,5,65,0,0
236242,-125,4,2,5,65,0,0
236528,-125,4,2,2,65,0,0
236671,-66.6666666666667,4,2,15,65,0,0
236885,-66.6666666666667,4,2,2,65,0,0
236992,-66.6666666666667,4,2,5,65,0,0
237099,-66.6666666666667,4,2,7,65,0,0
237126,-66.6666666666667,4,2,3,65,0,0
237314,-66.6666666666667,4,2,7,65,0,0
237340,-66.6666666666667,4,2,3,65,0,0
237528,-66.6666666666667,4,2,15,65,0,0
237635,-66.6666666666667,4,2,2,65,0,0
237742,-50,4,2,2,65,0,0
237957,-66.6666666666667,4,2,15,65,0,0
238171,-125,4,2,15,65,0,0
238385,-50,4,2,15,65,0,0
238599,-66.6666666666667,4,2,2,65,0,0
238707,-66.6666666666667,4,2,1,65,0,0
238814,-66.6666666666667,4,2,2,65,0,0
238957,-83.3333333333333,4,2,2,65,0,0
239028,-83.3333333333333,4,2,1,65,0,0
239099,-125,4,2,2,65,0,0
239242,-125,4,2,15,65,0,0
239296,-125,4,2,2,65,0,0
239457,-125,4,2,14,65,0,0
239564,-83.3333333333333,4,2,1,65,0,0
239671,-83.3333333333333,4,2,2,65,0,0
239885,-83.3333333333333,4,2,5,65,0,0
239939,-83.3333333333333,4,2,2,65,0,0
240099,-200,4,2,15,65,0,0
240314,-200,4,2,2,65,0,0
240421,-200,4,2,1,65,0,0
240957,-125,4,2,15,65,0,0
241010,-125,4,2,2,65,0,0
241171,-50,4,2,2,65,0,0
241385,-66.6666666666667,4,2,5,65,0,0
241599,-125,4,2,2,65,0,0
241814,-50,4,2,15,65,0,0
242028,-66.6666666666667,4,2,2,65,0,0
242242,-66.6666666666667,4,2,5,65,0,0
242296,-66.6666666666667,4,2,2,65,0,0
242457,-40,4,2,15,65,0,0
242671,-66.6666666666667,4,2,2,65,0,0
242885,-100,4,2,2,65,0,0
243099,-125,4,2,5,65,0,0
243314,-125,4,2,2,65,0,0
243528,-66.6666666666667,4,2,15,65,0,0
243742,-66.6666666666667,4,2,2,65,0,0
243957,-66.6666666666667,4,2,7,65,0,0
243983,-66.6666666666667,4,2,3,65,0,0
244171,-66.6666666666667,4,2,7,65,0,0
244198,-66.6666666666667,4,2,3,65,0,0
244385,-66.6666666666667,4,2,15,65,0,0
244492,-66.6666666666667,4,2,2,65,0,0
244599,-50,4,2,2,65,0,0
244814,-66.6666666666667,4,2,5,65,0,0
245028,-125,4,2,2,65,0,0
245242,-50,4,2,15,65,0,0
245457,-66.6666666666667,4,2,2,65,0,0
245671,-250,4,2,5,65,0,0
245885,-250,4,2,1,65,0,0
246099,-125,4,2,15,65,0,0
246153,-125,4,2,2,65,0,0
246314,-58.8235294117647,4,2,14,65,0,0
246528,-83.3333333333333,4,2,2,65,0,0
246742,-83.3333333333333,4,2,15,65,0,0
246796,-83.3333333333333,4,2,2,65,0,0
246957,-71.4285714285714,4,2,14,65,0,0
247171,-111.111111111111,4,2,2,65,0,0
247385,-111.111111111111,4,2,15,65,0,0
247599,-250,4,2,14,65,0,0
247707,-250,4,2,2,65,0,0

[Colours]
Combo1 : 242,117,236
Combo2 : 158,50,104
Combo3 : 22,45,148
Combo4 : 116,94,219

[HitObjects]
23,110,4385,6,0,L|160:83,1,140,6|2,1:1|2:2,0:0:0:0:
287,125,4707,1,2,2:2:0:0:
249,0,4814,2,0,L|235:68,1,70,10|0,1:2|0:0,0:0:0:0:
339,182,5028,2,0,L|325:250,1,56,2|0,2:2|0:0,0:0:0:0:
439,384,5242,5,2,1:2:0:0:
439,384,5296,1,2,2:2:0:0:
439,384,5349,1,2,2:2:0:0:
458,306,5457,2,0,L|520:294,1,56,2|0,2:2|0:0,0:0:0:0:
262,285,5671,6,0,L|399:258,1,140,10|2,1:2|2:2,0:0:0:0:
378,68,5992,5,2,2:2:0:0:
378,68,6046,1,2,0:0:0:0:
378,68,6099,2,0,L|391:0,1,70,2|0,1:2|0:0,0:0:0:0:
418,182,6314,2,0,L|429:128,1,56,2|0,2:2|0:0,0:0:0:0:
259,43,6528,5,10,1:2:0:0:
259,43,6582,1,2,2:2:0:0:
259,43,6635,1,2,2:2:0:0:
200,92,6742,2,0,L|145:102,1,56,2|0,2:2|0:0,0:0:0:0:
47,6,6957,6,0,L|74:143,1,140,2|2,1:2|2:2,0:0:0:0:
159,266,7278,1,2,2:2:0:0:
25,233,7385,2,0,L|93:219,1,70,10|0,1:2|0:0,0:0:0:0:
401,366,7599,5,2,2:2:0:0:
375,290,7707,1,0,0:0:0:0:
401,366,7814,2,0,L|428:229,1,140,2|2,1:2|2:2,0:0:0:0:
511,139,8135,5,2,2:2:0:0:
511,139,8189,1,2,0:0:0:0:
511,139,8242,2,0,L|443:153,1,70,10|0,1:2|0:0,0:0:0:0:
378,107,8457,2,0,L|310:121,1,56,2|8,2:2|2:2,0:0:0:0:
177,32,8671,5,2,1:2:0:0:
177,32,8724,1,2,2:2:0:0:
177,32,8778,1,2,2:2:0:0:
237,77,8885,2,0,L|248:131,1,56,10|8,2:2|2:2,0:0:0:0:
174,298,9099,6,0,L|37:325,1,140,2|10,1:2|2:2,0:0:0:0:
109,355,9421,1,6,2:3:0:0:
94,279,9528,6,0,B|170:275|188:350|188:350|257:364,1,167.999994873047,6|2,1:1|2:2,0:0:0:0:
315,321,9849,5,2,1:2:0:0:
381,359,9957,2,0,L|469:343,1,83.9999974365235,10|2,2:2|2:2,0:0:0:0:
250,281,10171,2,0,L|426:249,1,167.999994873047,6|2,1:2|2:2,0:0:0:0:
124,166,10492,5,8,2:2:0:0:
52,141,10599,1,2,1:2:0:0:
45,147,10707,1,2,1:2:0:0:
32,68,10814,6,0,L|20:-1,1,70,14|0,2:1|0:0,0:0:0:0:
255,124,11028,2,0,L|243:54,1,70,10|8,2:2|2:2,0:0:0:0:
512,0,11242,6,0,B|486:-6|486:-6|451:159,1,195.999994018555,6|2,1:2|2:2,0:0:0:0:
484,229,11564,1,2,2:2:0:0:
411,254,11671,6,0,B|342:238|342:238|304:255,1,97.9999970092774,10|0,1:2|0:0,0:0:0:0:
463,316,11885,2,0,B|493:277|493:277|484:229,1,97.9999970092774,2|0,2:2|0:0,0:0:0:0:
316,328,12099,5,2,1:2:0:0:
304,325,12153,5,2,2:2:0:0:
292,322,12207,5,2,2:2:0:0:
280,319,12260,5,2,0:0:0:0:
268,317,12314,5,2,2:2:0:0:
195,344,12421,1,2,0:0:0:0:
143,286,12528,6,0,B|7:253|7:253|19:187,1,195.999994018555,10|2,1:2|2:2,0:0:0:0:
235,26,12849,5,2,2:2:0:0:
235,26,12903,1,2,0:0:0:0:
235,26,12957,2,0,B|224:70|224:70|228:81|228:81|217:124,1,97.9999970092774,2|0,1:2|0:0,0:0:0:0:
94,196,13171,2,0,B|170:181|170:181|202:199,1,97.9999970092774,2|0,2:2|0:0,0:0:0:0:
436,111,13385,5,10,1:2:0:0:
439,123,13439,5,2,2:2:0:0:
442,135,13492,5,2,2:2:0:0:
445,147,13546,5,2,0:0:0:0:
447,159,13599,5,2,2:2:0:0:
504,212,13707,1,0,0:0:0:0:
469,281,13814,6,0,B|504:295|504:295|323:331,1,195.999994018555,2|2,1:2|2:2,0:0:0:0:
238,352,14135,1,2,2:2:0:0:
282,289,14242,2,0,B|267:219|267:219|287:186,1,97.9999970092774,10|0,1:2|0:0,0:0:0:0:
169,316,14457,2,0,B|154:245|154:245|122:223,1,97.9999970092774,2|0,2:2|0:0,0:0:0:0:
5,125,14671,6,0,B|-1:99|-1:99|164:64,1,195.999994018555,6|2,1:2|2:2,0:0:0:0:
325,129,14992,1,2,2:2:0:0:
372,67,15099,6,0,B|441:51|441:51|479:68,1,97.9999970092774,10|0,1:2|0:0,0:0:0:0:
260,87,15314,2,0,B|243:74|243:74|232:19|232:19|247:-20,1,97.9999970092774,2|8,2:2|2:2,0:0:0:0:
423,198,15528,5,2,1:2:0:0:
425,210,15582,5,2,2:2:0:0:
428,222,15635,5,2,2:2:0:0:
431,234,15689,5,2,0:0:0:0:
434,246,15742,5,10,2:2:0:0:
398,315,15849,1,8,2:2:0:0:
457,362,15957,6,0,B|312:334|312:334|299:385,1,195.999994018555,2|10,1:2|2:2,0:0:0:0:
249,290,16278,1,10,2:3:0:0:
300,380,16385,2,0,L|270:184,1,195.999994018555,6|0,1:1|1:1,0:0:0:0:
303,115,16707,2,0,B|255:102|255:102|215:130,1,97.9999970092774,14|0,2:2|0:0,0:0:0:0:
59,112,16921,5,0,1:1:0:0:
149,193,17028,2,0,L|119:-3,1,195.999994018555,14|0,2:2|0:0,0:0:0:0:
119,0,18099,6,0,L|108:69,1,70,2|0,1:2|0:0,0:0:0:0:
108,69,18742,1,2,2:2:0:0:
164,123,18849,1,2,2:2:0:0:
0,232,18957,2,0,B|71:221|32:185|107:173,2,125.999996154785,10|2|2,2:2|2:2|2:2,0:0:0:0:
220,336,19814,6,0,B|207:340|204:365|204:365|179:349|205:317,1,83.9999974365235,2|0,1:2|0:0,0:0:0:0:
200,322,20028,2,0,P|254:265|233:217,1,125.999996154785,8|0,2:2|0:0,0:0:0:0:
242,120,20457,2,0,P|247:144|268:151,1,41.9999987182618,2|0,2:2|0:0,0:0:0:0:
407,175,20671,6,0,P|483:141|474:38,2,188.999994232178,10|2|2,2:2|2:2|2:2,0:0:0:0:
352,231,21421,2,0,P|367:244|377:263,1,41.9999987182618,2|0,2:2|0:0,0:0:0:0:
377,263,21528,6,0,L|354:52,1,195.999994018555,2|0,1:2|0:0,0:0:0:0:
356,68,22171,2,0,P|358:51|367:34,1,28,2|0,2:2|0:0,0:0:0:0:
234,7,22385,2,0,P|300:89|290:109,1,140,10|2,2:2|2:2,0:0:0:0:
294,104,22707,1,2,2:2:0:0:
239,151,22814,1,0,0:0:0:0:
246,165,22921,1,0,0:0:0:0:
407,175,23028,6,0,P|264:199|269:334,1,272.999987503052,2|0,1:2|0:0,0:0:0:0:
292,368,23457,2,0,P|317:344|323:321,1,56,10|0,2:2|0:0,0:0:0:0:
175,247,23671,2,0,P|184:259|186:273,7,28,2|2|2|2|2|2|2|2,2:2|2:3|2:3|2:3|2:3|2:3|2:3|2:3,0:0:0:0:
186,272,24099,6,0,B|189:277|189:277|189:277|189:277|186:272|186:272|170:282|153:285|153:285|154:291|154:291|154:291|154:291|153:285|153:285|135:289|117:287|117:287|116:293|116:293|116:293|116:293|117:287|117:287|99:285|83:276|83:276|80:281|80:281|80:281|80:281|83:276|83:276|67:267|55:254|55:254|50:258|50:258|50:258|50:258|55:254|55:254|42:240|36:224|36:224|30:226|30:226|30:226|30:226|36:224|36:224|29:206|29:189|29:189|23:189|23:189|23:189|23:189|29:189|29:189|28:170|34:153|34:153|28:151|28:151|28:151|28:151|34:153|34:153|40:135|52:121,1,384.819428372097,2|0,1:2|0:0,0:0:0:0:
51,123,24957,6,0,P|91:143|120:140,1,70,2|0,1:2|0:0,0:0:0:0:
252,193,25599,2,0,L|260:189,3,7,10|8|8|8,2:2|2:2|2:2|2:2,0:0:0:0:
115,141,25814,6,0,P|168:178|169:261,1,140,10|0,2:2|0:0,0:0:0:0:
296,359,26135,2,0,P|290:279|380:220,1,181.999991668702,10|0,2:2|0:0,0:0:0:0:
364,220,26457,2,0,L|403:226,1,35,2|0,2:2|0:0,0:0:0:0:
506,165,26671,6,0,L|256:192,1,252.000006152344,2|0,1:2|0:0,0:0:0:0:
256,192,27314,1,2,2:2:0:0:
204,141,27421,1,0,0:0:0:0:
0,173,27528,6,0,B|30:182|44:200|44:200|144:189|212:259,2,231.000007049561,10|2|2,2:2|2:2|2:2,0:0:0:0:
328,33,28385,6,0,P|344:19|353:1,1,42,2|0,1:2|0:0,0:0:0:0:
352,0,28599,2,0,L|329:167,1,168,8|0,2:2|0:0,0:0:0:0:
329,166,29028,1,2,2:2:0:0:
256,192,29135,1,2,2:2:0:0:
312,329,29242,6,0,P|303:346|299:363,1,35,10|0,2:2|0:0,0:0:0:0:
207,254,29457,2,0,P|182:220|180:203,1,56,2|2,1:2|2:2,0:0:0:0:
155,141,29778,1,0,0:0:0:0:
30,183,29885,6,0,P|124:210|126:298,1,168,2|0,1:2|0:0,0:0:0:0:
179,344,30099,2,0,P|188:332|189:322,1,21,2|0,2:3|0:0,0:0:0:0:
368,199,30314,2,0,P|390:245|381:266,1,62.9999980773926,2|0,2:2|0:0,0:0:0:0:
316,257,30528,2,0,L|314:250,7,7,2|2|2|2|2|2|2|2,2:3|2:3|2:3|2:3|2:2|2:3|2:3|2:3,0:0:0:0:
387,253,30957,6,0,P|405:154|437:13,1,231.000007049561,2|2,2:2|2:2,0:0:0:0:
380,0,31385,1,2,2:2:0:0:
327,27,31492,1,2,2:2:0:0:
325,69,31599,1,2,2:2:0:0:
344,94,31707,1,2,2:2:0:0:
442,120,31814,6,0,B|477:144|477:144|411:139|374:161|359:225,1,175,6|0,1:1|0:0,0:0:0:0:
287,219,32135,1,0,0:0:0:0:
293,228,32242,2,0,P|314:270|367:266,1,87.5,10|0,2:2|0:0,0:0:0:0:
381,344,32457,2,0,P|414:325|417:308,1,48.9999985046387,2|0,1:2|0:0,0:0:0:0:
431,114,32671,6,0,L|442:67,2,41.9999987182618,2|0|0,2:2|0:0|0:0,0:0:0:0:
449,217,32885,2,0,L|367:197,1,83.9999974365235,2|2,1:2|2:2,0:0:0:0:
127,57,33099,5,10,2:2:0:0:
140,61,33207,1,2,0:0:0:0:
154,64,33314,1,2,2:2:0:0:
167,67,33421,1,0,0:0:0:0:
232,29,33528,6,0,B|254:78|185:113|175:102|165:94|108:129|129:190,1,210.000008010865,2|2,1:3|2:2,0:0:0:0:
11,290,33849,1,0,0:0:0:0:
20,296,33957,2,0,P|57:267|60:223,1,87.5,10|0,2:2|0:0,0:0:0:0:
93,344,34171,6,0,L|88:372,1,28,2|2,1:2|2:3,0:0:0:0:
173,244,34492,5,8,2:2:0:0:
163,252,34599,2,0,P|156:289|190:339,1,83.9999974365235,2|0,1:2|0:0,0:0:0:0:
298,216,34814,2,0,P|269:192|209:196,1,83.9999974365235,10|0,2:2|0:0,0:0:0:0:
15,46,35028,5,2,2:2:0:0:
7,48,35135,1,2,2:2:0:0:
0,51,35242,2,0,B|9:87|9:87|195:45,1,181.999991668702,2|0,1:2|0:0,0:0:0:0:
44,164,35564,5,0,0:0:0:0:
35,157,35671,2,0,P|58:120|120:119,1,90.9999958343508,10|0,2:2|0:0,0:0:0:0:
204,0,35885,2,0,P|232:33|224:76,1,90.9999958343508,2|0,1:2|0:0,0:0:0:0:
5,233,36099,5,2,2:2:0:0:
9,246,36207,1,0,0:0:0:0:
12,260,36314,1,2,1:2:0:0:
15,273,36421,1,2,1:2:0:0:
86,302,36528,6,0,L|94:337,1,20.9999993591309,10|0,2:2|0:0,0:0:0:0:
43,384,36742,6,0,B|92:406|127:337|116:327|108:317|143:260|204:281,1,210.000008010865,2|0,1:2|0:0,0:0:0:0:
220,28,37064,1,8,2:2:0:0:
201,14,37171,6,0,B|157:45|199:110|213:105|226:103|258:162|209:205,1,210.000008010865,2|8,1:2|2:2,0:0:0:0:
443,334,37599,6,0,B|438:280|360:284|358:298|353:311|286:309|273:245,1,210.000008010865,6|0,1:1|0:0,0:0:0:0:
275,252,38028,1,2,1:2:0:0:
273,262,38135,1,2,1:2:0:0:
347,277,38242,5,10,2:2:0:0:
380,251,38349,1,10,2:2:0:0:
391,210,38457,1,10,2:3:0:0:
373,171,38564,1,6,2:3:0:0:
440,137,38671,6,0,L|196:93,1,238.00000453949,6|0,1:1|0:0,0:0:0:0:
109,32,38992,1,0,0:0:0:0:
119,39,39099,2,0,P|156:33|188:-5,1,83.9999974365235,10|0,2:2|0:0,0:0:0:0:
174,181,39314,2,0,P|147:149|106:141,1,83.9999974365235,2|0,1:2|0:0,0:0:0:0:
86,322,39528,6,0,L|97:369,2,41.9999987182618,2|0|0,2:2|0:0|0:0,0:0:0:0:
22,239,39742,2,0,L|104:219,1,83.9999974365235,2|2,1:2|2:2,0:0:0:0:
344,326,39957,5,10,2:2:0:0:
357,322,40064,1,0,0:0:0:0:
371,319,40171,1,2,2:2:0:0:
384,316,40278,1,0,0:0:0:0:
488,352,40385,6,0,B|428:364|387:310|400:259|400:259|414:206|361:179,1,238.00000453949,2|2,1:3|2:2,0:0:0:0:
492,124,40707,5,0,0:0:0:0:
478,132,40814,2,0,P|475:172|501:204,1,83.9999974365235,10|0,2:2|0:0,0:0:0:0:
475,278,41028,2,0,L|310:244,1,167.999994873047,2|2,1:2|2:3,0:0:0:0:
239,272,41349,5,8,2:2:0:0:
232,278,41457,2,0,L|200:270,1,28,2|10,1:2|2:2,0:0:0:0:
158,120,41778,5,2,2:2:0:0:
155,106,41885,1,2,2:2:0:0:
152,93,41992,1,0,0:0:0:0:
182,199,42099,6,0,B|204:150|135:115|125:126|115:134|58:99|79:38,1,210.000008010865,2|0,1:2|0:0,0:0:0:0:
228,6,42421,5,0,0:0:0:0:
241,13,42528,2,0,P|249:59|226:104,1,83.9999974365235,10|0,2:2|0:0,0:0:0:0:
109,201,42742,2,0,L|8:227,1,83.9999974365235,2|0,1:2|0:0,0:0:0:0:
149,348,42957,5,2,2:2:0:0:
162,344,43064,1,8,2:3:0:0:
176,341,43171,1,2,1:2:0:0:
189,338,43278,1,2,1:2:0:0:
218,267,43385,6,0,L|253:259,1,20.9999993591309,10|0,2:2|0:0,0:0:0:0:
318,334,43599,6,0,L|484:302,1,167.999994873047,2|0,1:2|0:0,0:0:0:0:
358,159,43921,1,0,0:0:0:0:
351,169,44028,2,0,L|258:188,1,83.9999974365235,6|0,1:1|0:0,0:0:0:0:
218,267,44242,2,0,L|125:286,1,83.9999974365235,10|0,2:2|0:0,0:0:0:0:
64,250,44457,2,0,L|32:85,1,167.999994873047,6|2,1:2|2:2,0:0:0:0:
32,85,44885,6,0,L|18:143,1,48.9999985046387,10|0,2:2|0:0,0:0:0:0:
92,162,45099,6,0,L|109:95,1,70,8|0,2:2|0:0,0:0:0:0:
177,136,45314,6,0,L|170:163,1,28,8|8,2:2|2:3,0:0:0:0:
170,163,45528,6,0,B|88:184|61:292|138:364|221:353|260:302|260:302|287:277|331:287|348:326|335:358|311:371,1,465.499987569809,2|0,1:2|0:0,0:0:0:0:
251,345,46385,6,0,L|232:198,1,146.999995513916,2|0,1:2|0:0,0:0:0:0:
169,163,47242,1,2,1:2:0:0:
184,92,47671,1,2,1:3:0:0:
256,84,48099,1,2,1:2:0:0:
285,150,48528,1,2,1:3:0:0:
232,199,48957,6,0,P|147:181|65:174,1,136.499993751526,2|0,1:2|0:0,0:0:0:0:
249,168,49385,2,0,P|262:109|266:51,1,115.50000352478,2|0,1:2|0:0,0:0:0:0:
280,185,49814,2,0,P|327:195|372:199,1,94.499997116089,2|0,1:2|3:3,0:0:0:0:
263,216,50242,2,0,P|254:258|250:299,1,73.4999977569581,2|0,1:2|0:0,0:0:0:0:
224,352,50671,6,0,P|140:355|216:300,1,199.499994672775,2|2,1:2|2:2,0:0:0:0:
179,284,51099,1,0,1:1:0:0:
374,213,51314,1,2,2:2:0:0:
263,216,51528,6,0,L|60:244,1,192.500005874634,2|0,1:3|0:0,0:0:0:0:
244,195,52171,2,0,L|237:145,1,38.5000011749268,2|0,2:2|0:0,0:0:0:0:
298,116,52385,6,0,B|248:32|350:-87|500:3|464:130|383:151|383:151|355:167|354:207|385:228|414:221|353:225|355:159|418:151,1,539.000016448975,2|0,1:2|0:0,0:0:0:0:
448,90,53242,6,0,L|420:294,1,196,2|0,1:2|0:0,0:0:0:0:
332,380,54099,6,0,P|404:312|274:320,1,314.999990386963,2|0,1:2|0:0,0:0:0:0:
187,212,54742,2,0,P|162:291|238:256,1,209.999993591309,2|0,2:2|0:0,0:0:0:0:
256,185,55385,2,0,L|256:160,1,21,2|0,1:2|0:0,0:0:0:0:
319,58,55814,6,0,P|297:83|305:107,1,55.9999982910157,2|0,2:2|0:0,0:0:0:0:
256,164,56028,2,0,P|258:196|280:207,1,55.9999982910157,2|0,2:2|0:0,0:0:0:0:
147,42,56242,6,0,P|171:83|218:89,1,98,2|2,2:2|2:2,0:0:0:0:
342,172,56483,2,0,P|367:158|368:129,1,56,2|2,0:0|0:0,0:0:0:0:
252,23,56671,6,0,L|256:5,5,18.6666666666667,8|0|0|0|0|0,2:2|0:0|0:0|3:3|0:0|0:0,0:0:0:0:
218,90,57099,1,2,1:2:0:0:
256,164,57207,1,8,2:2:0:0:
224,236,57314,1,6,2:3:0:0:
238,255,57421,1,8,2:3:0:0:
256,373,57528,6,0,P|277:262|402:276,1,210,10|0,1:2|0:0,0:0:0:0:
486,45,57957,2,0,P|469:141|372:157,1,210,10|0,1:2|0:0,0:0:0:0:
224,236,58385,2,0,L|203:233,1,14,10|0,1:2|0:0,0:0:0:0:
160,181,58599,5,0,0:0:0:0:
302,207,58707,1,0,0:0:0:0:
208,316,58814,1,10,1:2:0:0:
199,317,58921,1,0,0:0:0:0:
191,318,59028,1,8,2:2:0:0:
183,320,59135,1,8,2:2:0:0:
256,373,59242,6,0,B|395:338|395:338|377:265,1,210.000008010865,6|2,1:1|2:2,0:0:0:0:
486,220,59564,1,0,0:0:0:0:
475,215,59671,2,0,P|459:249|465:295,1,83.9999974365235,10|0,1:2|0:0,0:0:0:0:
480,374,59885,2,0,B|412:358|412:358|406:340,1,83.9999974365235,2|0,2:2|0:0,0:0:0:0:
270,376,60099,5,2,1:2:0:0:
332,336,60207,2,0,B|350:274|293:246|286:250|280:254|221:228|242:164,1,210.000008010865,8|2,2:2|2:2,0:0:0:0:
166,144,60528,2,0,P|184:112|230:93,1,83.9999974365235,8|0,1:2|0:0,0:0:0:0:
277,12,60742,5,2,2:2:0:0:
310,91,60849,1,0,0:0:0:0:
303,83,60957,2,0,B|299:73|299:73|98:28|98:28,1,210.000008010865,0|2,1:1|2:2,0:0:0:0:
36,147,61278,1,0,0:0:0:0:
25,142,61385,2,0,P|16:117|47:60,1,83.9999974365235,10|0,1:2|0:0,0:0:0:0:
181,33,61599,2,0,B|175:38|175:38|96:18,1,83.9999974365235,2|0,2:2|0:0,0:0:0:0:
54,221,61814,5,2,1:2:0:0:
60,240,61921,1,0,0:0:0:0:
57,261,62028,1,2,2:3:0:0:
44,277,62135,1,2,2:2:0:0:
0,364,62242,5,10,1:2:0:0:
55,353,62349,1,2,2:2:0:0:
110,343,62457,1,2,2:2:0:0:
165,332,62564,1,8,2:2:0:0:
213,269,62671,6,0,B|218:257|218:257|481:205,1,262.5,6|0,1:2|0:0,0:0:0:0:
462,208,63099,2,0,B|400:226|372:169|376:162|380:156|354:97|288:116,1,210.000008010865,10|2,1:2|2:2,0:0:0:0:
288,273,63421,1,8,2:2:0:0:
299,268,63528,2,0,P|314:230|304:191,1,83.9999974365235,2|0,1:2|0:0,0:0:0:0:
434,41,63742,5,10,2:2:0:0:
424,39,63849,1,8,2:2:0:0:
436,2,63957,5,2,1:2:0:0:
420,77,64064,1,0,0:0:0:0:
406,154,64171,1,10,2:2:0:0:
390,231,64278,1,4,2:3:0:0:
440,293,64385,6,0,B|423:258|423:258|195:205,1,238.00000453949,6|0,1:1|0:0,0:0:0:0:
154,52,64707,5,2,1:2:0:0:
93,96,64814,2,0,P|86:143|119:190,1,83.9999974365235,10|0,2:2|0:0,0:0:0:0:
240,125,65028,6,0,B|257:183|198:209|192:205|185:201|128:229|146:291,1,210.000008010865,6|0,1:2|0:0,0:0:0:0:
194,349,65349,1,8,2:3:0:0:
145,290,65457,2,0,P|160:250|211:230,1,83.9999974365235,2|0,1:2|0:0,0:0:0:0:
324,219,65671,2,0,L|263:201,1,62.9999980773926,14|0,2:1|0:0,0:0:0:0:
75,20,65885,5,8,2:2:0:0:
93,96,65992,1,8,2:2:0:0:
20,72,66099,2,0,B|29:77|29:77|252:28,1,210.000008010865,6|2,1:1|2:2,0:0:0:0:
318,136,66421,1,0,0:0:0:0:
321,130,66528,2,0,P|286:104|232:113,1,83.9999974365235,10|0,1:2|0:0,0:0:0:0:
228,25,66742,2,0,B|154:42|154:42|147:38,1,83.9999974365235,2|0,2:2|0:0,0:0:0:0:
72,172,66957,5,2,1:2:0:0:
61,227,67064,1,8,2:2:0:0:
51,282,67171,1,2,2:2:0:0:
40,337,67278,1,2,2:2:0:0:
118,322,67385,2,0,B|189:338|189:338|204:330,1,83.9999974365235,8|0,1:2|0:0,0:0:0:0:
309,192,67599,5,2,2:2:0:0:
306,200,67707,1,8,2:2:0:0:
333,271,67814,2,0,P|270:350|248:251,1,251.999992309571,0|2,1:1|2:2,0:0:0:0:
159,206,68135,5,0,0:0:0:0:
171,211,68242,2,0,P|196:246|190:305,1,105.000004005432,10|0,1:2|0:0,0:0:0:0:
211,381,68457,2,0,P|245:362|296:370,1,83.9999974365235,2|0,2:2|0:0,0:0:0:0:
405,232,68671,5,2,1:2:0:0:
432,227,68778,1,0,0:0:0:0:
459,233,68885,1,2,2:2:0:0:
481,250,68992,1,2,2:2:0:0:
423,364,69099,5,8,1:2:0:0:
415,369,69207,1,2,2:2:0:0:
407,373,69314,2,0,L|430:293,1,70,2|0,2:2|0:0,0:0:0:0:
512,174,69528,6,0,B|455:157|467:90|473:87|481:84|492:18|429:0,1,210.000008010865,6|2,1:2|2:2,0:0:0:0:
399,67,69849,1,0,0:0:0:0:
389,66,69957,2,0,B|318:45|318:45|295:51,1,83.9999974365235,10|0,1:2|0:0,0:0:0:0:
120,88,70171,5,2,2:2:0:0:
110,85,70278,1,8,2:2:0:0:
100,83,70385,1,2,1:2:0:0:
35,124,70492,5,2,2:3:0:0:
32,134,70599,1,10,2:2:0:0:
29,144,70707,1,8,2:2:0:0:
76,207,70814,5,2,1:2:0:0:
80,216,70921,2,0,L|60:283,1,70,8|10,2:2|2:3,0:0:0:0:
78,354,71135,5,4,2:3:0:0:
5,373,71242,2,0,B|21:314|87:325|90:333|93:339|160:351|177:294,1,210.000008010865,6|8,1:1|2:2,0:0:0:0:
241,362,71564,2,0,L|263:263,1,83.9999974365235,6|0,1:2|0:0,0:0:0:0:
451,354,71778,5,8,2:2:0:0:
379,384,71885,2,0,B|320:367|331:301|339:298|345:295|357:228|301:211,1,210.000008010865,6|8,1:2|2:3,0:0:0:0:
301,211,72153,1,8,2:3:0:0:
301,211,72207,1,8,2:3:0:0:
330,138,72314,5,6,2:3:0:0:
333,129,72421,1,6,2:3:0:0:
336,121,72528,2,0,B|343:125|343:125|417:108,1,83.9999974365235,10|0,2:2|0:0,0:0:0:0:
262,73,72742,2,0,L|246:11,1,62.9999980773926,8|8,2:2|2:2,0:0:0:0:
3,1,72957,6,0,P|-11:97|76:139,1,210.000008010865,6|2,1:1|2:2,0:0:0:0:
111,261,73278,1,2,2:2:0:0:
183,225,73385,2,0,P|177:186|139:191,1,83.9999974365235,10|0,1:2|0:0,0:0:0:0:
13,209,73599,2,0,P|0:227|43:223,1,83.9999974365235,2|0,2:2|0:0,0:0:0:0:
157,380,73814,5,2,1:2:0:0:
157,380,73867,1,2,2:2:0:0:
157,380,73921,1,10,2:2:0:0:
81,331,74028,2,0,L|-1:352,1,83.9999974365235,2|0,2:2|0:0,0:0:0:0:
226,334,74242,2,0,L|307:311,1,83.9999974365235,10|0,1:2|0:0,0:0:0:0:
325,240,74457,1,2,2:2:0:0:
325,240,74510,1,2,2:2:0:0:
325,240,74564,1,2,2:2:0:0:
411,369,74671,6,0,B|377:313|404:273|411:274|416:275|453:219|411:173,1,210.000008010865,2|2,1:2|2:2,0:0:0:0:
426,31,74992,1,0,0:0:0:0:
346,20,75099,2,0,P|329:51|377:68,1,83.9999974365235,10|2,1:2|2:2,0:0:0:0:
473,133,75314,2,0,P|492:107|458:114,1,83.9999974365235,2|0,2:2|0:0,0:0:0:0:
171,220,75528,2,0,L|190:77,1,140,2|2,1:2|2:2,0:0:0:0:
240,301,75849,5,2,2:2:0:0:
240,301,75903,1,2,0:0:0:0:
240,300,75957,2,0,P|213:323|197:378,1,83.9999974365235,10|0,1:2|0:0,0:0:0:0:
43,232,76171,2,0,P|25:199|30:172,1,56,2|8,2:2|2:2,0:0:0:0:
8,0,76385,6,0,P|106:45|85:136,1,210.000008010865,2|2,1:2|2:2,0:0:0:0:
171,220,76707,1,2,2:2:0:0:
171,220,76760,1,2,0:0:0:0:
171,220,76814,2,0,P|155:189|183:147,1,83.9999974365235,10|0,1:2|0:0,0:0:0:0:
345,267,77028,2,0,P|367:233|351:196,1,83.9999974365235,2|0,2:2|2:0,2:0:0:0:
442,51,77242,5,2,1:2:0:0:
442,51,77296,1,2,2:2:0:0:
442,51,77349,1,2,2:2:0:0:
467,125,77457,2,0,L|452:214,1,83.9999974365235,2|0,2:2|0:0,0:0:0:0:
295,374,77671,2,0,B|306:341|283:316|283:316|255:284|271:239,1,140,10|2,1:2|2:2,0:0:0:0:
351,196,77992,1,2,2:2:0:0:
219,11,78099,6,0,B|200:63|232:100|232:100|259:129|246:168,1,167.999994873047,2|2,1:2|2:2,0:0:0:0:
269,243,78421,1,2,2:2:0:0:
43,232,78528,1,10,1:2:0:0:
43,232,78582,1,2,2:2:0:0:
43,232,78635,1,2,2:2:0:0:
0,158,78742,2,0,P|34:154|84:140,1,83.9999974365235,2|0,2:2|0:0,0:0:0:0:
119,213,78957,5,2,1:2:0:0:
139,214,79064,1,8,2:2:0:0:
162,230,79171,1,2,2:2:0:0:
175,256,79278,1,2,2:2:0:0:
247,167,79385,5,14,1:2:0:0:
294,228,79492,1,0,0:0:0:0:
277,303,79599,1,10,2:2:0:0:
210,338,79707,1,8,2:2:0:0:
43,232,79814,6,0,P|139:177|115:81,1,210.000008010865,6|2,1:1|2:2,0:0:0:0:
256,1,80135,1,2,2:2:0:0:
182,3,80242,2,0,P|176:36|219:59,1,83.9999974365235,10|0,1:2|0:0,0:0:0:0:
328,142,80457,2,0,P|329:115|275:102,1,83.9999974365235,2|0,2:2|0:0,0:0:0:0:
256,258,80671,5,2,1:2:0:0:
256,258,80724,1,2,2:2:0:0:
256,258,80778,1,10,2:2:0:0:
175,256,80885,2,0,L|186:325,1,56,2|0,2:2|0:0,0:0:0:0:
376,384,81099,2,0,B|387:315|387:315|318:304,1,140,10|2,1:2|2:2,0:0:0:0:
256,384,81421,1,2,2:2:0:0:
175,256,81528,5,2,1:2:0:0:
170,236,81635,1,8,2:2:0:0:
175,217,81742,1,2,2:2:0:0:
188,199,81849,1,0,0:0:0:0:
135,97,81957,2,0,P|138:132|103:170,1,83.9999974365235,10|2,1:2|2:2,0:0:0:0:
317,303,82171,2,0,P|321:272|343:251,1,56,2|0,2:2|0:0,0:0:0:0:
256,1,82385,5,2,1:2:0:0:
256,1,82439,1,2,0:0:0:0:
256,1,82492,1,2,0:0:0:0:
209,62,82599,2,0,L|222:146,1,83.9999974365235,2|2,2:2|2:2,0:0:0:0:
300,326,82814,2,0,L|277:182,1,140,10|2,1:2|2:2,0:0:0:0:
504,59,83135,1,8,2:2:0:0:
464,122,83242,6,0,P|346:123|311:49,1,210.000008010865,6|2,1:2|2:2,0:0:0:0:
173,3,83564,1,2,2:2:0:0:
173,2,83671,2,0,P|206:19|209:62,1,83.9999974365235,10|0,1:2|0:0,0:0:0:0:
299,144,83885,2,0,P|298:171|277:187,1,56,2|0,2:2|0:0,0:0:0:0:
244,381,84099,5,2,1:2:0:0:
244,381,84207,1,10,2:2:0:0:
300,326,84314,2,0,L|372:314,1,56,2|0,2:2|0:0,0:0:0:0:
212,236,84528,2,0,L|41:208,1,167.999994873047,10|2,1:2|2:2,0:0:0:0:
34,11,84849,5,2,2:2:0:0:
34,11,84903,1,2,0:0:0:0:
34,11,84957,2,0,P|122:41|105:170,1,210.000008010865,6|10,1:1|2:2,0:0:0:0:
300,326,85278,2,0,P|312:237|406:211,1,181.999991668702,6|10,1:2|2:2,0:0:0:0:
440,261,85599,2,0,L|437:278,1,14,6|0,1:2|1:1,0:0:0:0:
470,192,85921,5,0,1:1:0:0:
470,192,86028,2,0,P|472:171|478:151,1,41.9999987182618,10|0,2:2|0:0,0:0:0:0:
481,24,86242,2,0,P|466:36|448:42,1,35,10|0,2:2|0:0,0:0:0:0:
336,119,86457,2,0,P|348:124|357:134,1,26.25,2|0,2:2|0:0,0:0:0:0:
430,101,86671,6,0,L|436:67,2,28,6|2|2,1:1|2:3|2:3,0:0:0:0:
430,101,86885,2,0,B|417:105|417:105|383:284|383:284|366:297,1,210,2|0,2:3|0:0,0:0:0:0:
388,365,87099,2,0,B|399:353|399:353|374:235|374:235|386:215,1,157.500006008148,2|0,2:3|0:0,0:0:0:0:
385,217,87314,2,0,L|323:201,1,56,2|0,2:3|0:0,0:0:0:0:
267,247,87528,6,0,B|258:233|258:233|79:199|79:199|66:182,1,210,10|0,2:2|0:0,0:0:0:0:
0,202,87742,2,0,B|11:213|11:213|129:188|129:188|149:200,1,157.500006008148,2|0,2:3|0:0,0:0:0:0:
72,190,87957,6,0,L|85:139,2,52.5000020027161,2|2|2,2:3|2:3|2:3,0:0:0:0:
72,190,88171,2,0,B|37:31|37:31|129:77,1,262.5,2|0,1:2|0:0,0:0:0:0:
84,139,88385,2,0,L|118:301,1,157.500006008148,2|0,2:3|0:0,0:0:0:0:
80,360,88599,2,0,B|131:373|131:373|174:343,1,105,2|0,2:3|0:0,0:0:0:0:
173,344,88814,2,0,L|236:333,1,56,2|0,2:3|0:0,0:0:0:0:
303,352,89028,6,0,L|330:347,3,28,2|0|0|0,2:3|0:0|0:0|0:0,0:0:0:0:
311,358,89242,2,0,L|414:339,1,105.000004005432,10|0,2:2|0:0,0:0:0:0:
443,160,89457,5,2,2:3:0:0:
453,162,89564,1,2,2:3:0:0:
437,235,89671,6,0,L|432:260,4,26.2500010013581,2|2|2|2|2,2:2|2:3|2:3|0:3|0:3,0:0:0:0:
466,89,89885,6,0,L|470:63,4,26.2500010013581,2|2|2|2|2,2:3|2:3|2:3|0:3|0:3,0:0:0:0:
512,211,90099,5,2,1:2:0:0:
512,211,90207,1,2,2:3:0:0:
512,211,90314,2,0,B|506:198|506:198|299:156,1,210,2|0,2:3|0:0,0:0:0:0:
314,159,90528,2,0,B|349:151|349:151|325:26,1,157.500006008148,2|0,2:3|0:0,0:0:0:0:
326,31,90742,2,0,L|311:85,1,56,2|0,2:3|0:0,0:0:0:0:
377,121,90957,6,0,B|340:309|340:309|381:317,1,210,10|0,2:2|0:0,0:0:0:0:
431,328,91171,2,0,B|460:352|460:352|339:328,1,157.500006008148,2|0,2:3|0:0,0:0:0:0:
278,366,91385,6,0,L|194:350,1,70.0000026702882,6|0,2:3|0:0,0:0:0:0:
159,289,91528,6,0,L|75:273,1,55.9999982910157,4|0,2:3|0:0,0:0:0:0:
57,215,91671,6,0,L|-14:201,1,37.3333333333333,4|0,2:3|0:0,0:0:0:0:
24,100,91814,6,0,L|18:66,2,28,2|2|2,1:2|2:3|2:3,0:0:0:0:
24,100,92028,2,0,B|37:104|37:104|71:283|71:283|88:296,1,210,10|0,2:2|0:0,0:0:0:0:
12,329,92242,2,0,B|16:317|16:317|187:283,1,157.500006008148,2|0,2:3|0:0,0:0:0:0:
207,229,92457,6,0,L|234:224,3,28,2|2|2|2,2:3|2:3|2:3|2:3,0:0:0:0:
215,235,92671,2,0,L|318:216,1,105.000004005432,10|0,2:2|0:0,0:0:0:0:
407,301,92885,2,0,L|484:286,1,70,2|0,2:3|0:0,0:0:0:0:
424,128,93099,6,0,L|427:146,4,14,2|2|2|2|2,2:3|2:3|2:3|0:3|0:3,0:0:0:0:
353,92,93314,2,0,L|340:23,1,70,10|0,2:2|0:0,0:0:0:0:
460,0,93528,6,0,L|473:69,1,70,2|0,2:2|0:0,0:0:0:0:
472,68,95242,6,0,L|477:40,1,28,2|0,2:2|0:0,0:0:0:0:
477,40,96742,1,2,2:2:0:0:
477,40,96849,1,2,2:2:0:0:
477,40,96957,6,0,L|372:59,1,97.9999970092774,2|0,2:2|0:0,0:0:0:0:
380,58,98242,1,2,2:2:0:0:
380,58,98349,1,0,0:0:0:0:
380,58,98457,6,0,L|438:367,1,315,2|0,2:2|0:0,0:0:0:0:
438,367,99528,6,0,L|445:333,1,35,2|0,2:2|0:0,0:0:0:0:
486,189,99742,2,0,L|458:326,1,140
371,340,100385,6,0,L|385:271,1,70,2|0,2:2|0:0,0:0:0:0:
371,340,102099,6,0,L|366:367,1,28,2|0,2:2|0:0,0:0:0:0:
366,368,103814,6,0,L|241:342,1,97.9999970092774,2|0,2:2|0:0,0:0:0:0:
271,349,105099,5,2,2:2:0:0:
271,349,105207,1,0,0:0:0:0:
271,349,105314,6,0,L|239:35,1,315,2|0,2:2|0:0,0:0:0:0:
304,0,106385,1,2,2:2:0:0:
321,27,106492,1,2,2:2:0:0:
320,78,106599,1,2,2:2:0:0:
287,116,106707,1,2,2:2:0:0:
231,114,106814,1,2,2:2:0:0:
191,155,106921,1,2,2:2:0:0:
200,217,107028,1,2,2:2:0:0:
263,247,107135,1,2,2:2:0:0:
357,233,107242,6,0,P|280:265|270:348,1,175,6|0,1:1|0:0,0:0:0:0:
198,384,107564,1,0,0:0:0:0:
183,380,107671,2,0,P|148:344|160:296,1,87.5,10|0,2:2|0:0,0:0:0:0:
28,306,107885,2,0,P|56:315|60:353,1,48.9999985046387,2|0,1:2|0:0,0:0:0:0:
191,155,108099,6,0,L|203:93,2,41.9999987182618,2|0|0,2:2|0:0|0:0,0:0:0:0:
116,170,108314,2,0,L|101:253,1,83.9999974365235,2|2,1:2|2:2,0:0:0:0:
0,46,108528,5,10,2:2:0:0:
17,50,108635,1,0,0:0:0:0:
34,54,108742,1,2,2:2:0:0:
51,58,108849,1,0,0:0:0:0:
118,13,108957,6,0,B|137:72|84:104|79:101|71:96|22:130|41:190,1,210.000008010865,2|2,1:3|2:2,0:0:0:0:
52,321,109278,1,0,0:0:0:0:
47,332,109385,2,0,P|64:288|44:302,1,87.5,10|0,2:2|0:0,0:0:0:0:
262,247,109599,6,0,L|257:274,1,28,2|2,1:2|2:3,0:0:0:0:
224,186,109921,5,8,2:2:0:0:
233,177,110028,2,0,P|238:129|207:103,1,83.9999974365235,2|0,1:2|0:0,0:0:0:0:
344,284,110242,2,0,P|323:366|340:383,1,83.9999974365235,10|0,2:2|0:0,0:0:0:0:
256,34,110457,5,2,2:2:0:0:
270,38,110564,1,2,2:2:0:0:
282,43,110671,2,0,B|331:55|331:55|306:200,1,181.999991668702,2|0,1:2|0:0,0:0:0:0:
400,161,110992,5,0,0:0:0:0:
387,156,111099,2,0,P|356:128|380:62,1,90.9999958343508,10|0,2:2|0:0,0:0:0:0:
256,274,111314,2,0,P|227:304|240:370,1,90.9999958343508,2|0,1:2|0:0,0:0:0:0:
97,188,111528,5,2,2:2:0:0:
105,189,111635,1,0,0:0:0:0:
114,191,111742,1,2,1:2:0:0:
123,193,111849,1,2,1:2:0:0:
168,251,111957,6,0,L|199:257,1,20.9999993591309,10|0,2:2|0:0,0:0:0:0:
166,378,112171,6,0,B|162:314|213:294|221:297|230:299|280:279|277:218,1,210.000008010865,2|0,1:2|0:0,0:0:0:0:
120,15,112492,1,8,2:2:0:0:
131,6,112599,6,0,B|188:34|180:89|174:94|167:100|159:154|215:182,1,210.000008010865,2|8,1:2|2:2,0:0:0:0:
470,161,113028,6,0,B|417:196|374:162|372:154|371:145|328:111|276:146,1,210.000008010865,6|0,1:1|0:0,0:0:0:0:
276,145,113457,1,2,1:2:0:0:
280,132,113564,1,2,1:2:0:0:
241,67,113671,5,10,2:2:0:0:
197,88,113778,1,10,2:2:0:0:
187,137,113885,1,10,2:3:0:0:
214,181,113992,1,6,2:3:0:0:
342,170,114099,6,0,P|263:195|260:280,1,175,6|0,1:1|0:0,0:0:0:0:
277,383,114421,1,0,0:0:0:0:
283,372,114528,2,0,P|325:357|280:339,1,87.5,10|0,2:2|0:0,0:0:0:0:
166,263,114742,2,0,P|172:293|189:297,1,48.9999985046387,2|0,1:2|0:0,0:0:0:0:
375,295,114957,6,0,L|441:283,2,41.9999987182618,2|0|0,2:2|0:0|0:0,0:0:0:0:
187,296,115171,2,0,L|104:311,1,83.9999974365235,2|2,1:2|2:2,0:0:0:0:
0,192,115385,5,10,2:2:0:0:
8,193,115492,1,0,0:0:0:0:
16,195,115599,1,2,2:2:0:0:
24,196,115706,1,0,0:0:0:0:
75,242,115814,6,0,B|38:233|23:188|48:153|83:148|107:162|107:162|126:174|151:163|158:140|150:121|136:113,1,238.00000453949,2|2,1:3|2:2,0:0:0:0:
240,18,116135,1,0,0:0:0:0:
253,25,116242,2,0,P|201:59|229:104,1,83.9999974365235,10|0,2:2|0:0,0:0:0:0:
222,144,116457,2,0,L|249:324,1,167.999994873047,2|2,1:2|2:3,0:0:0:0:
296,380,116778,5,8,2:2:0:0:
309,369,116885,2,0,L|313:341,1,28,2|10,1:2|2:2,0:0:0:0:
352,198,117207,5,2,2:2:0:0:
349,184,117314,1,2,2:2:0:0:
347,170,117421,1,0,0:0:0:0:
398,100,117528,6,0,B|410:170|360:189|354:184|347:180|292:199|305:266,1,210.000008010865,2|0,1:2|0:0,0:0:0:0:
382,383,117849,1,0,0:0:0:0:
398,376,117957,2,0,P|390:323|377:340,1,83.9999974365235,10|0,2:2|0:0,0:0:0:0:
191,213,118171,2,0,P|203:262|242:243,1,83.9999974365235,2|0,1:2|0:0,0:0:0:0:
262,119,118385,5,2,2:2:0:0:
260,102,118492,1,8,2:3:0:0:
258,86,118599,1,2,1:2:0:0:
256,69,118706,1,2,1:2:0:0:
310,20,118814,6,0,L|307:0,1,20.9999993591309,10|0,2:2|0:0,0:0:0:0:
347,170,119028,6,0,L|322:336,1,167.999994873047,2|0,1:2|0:0,0:0:0:0:
255,373,119349,1,0,0:0:0:0:
242,382,119457,2,0,L|254:298,1,83.9999974365235,6|0,1:1|0:0,0:0:0:0:
270,2,119671,2,0,L|257:85,1,83.9999974365235,10|0,2:2|0:0,0:0:0:0:
165,214,119885,2,0,L|190:48,1,167.999994873047,6|2,1:2|2:2,0:0:0:0:
190,47,120314,6,0,L|197:95,1,48.9999985046387,10|0,2:2|0:0,0:0:0:0:
125,123,120528,6,0,L|113:45,1,70,8|0,2:2|0:0,0:0:0:0:
46,89,120742,6,0,L|51:127,1,28,8|8,2:2|2:3,0:0:0:0:
8,193,120957,6,0,B|29:111|137:84|209:161|198:244|147:283|147:283|102:316|108:381|167:410|218:377|216:334,1,490,2|0,1:2|0:0,0:0:0:0:
119,366,121814,2,0,L|275:333,1,140,2|0,2:2|0:0,0:0:0:0:
318,378,122457,6,0,L|357:369,1,28,0|0,3:3|0:0,0:0:0:0:
345,371,122671,2,0,P|359:305|415:265,1,140,2|0,1:2|0:0,0:0:0:0:
439,171,123314,1,8,2:3:0:0:
439,171,123421,1,8,2:3:0:0:
439,171,123528,2,0,P|388:106|398:45,2,125.999996154785,10|4|4,2:3|2:3|2:3,0:0:0:0:
439,171,124385,6,0,L|296:143,1,125.999996154785,2|0,1:2|0:0,0:0:0:0:
248,183,124814,2,0,B|229:104|162:150|150:44,1,168,2|0,2:2|0:0,0:0:0:0:
219,91,125242,2,0,L|184:264,1,168,2|0,2:2|0:0,0:0:0:0:
185,255,125671,2,0,L|169:196,1,56,2|0,3:2|0:0,0:0:0:0:
103,260,125885,5,2,2:2:0:0:
103,260,125992,1,0,0:0:0:0:
103,260,126099,2,0,P|163:220|245:367,1,280,2|0,1:2|0:0,0:0:0:0:
253,355,126742,6,0,L|312:339,1,56,2|0,2:2|0:0,0:0:0:0:
344,216,126957,2,0,L|545:161,1,168,2|0,2:2|0:0,0:0:0:0:
506,172,127385,6,0,P|469:203|486:323,1,140,8|0,2:2|3:3,0:0:0:0:
512,347,127707,1,0,3:3:0:0:
512,347,127814,2,0,L|430:325,1,70,2|0,1:2|0:0,0:0:0:0:
372,348,128028,2,0,L|290:326,1,70,2|0,2:3|0:0,0:0:0:0:
79,353,128242,6,0,L|48:201,1,154.000004699707,10|2,1:2|2:3,0:0:0:0:
94,129,128564,1,8,2:2:0:0:
94,129,128671,2,0,P|68:158|65:210,1,77.0000023498536,2|8,1:2|2:2,0:0:0:0:
107,261,128885,2,0,P|145:269|191:245,1,77.0000023498536,2|0,1:3|0:0,0:0:0:0:
202,144,129099,5,10,2:2:0:0:
140,191,129207,2,0,L|292:160,1,154.000004699707,0|0,1:1|3:3,0:0:0:0:
360,255,129528,2,0,P|327:236|275:242,1,77.0000023498536,2|0,1:2|0:0,0:0:0:0:
253,89,129742,2,0,P|290:79|317:52,1,77.0000023498536,2|0,2:3|0:0,0:0:0:0:
317,51,129957,6,0,L|166:20,1,154.000004699707,10|2,1:2|2:2,0:0:0:0:
100,61,130278,1,0,3:3:0:0:
107,70,130385,5,10,1:2:0:0:
101,95,130492,1,8,2:2:0:0:
96,120,130599,1,8,2:2:0:0:
91,145,130706,1,0,3:3:0:0:
130,209,130814,5,10,1:2:0:0:
127,221,130921,1,8,2:2:0:0:
124,234,131028,1,8,2:2:0:0:
122,246,131135,1,8,2:2:0:0:
31,306,131242,6,0,B|136:281|136:281|155:235|155:235|140:321|140:321|201:306|201:306|242:369|242:369|221:326|221:326|363:289,1,539.000016448975,2|2,2:2|2:2,0:0:0:0:
366,234,132099,6,0,L|420:219,1,56,8|2,2:2|2:2,0:0:0:0:
423,74,132314,6,0,L|427:56,3,18.6666666666667,0|0|2|0,3:3|3:3|3:2|3:3,0:0:0:0:
454,145,132528,5,2,1:2:0:0:
437,222,132635,1,8,2:2:0:0:
462,142,132742,1,6,2:3:0:0:
445,219,132849,1,8,2:3:0:0:
502,272,132957,6,0,P|445:258|377:388,1,210,10|0,1:2|0:0,0:0:0:0:
166,166,133385,2,0,P|264:167|299:260,1,210,10|0,1:2|0:0,0:0:0:0:
246,318,133814,2,0,L|232:319,1,14,10|0,1:2|0:0,0:0:0:0:
217,241,134028,5,0,0:0:0:0:
191,383,134136,1,0,0:0:0:0:
82,289,134243,5,10,1:2:0:0:
74,290,134350,1,0,0:0:0:0:
66,291,134457,1,8,2:2:0:0:
58,293,134564,1,8,2:2:0:0:
96,361,134671,6,0,B|166:343|166:343|137:198,1,210.000008010865,6|2,1:1|2:2,0:0:0:0:
203,168,134992,1,0,0:0:0:0:
192,157,135099,2,0,P|176:119|189:80,1,83.9999974365235,10|0,1:2|0:0,0:0:0:0:
323,163,135314,2,0,L|309:259,1,83.9999974365235,2|0,2:2|0:0,0:0:0:0:
289,379,135528,5,2,1:2:0:0:
246,318,135635,2,0,B|317:341|335:287|332:282|329:275|353:217|415:241,1,210.000008010865,8|2,2:2|2:2,0:0:0:0:
489,247,135957,2,0,P|515:264|481:265,1,83.9999974365235,8|0,1:2|0:0,0:0:0:0:
388,107,136171,5,2,2:2:0:0:
323,163,136278,1,0,0:0:0:0:
334,170,136385,2,0,L|364:386,1,210.000008010865,0|2,1:1|2:2,0:0:0:0:
215,239,136707,5,0,0:0:0:0:
204,232,136814,2,0,P|186:195|201:157,1,83.9999974365235,10|0,1:2|0:0,0:0:0:0:
320,0,137028,2,0,L|308:83,1,83.9999974365235,2|0,2:2|0:0,0:0:0:0:
200,157,137242,5,2,1:2:0:0:
183,150,137349,1,0,0:0:0:0:
174,138,137457,1,2,2:3:0:0:
173,121,137564,1,2,2:2:0:0:
308,83,137671,5,10,1:2:0:0:
330,145,137778,1,2,2:2:0:0:
302,206,137885,1,2,2:2:0:0:
241,221,137992,1,8,2:2:0:0:
265,304,138099,6,0,B|260:300|260:300|6:270,1,262.5,6|0,1:2|0:0,0:0:0:0:
2,258,138528,2,0,B|67:269|88:207|83:204|77:200|100:133|171:148,1,210.000008010865,10|2,1:2|2:2,0:0:0:0:
9,92,138849,1,8,2:2:0:0:
0,101,138957,2,0,P|6:139|11:188,1,83.9999974365235,2|0,1:2|0:0,0:0:0:0:
151,335,139171,5,10,2:2:0:0:
147,316,139278,1,8,2:2:0:0:
136,328,139385,5,2,1:2:0:0:
217,314,139492,1,0,0:0:0:0:
295,299,139599,1,10,2:2:0:0:
376,285,139706,1,4,2:3:0:0:
449,323,139814,6,0,L|183:288,1,238.00000453949,6|0,1:1|0:0,0:0:0:0:
10,184,140135,5,2,1:2:0:0:
82,146,140242,2,0,P|86:189|132:205,1,83.9999974365235,10|0,2:2|0:0,0:0:0:0:
424,226,140457,6,0,P|391:105|308:123,1,210.000008010865,6|0,1:2|0:0,0:0:0:0:
291,172,140778,1,8,2:3:0:0:
328,108,140885,2,0,P|282:74|285:37,1,83.9999974365235,2|0,1:2|0:0,0:0:0:0:
232,235,141099,2,0,P|213:260|212:291,1,62.9999980773926,14|0,2:1|0:0,0:0:0:0:
82,146,141314,5,8,2:2:0:0:
28,86,141421,1,8,2:2:0:0:
73,22,141528,2,0,B|80:27|80:27|280:51,1,210.000008010865,6|2,1:1|2:2,0:0:0:0:
380,159,141849,1,0,0:0:0:0:
384,148,141957,2,0,P|367:112|327:107,1,83.9999974365235,10|0,1:2|0:0,0:0:0:0:
338,8,142171,2,0,P|298:14|279:50,1,83.9999974365235,2|0,2:2|0:0,0:0:0:0:
163,116,142385,5,2,1:2:0:0:
150,171,142492,1,8,2:2:0:0:
177,219,142599,1,2,2:2:0:0:
232,235,142707,1,2,2:2:0:0:
205,303,142814,2,0,B|208:307|208:307|221:384,1,83.9999974365235,8|0,1:2|0:0,0:0:0:0:
418,309,143028,5,2,2:2:0:0:
427,306,143135,1,8,2:2:0:0:
481,263,143242,2,0,P|472:163|427:262,1,251.999992309571,0|2,1:1|2:2,0:0:0:0:
322,188,143564,5,0,0:0:0:0:
308,183,143671,2,0,P|269:133|294:92,1,105.000004005432,10|0,1:2|0:0,0:0:0:0:
357,82,143885,2,0,P|388:107|384:147,1,83.9999974365235,2|0,2:2|0:0,0:0:0:0:
214,308,144099,5,2,1:2:0:0:
212,299,144206,1,0,0:0:0:0:
210,291,144313,1,2,2:2:0:0:
208,283,144420,1,2,2:2:0:0:
151,234,144528,5,8,1:2:0:0:
108,290,144635,1,2,2:2:0:0:
145,350,144742,2,0,P|190:367|203:387,1,70,2|0,2:2|0:0,0:0:0:0:
311,244,144957,6,0,P|384:176|356:80,1,210.000008010865,6|2,1:2|2:2,0:0:0:0:
284,100,145278,1,0,0:0:0:0:
277,109,145385,2,0,P|260:179|290:201,1,83.9999974365235,10|0,1:2|0:0,0:0:0:0:
377,273,145599,5,2,2:2:0:0:
374,287,145706,1,8,2:2:0:0:
372,303,145813,1,2,1:2:0:0:
414,366,145921,5,2,2:3:0:0:
428,369,146028,1,10,2:2:0:0:
444,371,146135,1,8,2:2:0:0:
507,329,146242,5,2,1:2:0:0:
498,317,146349,2,0,L|515:221,1,70,8|10,2:2|2:3,0:0:0:0:
439,217,146564,1,4,2:3:0:0:
510,248,146671,6,0,B|443:266|425:203|432:201|438:200|420:124|355:143,1,210.000008010865,6|8,1:1|2:2,0:0:0:0:
259,34,146992,2,0,P|281:76|340:62,1,83.9999974365235,6|0,1:2|0:0,0:0:0:0:
201,178,147207,5,8,2:2:0:0:
158,119,147314,2,0,P|35:161|66:254,1,210.000008010865,6|8,1:2|2:3,0:0:0:0:
48,226,147582,1,8,2:3:0:0:
57,231,147635,1,8,2:3:0:0:
130,212,147742,5,6,2:3:0:0:
144,249,147849,1,6,2:3:0:0:
118,278,147957,2,0,L|130:366,1,83.9999974365235,10|0,2:2|0:0,0:0:0:0:
250,265,148171,2,0,L|261:181,1,83.9999974365235,8|8,2:2|2:2,0:0:0:0:
463,351,148385,6,0,P|385:367|337:249,1,210.000008010865,6|2,1:1|2:2,0:0:0:0:
260,181,148707,1,2,2:2:0:0:
329,146,148814,2,0,L|398:155,1,70,10|0,1:2|0:0,0:0:0:0:
208,48,149028,2,0,L|138:38,1,70,2|0,2:2|0:0,0:0:0:0:
0,206,149242,5,2,1:2:0:0:
7,213,149296,1,2,2:2:0:0:
7,213,149349,1,10,2:2:0:0:
53,151,149457,2,0,P|48:122|77:65,1,83.9999974365235,2|0,2:2|0:0,0:0:0:0:
122,190,149671,2,0,P|141:226|138:268,1,83.9999974365235,10|0,1:2|0:0,0:0:0:0:
9,335,149885,5,2,2:2:0:0:
9,335,149939,1,2,2:2:0:0:
9,335,149992,1,2,2:2:0:0:
83,321,150099,2,0,L|248:291,1,167.999994873047,2|2,1:2|2:2,0:0:0:0:
325,335,150421,5,0,0:0:0:0:
369,267,150528,2,0,P|371:225|352:188,1,83.9999974365235,10|2,1:2|2:2,0:0:0:0:
173,313,150742,2,0,L|255:298,1,83.9999974365235,2|0,2:2|0:0,0:0:0:0:
352,188,150957,6,0,L|382:22,1,167.999994873047,2|2,1:2|2:2,0:0:0:0:
260,42,151278,5,2,2:2:0:0:
260,42,151332,1,2,0:0:0:0:
260,42,151385,2,0,P|282:77|284:118,1,83.9999974365235,10|0,1:2|0:0,0:0:0:0:
494,92,151599,2,0,P|458:113|438:149,1,83.9999974365235,2|8,2:2|2:2,0:0:0:0:
222,168,151814,6,0,L|56:138,1,167.999994873047,2|2,1:2|2:2,0:0:0:0:
22,12,152135,1,2,2:2:0:0:
22,12,152189,1,2,0:0:0:0:
22,12,152242,2,0,P|44:47|82:65,1,83.9999974365235,10|0,1:2|0:0,0:0:0:0:
7,245,152457,2,0,P|43:238|70:212,1,70,2|8,2:2|2:2,0:0:0:0:
124,354,152671,5,2,1:2:0:0:
124,354,152724,1,2,2:2:0:0:
124,354,152778,1,2,2:2:0:0:
134,274,152885,2,0,L|149:191,1,83.9999974365235,2|0,2:2|0:0,0:0:0:0:
338,322,153099,6,0,P|245:299|218:231,1,167.999994873047,10|2,1:2|2:2,0:0:0:0:
333,210,153421,1,2,2:2:0:0:
263,175,153528,6,0,L|293:9,1,167.999994873047,2|2,1:2|2:2,0:0:0:0:
323,79,153849,1,2,2:2:0:0:
196,131,153957,1,10,1:2:0:0:
196,131,154010,1,2,2:2:0:0:
196,131,154064,1,2,2:2:0:0:
124,84,154171,2,0,L|41:99,1,83.9999974365235,2|0,2:2|0:0,0:0:0:0:
0,182,154385,5,2,1:2:0:0:
18,174,154492,1,8,2:2:0:0:
46,179,154599,1,2,2:2:0:0:
68,197,154706,1,2,2:2:0:0:
75,336,154813,5,14,1:2:0:0:
104,264,154920,1,2,0:0:0:0:
177,242,155027,1,10,2:2:0:0:
241,282,155135,1,8,2:2:0:0:
223,357,155242,6,0,B|208:301|261:278|266:281|273:285|324:260|308:204,1,181.999991668702,6|2,1:1|2:2,0:0:0:0:
408,103,155564,1,2,2:2:0:0:
394,179,155671,2,0,L|377:287,1,90.9999958343508,10|0,1:2|0:0,0:0:0:0:
488,319,155885,2,0,P|460:285|465:235,1,90.9999958343508,2|0,2:2|0:0,0:0:0:0:
464,48,156099,5,2,1:2:0:0:
464,48,156153,1,2,2:2:0:0:
464,48,156207,1,10,2:2:0:0:
408,103,156314,2,0,L|301:84,1,90.9999958343508,2|0,2:2|0:0,0:0:0:0:
161,0,156528,6,0,B|146:56|199:79|204:76|211:72|262:97|246:153,1,181.999991668702,10|2,1:2|2:2,0:0:0:0:
201,203,156849,1,2,2:2:0:0:
265,252,156957,1,2,1:2:0:0:
268,269,157063,1,8,2:2:0:0:
271,286,157171,1,2,2:2:0:0:
275,303,157278,1,0,0:0:0:0:
367,351,157385,6,0,P|368:310|391:275,1,83.9999974365235,10|2,1:2|2:2,0:0:0:0:
213,382,157599,2,0,P|192:345|157:325,1,83.9999974365235,2|0,2:2|0:0,0:0:0:0:
0,217,157814,6,0,L|179:245,1,181.999991668702,2|2,1:2|2:2,0:0:0:0:
279,49,158135,1,2,2:2:0:0:
249,123,158242,2,0,P|216:153|171:164,1,90.9999958343508,10|0,1:2|0:0,0:0:0:0:
12,207,158457,2,0,L|101:221,1,90.9999958343508,2|8,2:2|2:2,0:0:0:0:
310,177,158671,6,0,B|366:192|389:139|386:134|382:127|407:76|463:92,1,181.999991668702,6|2,1:2|2:2,0:0:0:0:
511,136,158992,1,2,2:2:0:0:
477,207,159099,2,0,P|441:213|390:180,1,90.9999958343508,10|0,1:2|0:0,0:0:0:0:
466,0,159314,2,0,L|449:108,1,90.9999958343508,2|0,2:2|0:0,0:0:0:0:
456,299,159528,5,2,1:2:0:0:
438,291,159635,1,10,2:3:0:0:
410,296,159742,1,2,2:2:0:0:
388,314,159849,1,8,2:2:0:0:
322,360,159957,5,10,1:2:0:0:
277,351,160064,1,0,0:0:0:0:
232,343,160171,1,6,2:3:0:0:
187,334,160278,1,6,2:3:0:0:
76,197,160385,6,0,L|19:186,1,56,6|0,1:2|0:0,0:0:0:0:
154,219,161028,1,6,2:3:0:0:
436,187,161242,6,0,L|493:198,1,56,6|2,2:3|2:2,0:0:0:0:
358,165,161885,1,8,2:3:0:0:
256,192,162099,6,0,L|248:233,1,42,2|0,1:2|3:3,0:0:0:0:
272,304,162528,2,0,L|266:331,1,28,2|0,2:3|1:1,0:0:0:0:
197,362,162957,5,10,2:2:0:0:
132,277,163278,1,2,2:2:0:0:
23,312,163599,1,2,2:2:0:0:
265,331,163814,5,2,2:2:0:0:
297,373,164028,1,0,0:0:0:0:
352,356,164242,1,2,2:2:0:0:
337,245,164457,5,2,1:2:0:0:
272,160,164671,1,8,2:2:0:0:
163,195,164885,1,2,2:2:0:0:
163,195,164992,1,2,2:3:0:0:
163,195,165099,1,2,2:3:0:0:
405,214,165314,5,2,2:2:0:0:
405,214,165421,1,2,2:3:0:0:
405,214,165528,1,2,1:2:0:0:
437,256,165742,1,0,0:0:0:0:
492,239,165956,1,2,2:3:0:0:
374,146,166171,1,2,1:2:0:0:
512,24,166385,5,10,2:2:0:0:
318,94,166707,1,2,2:2:0:0:
388,288,167028,1,2,2:2:0:0:
297,373,167242,5,2,1:2:0:0:
277,299,167457,1,0,0:0:0:0:
277,299,167564,1,0,1:1:0:0:
277,299,167671,1,2,2:2:0:0:
203,318,167885,5,2,1:2:0:0:
42,267,168099,1,10,2:2:0:0:
91,100,168314,2,0,P|127:106|142:131,2,56,2|2|2,1:2|2:3|1:2,0:0:0:0:
0,182,168957,6,0,B|109:220|137:118|126:106|114:94|143:-4|252:33,1,336,2|2,1:2|1:2,0:0:0:0:
246,31,169707,1,2,2:2:0:0:
246,31,169814,2,0,P|253:76|232:97,1,56,10|0,2:2|0:0,0:0:0:0:
358,144,170135,2,0,P|314:128|307:99,1,56,2|0,2:2|0:0,0:0:0:0:
224,169,170457,2,0,P|231:157|245:153,1,28,2|0,2:2|0:0,0:0:0:0:
358,144,170671,6,0,P|417:155|452:156,1,83.9999974365235,2|0,2:2|0:0,0:0:0:0:
163,127,170992,2,0,P|143:71|126:40,1,83.9999974365235,2|0,2:2|0:0,0:0:0:0:
246,304,171314,2,0,P|227:327|217:342,1,41.9999987182618,2|0,1:2|0:0,0:0:0:0:
150,369,171528,6,0,P|114:309|148:274,1,112,10|2,2:2|2:3,0:0:0:0:
163,127,171849,2,0,P|129:188|81:176,1,112,2|0,2:2|0:0,0:0:0:0:
32,147,172171,1,2,2:2:0:0:
95,185,172278,1,2,2:2:0:0:
57,248,172385,5,2,1:2:0:0:
256,192,172707,1,2,3:2:0:0:
455,136,173028,1,2,1:2:0:0:
95,185,173242,5,10,2:2:0:0:
256,192,173457,1,2,1:3:0:0:
256,192,173564,1,2,2:2:0:0:
417,199,173778,1,0,0:0:0:0:
417,199,173885,1,2,2:2:0:0:
417,199,173992,1,2,2:3:0:0:
417,199,174099,6,0,P|398:209|396:212,1,14,2|0,1:2|0:0,0:0:0:0:
350,152,174314,2,0,P|330:133|326:132,1,28,8|0,2:3|0:0,0:0:0:0:
365,70,174528,2,0,P|380:38|380:33,1,41.9999987182618,8|0,2:2|0:0,0:0:0:0:
451,44,174742,1,0,1:1:0:0:
451,44,174849,1,0,3:3:0:0:
120,0,175814,6,0,L|151:152,1,154.000004699707,2|0,1:2|0:0,0:0:0:0:
113,236,176136,1,0,0:0:0:0:
113,236,176243,2,0,P|136:204|135:152,1,77.0000023498536,2|0,2:3|0:0,0:0:0:0:
88,105,176457,2,0,P|50:101|6:128,1,77.0000023498536
88,307,176671,5,10,2:2:0:0:
112,312,176778,1,0,0:0:0:0:
138,308,176885,1,0,0:0:0:0:
159,295,176992,1,2,2:2:0:0:
234,317,177099,5,2,2:3:0:0:
267,279,177206,1,0,0:0:0:0:
317,270,177313,1,2,2:2:0:0:
361,293,177420,1,0,0:0:0:0:
377,216,177528,6,0,L|389:140,1,41.9999987182618,2|0,2:2|0:0,0:0:0:0:
325,73,177742,2,0,L|384:121,1,41.9999987182618,8|0,2:2|0:0,0:0:0:0:
474,99,177957,2,0,L|402:126,1,41.9999987182618,2|0,2:2|0:0,0:0:0:0:
392,134,178171,5,2,1:2:0:0:
410,33,178385,6,0,L|395:122,1,56,10|0,2:2|0:0,0:0:0:0:
471,201,178599,2,0,L|400:144,1,56,2|0,2:2|0:0,0:0:0:0:
295,170,178814,2,0,L|379:137,1,56,2|0,2:3|0:0,0:0:0:0:
374,225,179028,5,2,2:2:0:0:
374,225,179135,1,0,0:0:0:0:
374,225,179242,2,0,P|336:279|347:362,2,140,2|8|2,1:3|2:2|2:3,0:0:0:0:
268,384,179885,1,2,1:2:0:0:
268,384,180099,6,0,L|251:311,1,70,10|0,2:2|0:0,0:0:0:0:
106,273,180314,2,0,P|163:311|183:376,1,140,0|2,0:0|2:3,0:0:0:0:
252,315,180635,1,0,0:0:0:0:
252,315,180742,2,0,L|320:299,1,70,10|0,2:2|0:0,0:0:0:0:
436,139,180957,5,2,1:2:0:0:
419,65,181171,1,8,2:2:0:0:
417,55,181278,1,0,1:1:0:0:
414,44,181385,2,0,L|406:10,3,35.0000013351441,2|0|0|2,2:2|0:0|0:0|2:3,0:0:0:0:
498,191,181599,5,2,1:2:0:0:
494,207,181707,1,2,1:3:0:0:
489,222,181814,2,0,B|428:236|409:181|416:177|422:173|385:112|317:137,1,210.000008010865,10|2,2:2|1:2,0:0:0:0:
58,181,182242,5,2,2:2:0:0:
70,178,182349,1,2,2:2:0:0:
82,175,182456,1,2,1:2:0:0:
94,172,182563,1,2,2:2:0:0:
152,123,182671,6,0,B|151:53|230:9|303:55|312:123|280:164|280:164|252:200|270:250|323:260|356:223|345:190,1,420.000016021729,2|2,1:2|2:3,0:0:0:0:
393,330,183314,2,0,P|384:296|413:264,1,77.0000023498536,0|0,1:1|0:0,0:0:0:0:
408,265,183528,2,0,L|234:238,1,154.000004699707,10|0,2:2|0:0,0:0:0:0:
192,282,183957,1,2,2:3:0:0:
168,161,184171,5,0,0:0:0:0:
168,161,184278,1,0,0:0:0:0:
168,161,184385,2,0,L|151:88,1,70,2|0,1:2|0:0,0:0:0:0:
274,2,184599,2,0,P|236:56|247:139,1,140,8|2,2:2|2:3,0:0:0:0:
43,218,185028,5,0,1:1:0:0:
6,50,185242,2,0,P|63:88|83:153,1,140,10|0,2:2|0:0,0:0:0:0:
345,238,185671,6,0,L|519:210,1,140,2|2,2:3|2:3,0:0:0:0:
483,216,186099,2,0,L|500:143,1,70,2|0,1:2|0:0,0:0:0:0:
376,71,186314,2,0,P|412:126|403:208,1,140,8|2,2:2|2:3,0:0:0:0:
298,302,186742,5,2,1:2:0:0:
298,302,186849,1,2,2:2:0:0:
298,302,186957,5,10,2:2:0:0:
274,307,187064,1,0,0:0:0:0:
248,303,187171,1,0,0:0:0:0:
227,290,187278,1,2,2:2:0:0:
152,312,187385,5,2,2:3:0:0:
119,274,187492,1,0,0:0:0:0:
69,265,187599,1,10,2:2:0:0:
25,288,187706,1,0,0:0:0:0:
15,211,187814,6,0,L|0:143,1,70,2|0,1:2|0:0,0:0:0:0:
143,17,188028,2,0,L|158:85,1,70,8|0,2:2|0:0,0:0:0:0:
81,157,188242,6,0,L|115:149,6,35,2|2|2|2|2|2|2,2:3|2:3|2:3|2:3|1:3|2:3|2:3,0:0:0:0:
92,141,188671,5,10,2:2:0:0:
184,196,188885,2,0,P|211:237|204:298,1,112,0|2,1:1|2:3,0:0:0:0:
148,351,189314,1,0,1:1:0:0:
256,384,189528,5,2,1:3:0:0:
256,384,192957,5,2,2:2:0:0:
256,384,194671,1,0,0:0:0:0:
256,384,196385,1,2,2:2:0:0:
256,384,197671,2,0,L|267:316,1,56,2|2,2:2|1:2,0:0:0:0:
217,273,197992,5,0,1:1:0:0:
207,280,198099,2,0,P|144:280|122:168,1,167.999994873047,14|0,2:2|0:0,0:0:0:0:
312,192,198421,2,0,P|293:214|283:260,1,56,2|0,1:2|0:0,0:0:0:0:
107,193,198742,5,2,1:2:0:0:
99,201,198849,1,2,1:2:0:0:
35,250,198957,2,0,L|59:-1,2,251.999992309571,14|6|10,2:2|1:1|2:2,0:0:0:0:
55,321,199707,1,8,2:2:0:0:
131,384,199814,6,0,B|130:362|130:362|143:328|143:328|119:177,1,210.000008010865,6|2,1:1|2:2,0:0:0:0:
181,76,200135,1,0,0:0:0:0:
192,82,200242,2,0,P|218:148|190:188,1,83.9999974365235,10|0,1:2|0:0,0:0:0:0:
310,196,200457,2,0,L|299:286,1,83.9999974365235,2|0,2:2|0:0,0:0:0:0:
255,384,200671,5,2,1:2:0:0:
207,358,200778,1,8,2:2:0:0:
195,305,200885,1,2,2:2:0:0:
228,262,200992,1,2,2:2:0:0:
299,279,201099,2,0,L|382:260,1,83.9999974365235,8|0,1:2|0:0,0:0:0:0:
465,144,201314,5,2,2:2:0:0:
476,140,201421,1,8,2:2:0:0:
486,69,201528,2,0,P|416:-2|410:97,1,251.999992309571,0|2,1:1|2:2,0:0:0:0:
382,252,201849,5,0,0:0:0:0:
390,244,201957,2,0,P|403:203|338:172,1,105.000004005432,10|0,1:2|0:0,0:0:0:0:
295,199,202171,2,0,P|280:235|310:260,1,83.9999974365235,2|0,2:2|0:0,0:0:0:0:
259,134,202385,5,2,1:2:0:0:
260,125,202492,1,0,0:0:0:0:
261,117,202599,1,2,2:2:0:0:
262,109,202706,1,2,2:2:0:0:
222,50,202814,5,8,1:2:0:0:
161,93,202921,1,2,2:2:0:0:
190,162,203028,2,0,P|157:175|127:232,1,70,2|0,2:2|0:0,0:0:0:0:
0,251,203242,6,0,P|90:226|93:128,1,210.000008010865,6|2,1:2|2:2,0:0:0:0:
9,9,203564,1,0,0:0:0:0:
2,17,203671,2,0,P|36:58|74:45,1,83.9999974365235,10|0,1:2|0:0,0:0:0:0:
190,162,203885,5,2,2:2:0:0:
210,162,203992,1,8,2:2:0:0:
226,149,204099,1,2,1:2:0:0:
314,149,204207,5,2,2:3:0:0:
304,167,204314,1,10,2:2:0:0:
308,187,204421,1,8,2:2:0:0:
263,264,204528,5,2,1:2:0:0:
253,246,204635,2,0,L|268:156,1,70,8|10,2:2|2:3,0:0:0:0:
225,113,204849,1,4,2:3:0:0:
264,176,204957,6,0,P|381:160|361:49,1,210.000008010865,6|8,1:1|2:2,0:0:0:0:
345,0,205278,2,0,P|315:16|328:70,1,83.9999974365235,6|0,1:2|0:0,0:0:0:0:
447,133,205492,5,8,2:2:0:0:
502,82,205599,2,0,P|480:187|472:295,1,210.000008010865,6|8,1:2|2:3,0:0:0:0:
464,296,205867,1,8,2:3:0:0:
456,304,205921,1,8,2:3:0:0:
410,362,206028,5,6,2:3:0:0:
368,323,206135,1,6,2:3:0:0:
385,281,206242,2,0,L|369:188,1,83.9999974365235,10|0,2:2|0:0,0:0:0:0:
263,264,206457,2,0,L|279:357,1,83.9999974365235,8|8,2:2|2:2,0:0:0:0:
37,334,206671,6,0,P|41:235|134:199,1,210.000008010865,6|2,1:1|2:2,0:0:0:0:
143,38,206992,1,2,2:2:0:0:
209,66,207099,2,0,P|204:99|172:103,1,70,10|0,1:2|0:0,0:0:0:0:
68,171,207314,2,0,P|73:138|105:134,1,70,2|0,2:2|0:0,0:0:0:0:
256,192,207528,5,2,1:2:0:0:
256,192,207582,1,2,2:2:0:0:
256,192,207635,1,10,2:2:0:0:
303,129,207742,2,0,L|291:35,1,83.9999974365235,2|0,2:2|0:0,0:0:0:0:
466,220,207957,2,0,L|456:304,1,83.9999974365235,10|0,1:2|0:0,0:0:0:0:
410,362,208171,1,2,2:2:0:0:
410,362,208225,1,2,2:2:0:0:
410,362,208278,1,2,2:2:0:0:
250,384,208385,6,0,B|216:327|244:286|251:287|256:288|294:230|256:189,1,210.000008010865,2|2,1:2|2:2,0:0:0:0:
303,129,208707,1,0,0:0:0:0:
205,33,208814,5,10,1:2:0:0:
206,45,208921,1,2,2:2:0:0:
208,56,209028,1,2,2:2:0:0:
209,66,209135,1,0,0:0:0:0:
167,122,209242,2,0,P|100:78|134:0,1,167.999994873047,2|2,1:2|2:2,0:0:0:0:
346,64,209564,5,2,2:2:0:0:
346,64,209617,1,2,0:0:0:0:
346,64,209671,2,0,P|312:88|310:150,1,83.9999974365235,10|0,1:2|0:0,0:0:0:0:
277,221,209885,2,0,P|272:200|255:188,1,41.9999987182618,2|8,2:2|2:2,0:0:0:0:
302,128,210099,6,0,L|92:159,1,210.000008010865,2|2,1:2|2:2,0:0:0:0:
0,55,210421,1,2,2:2:0:0:
0,55,210475,1,2,0:0:0:0:
0,55,210528,2,0,P|28:98|63:91,1,83.9999974365235,10|0,1:2|0:0,0:0:0:0:
111,230,210742,2,0,P|159:212|160:176,1,83.9999974365235,2|8,2:2|2:2,0:0:0:0:
0,218,210957,5,2,1:2:0:0:
0,218,211010,1,2,2:2:0:0:
0,218,211064,1,2,2:2:0:0:
49,277,211171,2,0,L|65:368,1,83.9999974365235,2|0,2:2|0:0,0:0:0:0:
272,253,211385,6,0,P|241:180|162:183,1,167.999994873047,10|2,1:2|2:2,0:0:0:0:
94,158,211707,1,2,2:2:0:0:
298,184,211814,6,0,P|387:147|368:51,1,210.000008010865,2|2,1:2|2:2,0:0:0:0:
303,14,212135,1,2,2:2:0:0:
228,148,212242,1,10,1:2:0:0:
228,148,212296,1,2,2:2:0:0:
228,148,212349,1,2,2:2:0:0:
162,182,212457,2,0,L|184:295,1,83.9999974365235,2|0,2:2|0:0,0:0:0:0:
264,384,212671,5,2,1:2:0:0:
261,361,212778,1,8,2:2:0:0:
272,339,212885,1,2,2:2:0:0:
293,325,212992,1,2,2:2:0:0:
298,184,213099,5,14,1:2:0:0:
283,240,213207,1,0,0:0:0:0:
235,271,213314,1,10,2:2:0:0:
178,264,213421,1,8,2:2:0:0:
156,339,213528,6,0,L|123:120,1,210.000008010865,6|2,1:1|2:2,0:0:0:0:
280,21,213849,1,2,2:2:0:0:
222,71,213957,2,0,P|200:111|216:165,1,83.9999974365235,10|0,1:2|0:0,0:0:0:0:
7,108,214171,2,0,P|40:133|51:173,1,83.9999974365235,2|0,2:2|0:0,0:0:0:0:
15,305,214385,5,2,1:2:0:0:
15,305,214439,1,2,2:2:0:0:
15,305,214492,1,10,2:2:0:0:
73,355,214599,2,0,L|180:334,1,83.9999974365235,2|0,2:2|0:0,0:0:0:0:
295,376,214814,6,0,L|509:334,1,210.000008010865,10|2,1:2|2:2,0:0:0:0:
439,384,215135,5,2,2:2:0:0:
392,320,215242,2,0,P|392:292|414:257,1,56,2|8,1:2|2:2,0:0:0:0:
437,197,215457,2,0,L|535:177,1,70,2|0,2:2|0:0,0:0:0:0:
374,146,215671,2,0,P|350:112|348:71,1,83.9999974365235,10|2,1:2|2:2,0:0:0:0:
397,8,215885,1,2,2:2:0:0:
340,218,216099,6,0,L|271:231,1,70,2|0,1:2|0:0,0:0:0:0:
249,353,216314,1,2,2:2:0:0:
249,353,216421,1,2,2:2:0:0:
249,353,216528,2,0,P|272:318|310:302,1,83.9999974365235,10|0,1:2|0:0,0:0:0:0:
278,149,216742,2,0,P|237:140|208:110,1,83.9999974365235,2|8,2:2|2:2,0:0:0:0:
31,0,216957,6,0,B|5:4|5:4|37:170,1,195.999994018555,6|2,1:2|2:2,0:0:0:0:
10,246,217278,1,2,2:2:0:0:
10,246,217332,1,2,0:0:0:0:
10,246,217385,2,0,B|29:253|29:253|84:241|84:241|96:223,1,97.9999970092774,10|0,1:2|0:0,0:0:0:0:
44,71,217599,2,0,B|30:91|30:91|46:174,1,97.9999970092774,2|0,2:2|0:0,0:0:0:0:
156,270,217814,5,2,1:2:0:0:
159,282,217868,5,2,2:2:0:0:
162,294,217922,5,10,2:2:0:0:
165,306,217975,5,2,0:0:0:0:
167,318,218029,5,2,2:2:0:0:
236,353,218135,1,2,0:0:0:0:
111,374,218242,6,0,B|115:364|115:364|316:319|316:319,1,210.000008010865,10|10,1:2|2:2,0:0:0:0:
380,354,218564,1,10,2:2:0:0:
417,200,218671,2,0,L|520:176,1,77.0000023498536,6|0,1:1|0:0,0:0:0:0:
314,66,218885,5,10,2:2:0:0:
324,64,218992,1,8,2:2:0:0:
312,27,219100,5,10,1:2:0:0:
328,102,219207,1,10,2:2:0:0:
342,179,219314,1,10,2:3:0:0:
358,256,219421,1,8,2:2:0:0:
346,259,219528,5,10,1:2:0:0:
354,176,219635,1,8,2:3:0:0:
316,105,219742,1,10,2:3:0:0:
324,24,219849,1,10,2:2:0:0:
449,117,219957,5,10,1:2:0:0:
374,133,220064,1,4,2:3:0:0:
297,147,220171,1,10,2:2:0:0:
220,163,220278,1,10,2:2:0:0:
143,63,220385,6,0,B|52:24|52:24|88:159,1,210.000008010865,6|2,1:1|2:2,0:0:0:0:
11,329,220707,1,0,0:0:0:0:
56,267,220814,2,0,P|57:225|36:190,1,83.9999974365235,14|0,1:2|0:0,0:0:0:0:
52,63,221028,5,2,2:2:0:0:
50,53,221135,1,0,0:0:0:0:
13,65,221243,5,2,1:2:0:0:
88,49,221350,1,10,2:2:0:0:
165,35,221457,1,2,2:2:0:0:
242,19,221564,1,2,2:2:0:0:
305,66,221671,6,0,B|315:73|315:73|465:42,1,157.500006008148,8|0,1:2|0:0,0:0:0:0:
381,31,221885,1,2,2:2:0:0:
381,31,221992,1,0,0:0:0:0:
381,31,222099,2,0,B|368:94|420:121|427:117|433:113|492:139|474:197,1,210.000008010865,0|2,1:1|2:2,0:0:0:0:
25,384,222528,5,10,1:2:0:0:
101,365,222635,1,0,0:0:0:0:
83,289,222742,1,2,2:2:0:0:
6,305,222849,1,0,0:0:0:0:
161,305,222957,6,0,B|163:317|163:317|253:298,1,105.000004005432,2|2,1:2|2:2,0:0:0:0:
53,336,223171,1,2,2:2:0:0:
53,336,223278,1,2,2:2:0:0:
29,228,223385,2,0,B|41:225|41:225|22:135,1,105.000004005432,8|0,1:2|0:0,0:0:0:0:
172,195,223599,5,2,2:2:0:0:
172,195,223707,1,10,2:2:0:0:
172,195,223814,2,0,B|159:198|159:198|140:109,1,105.000004005432,6|0,1:1|0:0,0:0:0:0:
56,7,224028,1,2,2:3:0:0:
56,7,224135,1,2,2:2:0:0:
56,7,224242,2,0,B|73:84|70:72,1,70,8|0,1:2|0:0,0:0:0:0:
285,282,224457,5,2,2:2:0:0:
288,293,224564,1,2,2:2:0:0:
305,368,224671,1,2,1:2:0:0:
234,346,224778,2,0,B|243:351|243:351|466:301,1,210.000008010865,8|10,2:3|2:3,0:0:0:0:
512,322,225099,6,0,B|530:260|473:232|466:236|460:240|401:214|422:150,1,210.000008010865,8|10,1:2|2:2,0:0:0:0:
505,5,225421,1,4,2:3:0:0:
488,80,225528,2,0,B|474:89|474:89|436:319,1,238.00000453949,6|0,1:1|0:0,0:0:0:0:
333,166,225849,1,2,1:2:0:0:
333,166,225957,2,0,B|341:172|341:172|453:147,1,90.9999958343508,8|0,2:2|0:0,0:0:0:0:
499,195,226171,6,0,B|427:214|398:151|403:143|407:136|378:71|307:94,1,238.00000453949,6|0,1:2|0:0,0:0:0:0:
150,47,226492,1,8,2:3:0:0:
172,118,226599,2,0,B|166:126|166:126|191:238,1,90.9999958343508,2|0,1:2|0:0,0:0:0:0:
298,237,226814,2,0,P|266:209|254:170,1,83.9999974365235,10|0,1:2|0:0,0:0:0:0:
91,280,227028,2,0,P|109:242|103:201,1,83.9999974365235,10|8,2:2|2:2,0:0:0:0:
4,0,227242,6,0,B|-15:104|-15:104|96:132,1,210.000008010865,6|2,1:1|2:2,0:0:0:0:
40,334,227564,1,0,0:0:0:0:
110,353,227671,2,0,P|115:312|90:279,1,83.9999974365235,14|0,1:2|0:0,0:0:0:0:
172,118,227885,5,2,2:2:0:0:
169,130,227992,1,0,0:0:0:0:
196,172,228099,5,2,1:2:0:0:
263,145,228207,1,10,2:2:0:0:
282,74,228314,1,2,2:2:0:0:
231,21,228421,1,2,2:2:0:0:
304,48,228528,6,0,B|309:51|309:51|464:31,1,157.500006008148,10|0,1:2|0:0,0:0:0:0:
386,0,228742,1,2,2:2:0:0:
386,0,228849,1,0,0:0:0:0:
386,0,228957,2,0,B|354:68|412:102|416:99|421:97|477:122|459:176,1,210.000008010865,0|2,1:1|2:2,0:0:0:0:
211,360,229385,5,10,1:2:0:0:
232,289,229492,1,0,0:0:0:0:
302,311,229599,1,2,2:2:0:0:
281,381,229707,1,0,0:0:0:0:
156,304,229814,6,0,B|152:301|152:301|51:320,1,83.9999974365235,2|2,1:2|2:2,0:0:0:0:
256,334,230028,1,2,2:2:0:0:
256,334,230135,1,2,2:2:0:0:
368,280,230242,2,0,B|365:276|365:276|384:175,1,83.9999974365235,8|0,1:2|0:0,0:0:0:0:
276,0,230457,6,0,L|334:16,2,37.3333333333333,2|2|2,2:2|2:2|2:2,0:0:0:0:
276,0,230671,2,0,P|177:54|203:149,1,210.000008010865,6|2,1:2|2:2,0:0:0:0:
166,209,230992,1,2,2:2:0:0:
256,82,231099,5,10,1:2:0:0:
264,80,231206,1,2,2:2:0:0:
273,78,231313,1,2,2:2:0:0:
281,76,231420,1,10,2:2:0:0:
357,23,231528,2,0,P|362:71|345:92,1,70,2|2,1:2|2:3,0:0:0:0:
166,209,231742,2,0,P|191:231|201:272,1,70,0|10,0:0|2:2,0:0:0:0:
302,311,231957,5,8,1:2:0:0:
299,324,232064,1,8,2:2:0:0:
297,338,232171,1,10,2:3:0:0:
295,352,232278,1,4,2:3:0:0:
471,368,232385,6,0,P|473:304|334:269,1,210.000008010865,6|10,1:1|2:2,0:0:0:0:
27,147,232707,2,0,P|79:217|165:208,1,181.999991668702,6|10,1:2|2:2,0:0:0:0:
195,139,233028,2,0,L|192:121,1,14,6|0,1:2|1:1,0:0:0:0:
255,185,233349,5,0,0:0:0:0:
255,185,233457,2,0,P|262:204|260:225,1,41.9999987182618,10|0,2:2|0:0,0:0:0:0:
290,82,233671,2,0,P|283:64|284:46,1,35,10|0,2:2|0:0,0:0:0:0:
211,0,233885,2,0,P|215:12|214:24,1,26.25,2|0,2:2|0:0,0:0:0:0:
283,48,234099,6,0,L|316:33,2,28,6|2|2,1:1|2:3|2:3,0:0:0:0:
283,48,234314,2,0,L|68:26,1,210,2|0,2:3|0:0,0:0:0:0:
0,84,234528,2,0,L|157:67,1,157.500006008148,2|0,2:2|0:0,0:0:0:0:
156,67,234742,2,0,L|141:140,1,56,2|0,2:2|0:0,0:0:0:0:
204,181,234957,6,0,L|419:159,1,210,10|0,2:2|0:0,0:0:0:0:
488,199,235171,2,0,L|332:183,1,157.500006008148,2|0,2:3|0:0,0:0:0:0:
332,183,235385,6,0,L|346:256,2,52.5000020027161,2|2|2,2:3|2:3|2:3,0:0:0:0:
341,234,235599,2,0,B|315:229|315:229|256:21|256:21|238:15,1,262.5,2|0,1:2|0:0,0:0:0:0:
317,56,235814,2,0,B|312:58|312:58|275:188|275:188|259:192,1,157.500006008148,2|0,2:3|0:0,0:0:0:0:
185,351,236028,2,0,B|188:349|188:349|213:261|213:261|224:258,1,105,2|0,2:2|0:0,0:0:0:0:
222,259,236242,2,0,L|166:264,1,56,2|0,2:2|0:0,0:0:0:0:
104,227,236457,6,0,L|76:229,3,28,2|0|0|0,2:2|0:0|0:0|0:0,0:0:0:0:
106,220,236671,2,0,L|-38:232,1,105.000004005432,10|0,2:2|0:0,0:0:0:0:
162,158,236885,5,2,2:3:0:0:
176,156,236992,1,2,2:2:0:0:
240,96,237099,6,0,L|242:122,4,26.2500010013581,2|2|2|0|0,2:2|2:3|2:3|0:0|0:0,0:0:0:0:
120,89,237314,6,0,L|117:63,4,26.2500010013581,2|2|2|0|0,2:2|2:3|2:3|0:0|0:0,0:0:0:0:
237,17,237528,5,2,1:2:0:0:
237,17,237635,1,2,2:3:0:0:
237,17,237742,2,0,L|453:35,1,210,2|0,2:3|0:0,0:0:0:0:
512,71,237957,2,0,L|340:85,1,157.500006008148,2|0,2:2|0:0,0:0:0:0:
355,84,238171,2,0,L|370:157,1,56,2|0,2:2|0:0,0:0:0:0:
430,182,238385,6,0,B|424:184|424:184|384:406,1,210,10|0,2:2|0:0,0:0:0:0:
321,354,238599,2,0,B|331:302|331:302|471:328,1,157.500006008148,2|0,2:3|0:0,0:0:0:0:
374,279,238814,6,0,L|299:265,1,70.0000026702882,6|0,2:3|0:0,0:0:0:0:
284,197,238957,6,0,L|228:187,1,55.9999982910157,4|2,2:3|2:2,0:0:0:0:
206,117,239099,6,0,L|170:110,1,37.3333333333333,4|0,2:3|0:0,0:0:0:0:
237,17,239242,6,0,L|218:13,4,14,2|0|2|0|2,1:2|0:0|2:3|0:0|2:3,0:0:0:0:
274,82,239457,1,10,2:2:0:0:
206,117,239564,2,0,L|-12:78,1,209.999993591309,2|0,2:2|0:0,0:0:0:0:
228,187,239885,6,0,L|254:191,6,20.9999993591309,2|0|2|0|2|0|2,2:2|0:0|2:3|0:0|2:3|0:0|2:3,0:0:0:0:
163,215,240099,2,0,L|142:330,2,105,10|2|2,2:2|2:2|2:2,0:0:0:0:
266,211,240957,6,0,L|260:242,2,28,2|2|2,1:2|2:3|2:3,0:0:0:0:
266,211,241171,6,0,L|59:247,1,210,2|0,2:3|0:0,0:0:0:0:
7,188,241385,2,0,L|168:216,1,157.500006008148,2|0,2:2|0:0,0:0:0:0:
162,215,241599,2,0,L|149:144,1,56,2|0,2:3|0:0,0:0:0:0:
249,128,241814,6,0,L|456:164,1,210,10|0,2:2|0:0,0:0:0:0:
511,99,242028,2,0,L|355:125,1,157.500006008148,2|0,2:3|0:0,0:0:0:0:
356,126,242242,2,0,L|369:55,2,52.5000020027161,2|2|2,2:2|2:3|2:3,0:0:0:0:
365,74,242457,6,0,B|339:79|339:79|280:287|280:287|262:293,1,262.5,2|0,1:2|0:0,0:0:0:0:
341,252,242672,2,0,B|336:250|336:250|299:120|299:120|283:116,1,157.500006008148,2|0,2:3|0:0,0:0:0:0:
177,0,242885,2,0,B|180:1|180:1|206:91|206:91|213:93,1,105,2|0,2:3|0:0,0:0:0:0:
213,93,243099,2,0,L|135:79,1,56,2|0,2:2|0:0,0:0:0:0:
118,142,243314,6,0,L|78:134,3,28,2|0|0|0,2:3|0:0|0:0|0:0,0:0:0:0:
121,151,243528,2,0,L|-11:127,1,105.000004005432,10|0,2:2|0:0,0:0:0:0:
157,218,243742,5,2,2:3:0:0:
165,221,243849,1,2,2:3:0:0:
233,189,243957,6,0,L|239:156,4,26.2500010013581,2|2|2|0|0,2:2|2:3|2:3|0:0|0:0,0:0:0:0:
261,293,244171,6,0,L|254:326,4,26.2500010013581,2|2|2|0|0,2:2|2:3|2:3|0:0|0:0,0:0:0:0:
210,384,244385,5,2,1:2:0:0:
210,384,244492,1,2,2:3:0:0:
210,384,244599,2,0,L|440:347,1,210,2|0,2:3|0:0,0:0:0:0:
500,328,244814,2,0,L|336:301,1,157.500006008148,2|0,2:2|0:0,0:0:0:0:
344,302,245028,2,0,L|352:246,1,56,2|0,2:3|0:0,0:0:0:0:
298,191,245242,6,0,L|90:157,1,210,10|0,2:2|0:0,0:0:0:0:
26,124,245457,2,0,L|191:97,1,157.500006008148,2|0,2:3|0:0,0:0:0:0:
181,98,245671,2,0,L|171:33,1,56,2|2,2:2|2:2,0:0:0:0:
172,42,246099,6,0,L|158:44,4,14,2|0|2|0|2,1:2|0:0|2:3|0:0|2:3,0:0:0:0:
234,0,246314,2,0,L|442:34,1,178.500003404617,10|0,2:2|0:0,0:0:0:0:
480,70,246528,2,0,L|324:95,1,125.999996154785,2|0,2:3|0:0,0:0:0:0:
356,90,246742,6,0,L|352:116,7,20.9999993591309,2|0|2|0|2|0|2|0,1:2|0:0|2:3|0:0|2:3|0:0|2:3|0:0,0:0:0:0:
356,90,246957,2,0,P|310:123|326:215,1,146.999995513916,10|0,2:2|0:0,0:0:0:0:
294,329,247171,2,0,P|289:288|225:264,1,94.499997116089,2|0,2:3|0:0,0:0:0:0:
171,219,247385,6,0,L|193:215,4,15.7499995193482,2|0|0|0|0,1:2|0:0|0:0|0:0|0:0,0:0:0:0:
171,219,247599,2,0,L|134:227,1,28,10|2,2:2|2:3,0:0:0:0:
