osu file format v14

[General]
AudioFilename: audio.mp3
AudioLeadIn: 0
PreviewTime: 57558
Countdown: 0
SampleSet: Soft
StackLeniency: 0.7
Mode: 0
LetterboxInBreaks: 0
WidescreenStoryboard: 1

[Editor]
Bookmarks: 903,20362,33335,46308,59281,72254,85227,86848,99821,112794,125767,138740,151713,164686,171173,185767,198740,211713,224281
DistanceSpacing: 1.1
BeatDivisor: 4
GridSize: 32
TimelineZoom: 1.8

[Metadata]
Title:Flowering
TitleUnicode:너로피어오라
Artist:Dareharu
ArtistUnicode:달의하루
Creator:Kloyd
Version:Normal
Source:
Tags:ampstyle 초희 chohee korean pop rock electronic moph oriental kaguya_sama gazimal kloster
BeatmapID:3206470
BeatmapSetID:1480954

[Difficulty]
HPDrainRate:4
CircleSize:3.7
OverallDifficulty:4
ApproachRate:5
SliderMultiplier:1.2
SliderTickRate:1

[Events]
//Background and Video events
0,0,"maxresdefault_waifu2x_art_noise1_scale_tta_1.jpg",0,0
//Break Periods
2,170865,180817
//Storyboard Layer 0 (Background)
//Storyboard Layer 1 (Fail)
//Storyboard Layer 2 (Pass)
//Storyboard Layer 3 (Foreground)
//Storyboard Layer 4 (Overlay)
//Storyboard Sound Samples

[TimingPoints]
396,405.405405405405,4,2,1,60,1,0
396,-125,4,2,1,60,0,0
6071,-125,4,2,1,75,0,0
6882,-125,4,2,2,80,0,0
7085,-125,4,2,1,80,0,0
8301,-125,4,2,3,80,0,0
8402,-125,4,2,1,80,0,0
9720,-125,4,2,4,80,0,0
9923,-125,4,2,3,80,0,0
10125,-125,4,2,5,80,0,0
10328,-125,4,2,1,80,0,0
11544,-125,4,2,3,80,0,0
11645,-125,4,2,1,80,0,0
12963,-125,4,2,3,80,0,0
13368,-125,4,2,2,80,0,0
13571,-125,4,2,1,80,0,0
14787,-125,4,2,3,80,0,0
14889,-125,4,2,1,80,0,0
16206,-125,4,2,4,80,0,0
16409,-125,4,2,3,80,0,0
16612,-125,4,2,5,80,0,0
16814,-125,4,2,1,80,0,0
18031,-125,4,2,3,80,0,0
18132,-125,4,2,1,80,0,0
18943,-125,4,2,2,80,0,0
19247,-125,4,2,1,80,0,0
19348,-125,4,2,3,80,0,0
19450,-125,4,2,4,80,0,0
19652,-125,4,2,5,80,0,0
19754,-125,4,2,3,80,0,0
19855,-125,4,2,6,50,0,0
20058,-125,4,2,1,50,0,0
22287,-125,4,2,7,50,0,0
22693,-125,4,2,1,50,0,0
23098,-125,4,2,7,50,0,0
23200,-125,4,2,1,50,0,0
25936,-125,4,2,7,50,0,0
25987,-125,4,2,1,50,0,0
26341,-125,4,2,7,50,0,0
26544,-125,4,2,1,50,0,0
30801,-125,4,2,6,50,0,0
31206,-125,4,2,7,50,0,0
31257,-125,4,2,1,50,0,0
31510,-125,4,2,7,50,0,0
31561,-125,4,2,1,50,0,0
31612,-125,4,2,7,50,0,0
31865,-125,4,2,1,50,0,0
32118,-125,4,2,4,50,0,0
32321,-125,4,2,2,50,0,0
32524,-125,4,2,4,50,0,0
32625,-125,4,2,8,50,0,0
32828,-125,4,2,9,55,0,0
33233,-125,4,2,4,55,0,0
33639,-125,4,2,7,55,0,0
34044,-125,4,2,4,55,0,0
34247,-125,4,2,7,55,0,0
34450,-125,4,2,4,55,0,0
34551,-125,4,2,1,55,0,0
34855,-125,4,2,4,55,0,0
35260,-125,4,2,7,55,0,0
35564,-125,4,2,1,55,0,0
35666,-125,4,2,4,55,0,0
35868,-125,4,2,1,55,0,0
36477,-125,4,2,4,55,0,0
36882,-125,4,2,7,55,0,0
37287,-125,4,2,4,55,0,0
37490,-125,4,2,7,55,0,0
37693,-125,4,2,1,55,0,0
37997,-125,4,2,7,55,0,0
38098,-125,4,2,4,55,0,0
38301,-125,4,2,7,55,0,0
38808,-125,4,2,1,55,0,0
38909,-125,4,2,4,55,0,0
39112,-125,4,2,1,55,0,0
39314,-125,4,2,10,55,0,0
39720,-125,4,2,4,55,0,0
40531,-125,4,2,1,55,0,0
40733,-125,4,2,4,55,0,0
40936,-125,4,2,7,55,0,0
41037,-125,4,2,4,55,0,0
41240,-125,4,2,7,55,0,0
41341,-125,4,2,4,55,0,0
41544,-125,4,2,7,55,0,0
41645,-125,4,2,1,55,0,0
41747,-125,4,2,4,55,0,0
42051,-125,4,2,7,55,0,0
42152,-125,4,2,4,55,0,0
42558,-125,4,2,7,55,0,0
42963,-125,4,2,4,55,0,0
43774,-125,4,2,1,55,0,0
44179,-125,4,2,11,55,0,0
44483,-125,4,2,4,55,0,0
44990,-125,4,2,7,55,0,0
45041,-125,4,2,1,55,0,0
45193,-125,4,2,5,55,0,0
45294,-125,4,2,6,55,0,0
45395,-125,4,2,4,55,0,0
45700,-125,4,2,7,55,0,0
45801,-125,4,2,6,60,0,0
46004,-125,4,2,1,60,0,0
46206,-125,4,2,7,60,0,0
46460,-125,4,2,1,60,0,0
46612,-125,4,2,4,60,0,0
46814,-125,4,2,7,60,0,0
46916,-125,4,2,1,60,0,0
47220,-125,4,2,7,60,0,0
48132,-125,4,2,1,60,0,0
48233,-125,4,2,4,60,0,0
48436,-125,4,2,1,60,0,0
48639,-125,4,2,7,60,0,0
48841,-125,4,2,1,60,0,0
49652,-125,4,2,7,60,0,0
49703,-125,4,2,1,60,0,0
49855,-125,4,2,4,60,0,0
50058,-125,4,2,7,60,0,0
50159,-125,4,2,1,60,0,0
50463,-125,4,2,7,60,0,0
50716,-125,4,2,1,60,0,0
50868,-125,4,2,7,60,0,0
50919,-125,4,2,1,60,0,0
51071,-125,4,2,7,60,0,0
51173,-125,4,2,1,60,0,0
51274,-125,4,2,7,60,0,0
51375,-125,4,2,1,60,0,0
51477,-125,4,2,4,60,0,0
51679,-125,4,2,7,60,0,0
52287,-125,4,2,1,60,0,0
53098,-125,4,2,4,60,0,0
53301,-125,4,2,7,60,0,0
53402,-125,4,2,1,60,0,0
53706,-125,4,2,7,60,0,0
54112,-125,4,2,4,60,0,0
54314,-125,4,2,7,60,0,0
54568,-125,4,2,1,60,0,0
54720,-125,4,2,4,60,0,0
54923,-125,4,2,1,60,0,0
55125,-125,4,2,7,60,0,0
55328,-125,4,2,4,60,0,0
55531,-125,4,2,1,60,0,0
56341,-125,4,2,4,60,0,0
56544,-125,4,2,7,60,0,0
56645,-125,4,2,1,60,0,0
56747,-125,4,2,1,50,0,0
56848,-125,4,2,1,63,0,0
56950,-125,4,2,7,63,0,0
57051,-125,4,2,1,76,0,0
57152,-125,4,2,1,89,0,0
57558,-125,4,2,1,40,0,0
58774,-125,4,2,2,80,0,0
58977,-125,4,2,3,80,0,0
59179,-125,4,2,1,80,0,0
59382,-125,4,2,3,80,0,0
59990,-125,4,2,1,80,0,0
60193,-125,4,2,3,80,0,0
60395,-125,4,2,1,80,0,0
60598,-125,4,2,3,80,0,0
60801,-125,4,2,1,80,0,0
61004,-125,4,2,3,80,0,0
61612,-125,4,2,1,80,0,0
61814,-125,4,2,3,80,0,0
62017,-125,4,2,1,80,0,0
62220,-125,4,2,3,80,0,0
62321,-125,4,2,1,80,0,0
62625,-125,4,2,3,80,0,0
62828,-125,4,2,1,80,0,0
63031,-125,4,2,3,80,0,0
63132,-125,4,2,1,80,0,0
63436,-125,4,2,3,80,0,0
63639,-125,4,2,1,80,0,0
63841,-125,4,2,3,80,0,0
63943,-125,4,2,11,80,0,0
64551,-125,4,2,1,80,0,0
64855,-125,4,2,3,80,0,0
65260,-125,4,2,2,80,0,0
65463,-125,4,2,3,80,0,0
65666,-125,4,2,1,80,0,0
65868,-125,4,2,3,80,0,0
66477,-125,4,2,1,80,0,0
66679,-125,4,2,3,80,0,0
66882,-125,4,2,1,80,0,0
67085,-125,4,2,3,80,0,0
67287,-125,4,2,1,80,0,0
67490,-125,4,2,3,80,0,0
68098,-125,4,2,1,80,0,0
68301,-125,4,2,3,80,0,0
68504,-125,4,2,5,80,0,0
68706,-125,4,2,3,80,0,0
68808,-125,4,2,1,80,0,0
69112,-125,4,2,3,80,0,0
69314,-125,4,2,1,80,0,0
69517,-125,4,2,3,80,0,0
69618,-125,4,2,1,80,0,0
69923,-125,4,2,3,80,0,0
70125,-125,4,2,5,80,0,0
70328,-125,4,2,3,80,0,0
70429,-125,4,2,4,80,0,0
70733,-125,4,2,3,80,0,0
70936,-125,4,2,4,80,0,0
71139,-125,4,2,1,80,0,0
71341,-125,4,2,3,80,0,0
71544,-125,4,2,1,80,0,0
71747,-125,4,2,5,80,0,0
71950,-125,4,2,1,80,0,0
72355,-125,4,2,3,80,0,0
72659,-125,4,2,1,80,0,0
72963,-125,4,2,4,80,0,0
73166,-125,4,2,1,80,0,0
73368,-125,4,2,5,80,0,0
73571,-125,4,2,1,80,0,0
73977,-125,4,2,3,80,0,0
74281,-125,4,2,1,80,0,0
74990,-125,4,2,5,80,0,0
75193,-125,4,2,1,80,0,0
75598,-125,4,2,3,80,0,0
76206,-125,4,2,4,80,0,0
76409,-125,4,2,3,80,0,0
76612,-125,4,2,5,80,0,0
76814,-125,4,2,1,80,0,0
77828,-125,4,2,9,80,0,0
77929,-125,4,2,2,80,0,0
78031,-125,4,2,3,80,0,0
78233,-125,4,2,5,80,0,0
78436,-125,4,2,1,80,0,0
78841,-125,4,2,3,80,0,0
79145,-125,4,2,1,80,0,0
79450,-125,4,2,4,80,0,0
79652,-125,4,2,1,80,0,0
79855,-125,4,2,5,80,0,0
80058,-125,4,2,1,80,0,0
80463,-125,4,2,3,80,0,0
80767,-125,4,2,1,80,0,0
81477,-125,4,2,5,80,0,0
81679,-125,4,2,1,80,0,0
82085,-125,4,2,3,80,0,0
82693,-125,4,2,4,80,0,0
82895,-125,4,2,3,80,0,0
83098,-125,4,2,5,80,0,0
83301,-125,4,2,1,80,0,0
83706,-125,4,2,11,80,0,0
84010,-125,4,2,1,80,0,0
84314,-125,4,2,9,80,0,0
84720,-125,4,2,3,65,0,0
86139,-125,4,2,2,65,0,0
86240,-125,4,2,2,75,0,0
86341,-125,4,2,3,50,0,0
86950,-125,4,2,1,50,0,0
92017,-125,4,2,7,50,0,0
92220,-125,4,2,3,50,0,0
92321,-125,4,2,1,50,0,0
92625,-125,4,2,7,50,0,0
92727,-125,4,2,2,50,0,0
97693,-125,4,2,7,50,0,0
97743,-125,4,2,1,50,0,0
97997,-125,4,2,7,50,0,0
98048,-125,4,2,1,50,0,0
98098,-125,4,2,7,50,0,0
98352,-125,4,2,1,50,0,0
98605,-125,4,2,4,50,0,0
98808,-125,4,2,2,50,0,0
99010,-125,4,2,4,50,0,0
99112,-125,4,2,8,50,0,0
99314,-125,4,2,9,55,0,0
99720,-125,4,2,4,55,0,0
100125,-125,4,2,7,55,0,0
100328,-125,4,2,1,55,0,0
100429,-125,4,2,7,55,0,0
100531,-125,4,2,4,55,0,0
100733,-125,4,2,7,55,0,0
101037,-125,4,2,1,55,0,0
101341,-125,4,2,4,55,0,0
101747,-125,4,2,7,55,0,0
101950,-125,4,2,1,55,0,0
102152,-125,4,2,4,55,0,0
102558,-125,4,2,7,55,0,0
102760,-125,4,2,4,55,0,0
103368,-125,4,2,7,55,0,0
103571,-125,4,2,1,55,0,0
103673,-125,4,2,7,55,0,0
103774,-125,4,2,4,55,0,0
104179,-125,4,2,7,55,0,0
104382,-125,4,2,1,55,0,0
104585,-125,4,2,4,55,0,0
104787,-125,4,2,1,55,0,0
104990,-125,4,2,7,55,0,0
105395,-125,4,2,4,55,0,0
105598,-125,4,2,7,55,0,0
105801,-125,4,2,3,55,0,0
106206,-125,4,2,4,55,0,0
107017,-125,4,2,1,55,0,0
107220,-125,4,2,4,55,0,0
107423,-125,4,2,7,55,0,0
107524,-125,4,2,4,55,0,0
108031,-125,4,2,7,55,0,0
108132,-125,4,2,1,55,0,0
108233,-125,4,2,4,55,0,0
108537,-125,4,2,7,55,0,0
108639,-125,4,2,4,55,0,0
110159,-125,4,2,7,55,0,0
110260,-125,4,2,4,55,0,0
110666,-125,4,2,11,55,0,0
110970,-125,4,2,4,55,0,0
111477,-125,4,2,7,55,0,0
111527,-125,4,2,1,55,0,0
111679,-125,4,2,5,55,0,0
111781,-125,4,2,6,55,0,0
111882,-125,4,2,4,55,0,0
112186,-125,4,2,7,55,0,0
112287,-125,4,2,12,55,0,0
112490,-125,4,2,1,55,0,0
113098,-125,4,2,4,55,0,0
113301,-125,4,2,7,55,0,0
113504,-125,4,2,1,55,0,0
113909,-125,4,2,7,55,0,0
114112,-125,4,2,1,55,0,0
114720,-125,4,2,4,55,0,0
114923,-125,4,2,7,55,0,0
115024,-125,4,2,1,55,0,0
115328,-125,4,2,7,55,0,0
115733,-125,4,2,1,55,0,0
116341,-125,4,2,4,55,0,0
116544,-125,4,2,1,55,0,0
117152,-125,4,2,7,55,0,0
117355,-125,4,2,1,55,0,0
117456,-125,4,2,7,55,0,0
117507,-125,4,2,1,55,0,0
117963,-125,4,2,4,55,0,0
118166,-125,4,2,7,55,0,0
118267,-125,4,2,1,55,0,0
118571,-125,4,2,7,55,0,0
118622,-125,4,2,1,55,0,0
118774,-125,4,2,7,55,0,0
119179,-125,4,2,1,55,0,0
119585,-125,4,2,4,55,0,0
119787,-125,4,2,7,55,0,0
119990,-125,4,2,1,55,0,0
120395,-125,4,2,7,55,0,0
120598,-125,4,2,4,55,0,0
120801,-125,4,2,1,55,0,0
121206,-125,4,2,4,55,0,0
121409,-125,4,2,7,55,0,0
121510,-125,4,2,1,55,0,0
121814,-125,4,2,4,55,0,0
122017,-125,4,2,7,55,0,0
122068,-125,4,2,1,55,0,0
122423,-125,4,2,7,55,0,0
122676,-125,4,2,1,55,0,0
122828,-125,4,2,4,55,0,0
123031,-125,4,2,1,55,0,0
123233,-125,4,2,7,50,0,0
123335,-125,4,2,7,63,0,0
123436,-125,4,2,7,76,0,0
123537,-125,4,2,1,89,0,0
124044,-125,4,2,1,40,0,0
125260,-125,4,2,2,80,0,0
125463,-125,4,2,3,80,0,0
125666,-125,4,2,1,80,0,0
125868,-125,4,2,3,80,0,0
126477,-125,4,2,1,80,0,0
126679,-125,4,2,3,80,0,0
126882,-125,4,2,1,80,0,0
127085,-125,4,2,3,80,0,0
127287,-125,4,2,1,80,0,0
127490,-125,4,2,3,80,0,0
128098,-125,4,2,1,80,0,0
128301,-125,4,2,3,80,0,0
128504,-125,4,2,1,80,0,0
128706,-125,4,2,3,80,0,0
128808,-125,4,2,1,80,0,0
129112,-125,4,2,3,80,0,0
129314,-125,4,2,1,80,0,0
129517,-125,4,2,3,80,0,0
129618,-125,4,2,1,80,0,0
129923,-125,4,2,3,80,0,0
130125,-125,4,2,1,80,0,0
130328,-125,4,2,3,80,0,0
130429,-125,4,2,11,80,0,0
131037,-125,4,2,1,80,0,0
131341,-125,4,2,3,80,0,0
131747,-125,4,2,2,80,0,0
131950,-125,4,2,3,80,0,0
132152,-125,4,2,1,80,0,0
132355,-125,4,2,3,80,0,0
132963,-125,4,2,1,80,0,0
133166,-125,4,2,3,80,0,0
133368,-125,4,2,1,80,0,0
133571,-125,4,2,3,80,0,0
133774,-125,4,2,1,80,0,0
133977,-125,4,2,3,80,0,0
134585,-125,4,2,1,80,0,0
134787,-125,4,2,3,80,0,0
134990,-125,4,2,5,80,0,0
135193,-125,4,2,3,80,0,0
135294,-125,4,2,1,80,0,0
135598,-125,4,2,3,80,0,0
135801,-125,4,2,1,80,0,0
136004,-125,4,2,3,80,0,0
136105,-125,4,2,1,80,0,0
136409,-125,4,2,3,80,0,0
136612,-125,4,2,5,80,0,0
136814,-125,4,2,3,80,0,0
136916,-125,4,2,4,80,0,0
137220,-125,4,2,3,80,0,0
137423,-125,4,2,4,80,0,0
137625,-125,4,2,1,80,0,0
137828,-125,4,2,3,80,0,0
138031,-125,4,2,1,80,0,0
138233,-125,4,2,5,80,0,0
138436,-125,4,2,1,80,0,0
138841,-125,4,2,3,80,0,0
139145,-125,4,2,1,80,0,0
139450,-125,4,2,4,80,0,0
139652,-125,4,2,1,80,0,0
139855,-125,4,2,5,80,0,0
140058,-125,4,2,1,80,0,0
140463,-125,4,2,3,80,0,0
140767,-125,4,2,1,80,0,0
141477,-125,4,2,5,80,0,0
141679,-125,4,2,1,80,0,0
142085,-125,4,2,3,80,0,0
142693,-125,4,2,4,80,0,0
142895,-125,4,2,3,80,0,0
143098,-125,4,2,5,80,0,0
143301,-125,4,2,1,80,0,0
144314,-125,4,2,9,80,0,0
144416,-125,4,2,2,80,0,0
144517,-125,4,2,3,80,0,0
144720,-125,4,2,5,80,0,0
144923,-125,4,2,1,80,0,0
145328,-125,4,2,3,80,0,0
145632,-125,4,2,1,80,0,0
145936,-125,4,2,4,80,0,0
146139,-125,4,2,1,80,0,0
146341,-125,4,2,5,80,0,0
146544,-125,4,2,1,80,0,0
146950,-125,4,2,3,80,0,0
147254,-125,4,2,1,80,0,0
147963,-125,4,2,5,80,0,0
148166,-125,4,2,1,80,0,0
148571,-125,4,2,3,80,0,0
149179,-125,4,2,4,80,0,0
149382,-125,4,2,3,80,0,0
149585,-125,4,2,5,80,0,0
149787,-125,4,2,1,80,0,0
150193,-125,4,2,11,80,0,0
150497,-125,4,2,1,80,0,0
150801,-125,4,2,10,80,0,0
151612,-125,4,2,1,80,0,0
151814,-125,4,2,3,80,0,0
152017,-125,4,2,1,80,0,0
152220,-125,4,2,3,80,0,0
152423,-125,4,2,1,80,0,0
152625,-125,4,2,3,80,0,0
152828,-125,4,2,1,80,0,0
153031,-125,4,2,3,80,0,0
153233,-125,4,2,1,80,0,0
153436,-125,4,2,3,80,0,0
153639,-125,4,2,1,80,0,0
153740,-125,4,2,10,80,0,0
154044,-125,4,2,1,80,0,0
154145,-125,4,2,10,80,0,0
154450,-125,4,2,5,80,0,0
154652,-125,4,2,3,80,0,0
154855,-125,4,2,1,80,0,0
155058,-125,4,2,3,80,0,0
155260,-125,4,2,1,80,0,0
155362,-125,4,2,10,80,0,0
155666,-125,4,2,1,80,0,0
155767,-125,4,2,10,80,0,0
156071,-125,4,2,1,80,0,0
156274,-125,4,2,10,80,0,0
156375,-125,4,2,11,80,0,0
157287,-125,4,2,4,80,0,0
157693,-125,4,2,5,80,0,0
157895,-125,4,2,3,80,0,0
158098,-125,4,2,1,80,0,0
158301,-125,4,2,3,80,0,0
158504,-125,4,2,1,80,0,0
159112,-125,4,2,3,80,0,0
159213,-125,4,2,1,80,0,0
159517,-125,4,2,3,80,0,0
159720,-125,4,2,1,80,0,0
159923,-125,4,2,3,80,0,0
160125,-125,4,2,1,80,0,0
160429,-125,4,2,5,80,0,0
160733,-125,4,2,4,80,0,0
160936,-125,4,2,5,80,0,0
161139,-125,4,2,1,80,0,0
161544,-125,4,2,10,80,0,0
161747,-125,4,2,1,80,0,0
161950,-125,4,2,3,80,0,0
162051,-125,4,2,1,80,0,0
162355,-125,4,2,10,80,0,0
162558,-125,4,2,1,80,0,0
162862,-125,4,2,11,80,0,0
163166,-125,4,2,2,80,0,0
163267,-125,4,2,1,80,0,0
163571,-125,4,2,2,80,0,0
163673,-125,4,2,5,80,0,0
163774,-125,4,2,4,80,0,0
164382,-125,4,2,3,80,0,0
164483,-125,4,2,1,80,0,0
164787,-125,4,2,3,80,0,0
164889,-125,4,2,1,80,0,0
165193,-125,4,2,3,80,0,0
165294,-125,4,2,1,80,0,0
166004,-125,4,2,3,80,0,0
166105,-125,4,2,1,80,0,0
166409,-125,4,2,3,80,0,0
166510,-125,4,2,1,80,0,0
166814,-125,4,2,3,80,0,0
166916,-125,4,2,1,80,0,0
167423,-125,4,2,5,80,0,0
167625,-125,4,2,1,80,0,0
168031,-125,4,2,13,80,0,0
168233,-125,4,2,1,80,0,0
168841,-125,4,2,13,80,0,0
169044,-125,4,2,5,80,0,0
169247,-125,4,2,3,80,0,0
169348,-125,4,2,11,80,0,0
169450,-125,4,2,3,80,0,0
169652,-125,4,2,1,80,0,0
169855,-125,4,2,14,80,0,0
170260,-125,4,2,2,80,0,0
170463,-125,4,2,3,80,0,0
170666,-125,4,2,1,45,0,0
183233,-125,4,2,1,60,0,0
183639,-125,4,2,1,85,0,0
184855,-125,4,2,3,85,0,0
185260,-125,4,2,2,80,0,0
185463,-125,4,2,3,80,0,0
185666,-125,4,2,1,80,0,0
185868,-125,4,2,3,80,0,0
186477,-125,4,2,1,80,0,0
186679,-125,4,2,3,80,0,0
186882,-125,4,2,1,80,0,0
187085,-125,4,2,3,80,0,0
187287,-125,4,2,1,80,0,0
187490,-125,4,2,3,80,0,0
187895,-125,4,2,1,80,0,0
188706,-125,4,2,3,80,0,0
188808,-125,4,2,1,80,0,0
189112,-125,4,2,3,80,0,0
189314,-125,4,2,1,80,0,0
189517,-125,4,2,3,80,0,0
189720,-125,4,2,1,80,0,0
189923,-125,4,2,3,80,0,0
190125,-125,4,2,1,80,0,0
190328,-125,4,2,3,80,0,0
190429,-125,4,2,11,80,0,0
191037,-125,4,2,1,80,0,0
191341,-125,4,2,3,80,0,0
191747,-125,4,2,2,80,0,0
191950,-125,4,2,3,80,0,0
192152,-125,4,2,1,80,0,0
192355,-125,4,2,3,80,0,0
192963,-125,4,2,1,80,0,0
193166,-125,4,2,3,80,0,0
193368,-125,4,2,1,80,0,0
193571,-125,4,2,3,80,0,0
193774,-125,4,2,1,80,0,0
193977,-125,4,2,3,80,0,0
194585,-125,4,2,1,80,0,0
194787,-125,4,2,3,80,0,0
194990,-125,4,2,5,80,0,0
195193,-125,4,2,3,80,0,0
195294,-125,4,2,1,80,0,0
195598,-125,4,2,3,80,0,0
195801,-125,4,2,1,80,0,0
196004,-125,4,2,3,80,0,0
196105,-125,4,2,1,80,0,0
196409,-125,4,2,3,80,0,0
196612,-125,4,2,5,80,0,0
196814,-125,4,2,3,80,0,0
196916,-125,4,2,4,80,0,0
197220,-125,4,2,3,80,0,0
197423,-125,4,2,4,80,0,0
197625,-125,4,2,3,80,0,0
197828,-125,4,2,4,80,0,0
198031,-125,4,2,3,80,0,0
198233,-125,4,2,5,80,0,0
198436,-125,4,2,1,80,0,0
198841,-125,4,2,3,80,0,0
199145,-125,4,2,1,80,0,0
199450,-125,4,2,4,80,0,0
199652,-125,4,2,1,80,0,0
199855,-125,4,2,5,80,0,0
200058,-125,4,2,1,80,0,0
200463,-125,4,2,3,80,0,0
200767,-125,4,2,1,80,0,0
201477,-125,4,2,5,80,0,0
201679,-125,4,2,1,80,0,0
202085,-125,4,2,3,80,0,0
202693,-125,4,2,4,80,0,0
202895,-125,4,2,3,80,0,0
203098,-125,4,2,5,80,0,0
203301,-125,4,2,1,80,0,0
204314,-125,4,2,14,80,0,0
204416,-125,4,2,2,80,0,0
204517,-125,4,2,3,80,0,0
204720,-125,4,2,5,80,0,0
204923,-125,4,2,1,80,0,0
205328,-125,4,2,3,80,0,0
205632,-125,4,2,1,80,0,0
205936,-125,4,2,4,80,0,0
206139,-125,4,2,1,80,0,0
206341,-125,4,2,5,80,0,0
206544,-125,4,2,1,80,0,0
206950,-125,4,2,3,80,0,0
207254,-125,4,2,1,80,0,0
207963,-125,4,2,5,80,0,0
208166,-125,4,2,1,80,0,0
208571,-125,4,2,3,80,0,0
209179,-125,4,2,4,80,0,0
209382,-125,4,2,3,80,0,0
209585,-125,4,2,5,80,0,0
209787,-125,4,2,1,80,0,0
210193,-125,4,2,11,80,0,0
210497,-125,4,2,1,80,0,0
210801,-125,4,2,3,80,0,0
211206,-125,4,2,5,80,0,0
211409,-125,4,2,1,80,0,0
212625,-125,4,2,3,80,0,0
213233,-125,4,2,1,80,0,0
213436,-125,4,2,3,80,0,0
213537,-125,4,2,1,80,0,0
213841,-125,4,2,3,80,0,0
214044,-125,4,2,4,80,0,0
214247,-125,4,2,1,80,0,0
214450,-125,4,2,5,80,0,0
214652,-125,4,2,1,80,0,0
215868,-125,4,2,3,80,0,0
216274,-125,4,2,11,80,0,0
216983,-125,4,2,1,80,0,0
217085,-125,4,2,2,80,0,0
217287,-125,4,2,4,80,0,0
217693,-125,4,2,5,80,0,0
217895,-125,4,2,1,80,0,0
219112,-125,4,2,3,80,0,0
219720,-125,4,2,1,80,0,0
219923,-125,4,2,3,80,0,0
220024,-125,4,2,1,80,0,0
220328,-125,4,2,3,80,0,0
220531,-125,4,2,1,80,0,0
221544,-125,4,2,3,80,0,0
221747,-125,4,2,1,80,0,0
222355,-125,4,2,14,80,0,0
222760,-125,4,2,11,80,0,0
223368,-125,4,2,14,80,0,0
223774,-125,4,2,11,80,0,0

[Colours]
Combo1 : 234,234,234
Combo2 : 255,128,128
Combo3 : 255,153,204
Combo4 : 255,183,255
Combo5 : 184,184,220
Combo6 : 255,62,158

[HitObjects]
95,303,396,6,0,P|67:275|84:213,1,96,2|0,2:2|0:0,0:0:0:0:
98,206,1004,2,0,L|73:129,2,72,2|2|2,2:2|2:2|2:2,0:0:0:0:
182,269,2017,2,0,B|259:274|228:321|316:331,2,144,2|2|2,2:2|2:2|2:2,0:0:0:0:
178,163,3639,6,0,P|210:121|213:71,1,96,2|0,2:2|0:0,0:0:0:0:
204,52,4247,2,0,L|132:70,2,72,2|2|2,2:2|2:2|2:2,0:0:0:0:
306,26,5260,5,2,2:2:0:0:
388,91,5666,2,0,P|418:93|428:66,1,48,0|2,0:0|2:2,0:0:0:0:
438,53,6071,2,0,L|464:158,1,96,10|6,2:2|3:2,0:0:0:0:
417,242,6882,2,0,P|370:241|340:194,2,96,6|8|2,3:2|2:2|3:2,0:0:0:0:
484,323,8098,1,8,2:2:0:0:
380,345,8504,6,0,P|327:341|246:384,1,144,2|2,3:2|2:3,0:0:0:0:
220,375,9314,2,0,P|177:358|188:304,1,96,2|6,3:2|3:2,0:0:0:0:
84,265,10125,6,0,P|107:214|104:166,2,96,6|8|0,3:2|2:2|3:3,0:0:0:0:
89,370,11341,1,8,2:2:0:0:
171,303,11747,2,0,P|222:308|260:196,1,192,2|2,3:2|3:2,0:0:0:0:
188,117,12963,1,12,2:2:0:0:
105,51,13368,6,0,P|58:74|44:126,2,96,6|8|2,3:2|2:2|3:2,0:0:0:0:
203,12,14585,1,8,2:2:0:0:
276,87,14990,2,0,P|351:78|374:19,1,144,2|2,3:2|2:3,0:0:0:0:
400,9,15801,2,0,P|441:21|464:72,1,96,2|6,3:2|3:2,0:0:0:0:
419,162,16612,6,0,P|467:178|518:182,2,96,6|8|2,3:2|2:2|3:2,0:0:0:0:
318,194,17828,1,8,2:2:0:0:
230,252,18233,6,0,P|207:297|174:336,1,96,2|0,3:2|3:3,0:0:0:0:
149,334,18841,2,0,P|121:322|116:288,1,48,10|2,2:2|3:2,0:0:0:0:
83,205,19450,1,14,2:2:0:0:
142,118,19855,5,6,3:2:0:0:
142,118,20058,2,0,P|190:115|225:84,1,96,2|2,2:1|2:2,0:0:0:0:
237,58,20666,2,0,P|281:52|316:96,1,96,2|0,3:2|3:3,0:0:0:0:
357,183,21477,2,0,P|402:187|435:144,1,96,2|0,3:2|3:3,0:0:0:0:
448,47,22287,2,0,L|371:23,2,72,2|0|0,3:2|3:3|3:3,0:0:0:0:
471,30,23098,6,0,P|478:97|498:184,1,144,2|2,3:2|2:2,0:0:0:0:
486,199,23909,2,0,P|462:236|409:226,1,96,2|0,3:2|3:3,0:0:0:0:
310,213,24720,2,0,P|270:243|264:289,1,96,2|0,3:2|3:3,0:0:0:0:
346,352,25531,2,0,L|427:365,2,72,2|0|0,3:2|3:3|3:3,0:0:0:0:
319,363,26341,6,0,L|258:376,1,48,2|2,3:2|2:1,0:0:0:0:
133,295,27152,6,0,P|150:326|153:361,2,72,2|2|2,3:2|2:2|2:2,0:0:0:0:
104,292,27963,2,0,P|85:322|56:343,2,72,2|2|2,3:2|2:2|2:2,0:0:0:0:
94,264,28774,2,0,P|58:263|25:248,2,72,2|0|2,3:2|3:3|3:1,0:0:0:0:
108,238,29585,5,2,3:2:0:0:
90,133,29990,1,0,3:3:0:0:
195,115,30395,1,0,3:3:0:0:
213,220,30801,2,0,L|260:230,1,48,8|8,2:2|2:2,0:0:0:0:
288,225,31206,6,0,B|338:261|327:317|327:317|331:286|356:269,1,144,2|2,3:2|3:2,0:0:0:0:
369,286,32017,2,0,L|464:320,1,96,2|2,3:2|3:2,0:0:0:0:
485,307,32625,1,6,2:2:0:0:
496,279,32828,6,0,P|502:234|467:204,1,96,6|8,3:2|2:3,0:0:0:0:
367,171,33639,2,0,P|351:124|382:90,1,96,2|8,3:2|2:3,0:0:0:0:
483,103,34450,2,0,P|479:59|445:12,1,96,10|8,3:3|2:3,0:0:0:0:
424,4,35058,1,2,2:2:0:0:
395,0,35260,2,0,P|348:2|307:26,1,96,2|10,3:2|2:3,0:0:0:0:
255,118,36071,6,0,P|206:107|207:67,1,96,2|8,3:2|2:3,0:0:0:0:
119,8,36882,2,0,P|67:19|35:52,1,96,2|8,3:2|2:3,0:0:0:0:
33,153,37693,2,0,P|78:161|108:126,1,96,2|8,3:2|2:3,0:0:0:0:
208,92,38504,2,0,B|252:106|252:106|236:166,1,96,2|10,3:2|2:3,0:0:0:0:
240,182,39112,1,2,3:1:0:0:
228,208,39314,6,0,L|129:249,1,96,2|8,3:2|2:3,0:0:0:0:
38,277,40125,2,0,P|11:316|10:363,1,96,10|2,3:3|3:1,0:0:0:0:
32,381,40733,2,0,P|54:386|76:377,1,48,10|2,2:3|3:2,0:0:0:0:
175,340,41341,1,8,2:3:0:0:
279,354,41747,2,0,L|369:366,2,72,8|2|10,3:3|3:2|3:3,0:0:0:0:
268,327,42558,5,2,3:2:0:0:
371,304,42963,1,8,2:3:0:0:
474,281,43368,1,0,3:3:0:0:
451,178,43774,1,2,3:1:0:0:
428,75,44179,6,0,B|407:17|407:17|320:39,1,144,6|6,3:2|3:2,0:0:0:0:
298,33,44990,2,0,B|272:34|272:34|251:25,2,48,14|10|10,2:2|2:3|3:3,0:0:0:0:
292,138,45801,6,0,B|240:127|240:127|217:145|217:145|156:134,1,144,6|2,3:2|2:2,0:0:0:0:
128,140,46612,2,0,B|71:174|71:174|60:81,1,144,10|2,2:3|2:2,0:0:0:0:
43,74,47423,1,2,2:2:0:0:
130,15,47828,2,0,L|188:24,1,48,2|2,2:2|3:2,0:0:0:0:
205,15,48233,2,0,P|244:48|251:147,1,144,10|2,2:3|2:1,0:0:0:0:
242,161,49044,6,0,B|297:171|297:171|312:208|312:208|374:224,1,144,2|2,3:1|2:2,0:0:0:0:
386,211,49855,2,0,B|432:191|432:191|478:282,1,144,10|2,2:3|2:2,0:0:0:0:
460,299,50666,2,0,L|453:365,2,48,2|2|2,2:2|2:2|2:2,0:0:0:0:
364,343,51477,2,0,P|284:317|285:257,1,144,10|2,2:3|3:2,0:0:0:0:
296,243,52287,6,0,P|261:195|176:261,1,192,2|10,3:1|2:3,0:0:0:0:
201,361,53504,1,2,2:1:0:0:
95,358,53909,2,0,L|31:374,2,48,2|10|2,2:2|2:3|2:2,0:0:0:0:
25,278,54720,2,0,B|54:202|8:212|54:118,1,144,10|10,2:3|2:3,0:0:0:0:
34,110,55531,6,0,L|87:91,1,48,2|2,3:1|2:1,0:0:0:0:
230,48,56341,1,10,2:3:0:0:
266,147,56747,2,0,P|291:136|313:110,2,48,10|10|2,2:1|2:2|2:2,0:0:0:0:
409,332,58774,6,0,P|442:275|430:238,1,96,6|10,3:2|2:2,0:0:0:0:
422,223,59382,1,2,2:2:0:0:
337,171,59787,1,2,2:2:0:0:
337,171,59990,2,0,L|281:160,1,48,10|2,2:2|2:2,0:0:0:0:
261,161,60395,6,0,P|220:205|214:250,1,96,2|10,3:2|2:2,0:0:0:0:
219,267,61004,1,2,2:2:0:0:
274,359,61409,1,2,2:2:0:0:
274,359,61612,1,2,3:2:0:0:
314,261,62017,6,0,B|389:266|450:349|450:349|477:345,2,192,2|2|2,3:2|3:2|3:2,0:0:0:0:
257,171,64044,2,0,L|276:116,2,48,0|14|2,3:3|2:2|3:2,0:0:0:0:
230,273,64855,1,12,2:2:0:0:
145,335,65260,6,0,P|75:329|51:308,1,96,6|10,3:2|2:2,0:0:0:0:
40,288,65868,1,2,2:2:0:0:
11,176,66274,1,2,2:2:0:0:
11,176,66477,2,0,L|65:185,1,48,10|2,2:2|2:2,0:0:0:0:
83,198,66882,2,0,P|132:173|145:133,1,96,2|10,3:2|2:2,0:0:0:0:
143,107,67490,1,2,2:2:0:0:
107,12,67895,1,2,2:2:0:0:
107,12,68098,1,2,3:2:0:0:
67,111,68504,6,0,P|38:218|22:308,2,192,6|6|6,3:2|3:2|3:2,0:0:0:0:
170,130,70531,2,0,L|178:197,2,48,0|14|2,3:3|2:2|3:2,0:0:0:0:
259,74,71341,2,0,P|282:81|309:85,1,48,12|10,2:2|2:3,0:0:0:0:
328,110,71747,6,0,P|359:91|406:84,1,72,6|2,3:2|2:2,0:0:0:0:
393,83,72355,2,0,P|429:82|473:99,2,72,2|2|14,2:2|2:2|2:2,0:0:0:0:
376,187,73368,6,0,P|340:194|310:213,1,72,6|2,3:2|2:2,0:0:0:0:
310,213,73977,2,0,P|274:205|244:186,2,72,2|10|6,2:2|2:2|3:2,0:0:0:0:
226,275,74990,6,0,P|206:306|199:353,1,72,6|2,3:2|2:2,0:0:0:0:
199,341,75598,2,0,P|237:376|290:366,1,96,2|2,2:2|2:2,0:0:0:0:
300,354,76206,1,14,2:2:0:0:
400,319,76612,5,4,3:2:0:0:
423,216,77017,1,0,3:3:0:0:
375,121,77423,1,0,3:3:0:0:
272,95,77828,1,12,2:2:0:0:
176,140,78233,6,0,L|100:107,1,72,6|2,3:2|2:2,0:0:0:0:
109,111,78841,2,0,L|73:41,2,72,2|10|14,2:2|2:2|2:2,0:0:0:0:
40,191,79855,6,0,L|14:268,1,72,6|2,3:2|2:2,0:0:0:0:
16,259,80463,2,0,L|33:335,2,72,2|10|6,2:2|2:2|3:2,0:0:0:0:
116,225,81477,6,0,P|155:233|174:265,1,72,6|2,3:2|2:2,0:0:0:0:
172,257,82085,2,0,P|166:310|182:355,1,96,2|2,2:2|2:2,0:0:0:0:
203,365,82693,1,14,2:2:0:0:
277,289,83098,6,0,L|263:207,1,72,4|12,3:2|2:3,0:0:0:0:
264,218,83706,2,0,L|346:204,1,72,14|12,2:2|2:3,0:0:0:0:
334,205,84314,2,0,L|345:147,1,48,12|8,2:2|2:2,0:0:0:0:
349,129,84720,5,2,3:1:0:0:
349,129,86341,6,0,L|393:111,2,48,2|0|0,3:1|0:0|0:0,0:0:0:0:
273,55,87152,2,0,P|233:73|178:79,1,96,2|0,2:2|0:0,0:0:0:0:
154,70,87760,1,2,2:2:0:0:
131,51,87963,6,0,P|89:48|45:90,1,96,2|2,2:2|2:2,0:0:0:0:
66,185,88774,2,0,P|86:240|87:339,1,144,2|2,2:2|2:2,0:0:0:0:
112,342,89585,6,0,P|151:360|228:291,1,144,2|0,3:2|3:3,0:0:0:0:
222,278,90395,1,2,2:2:0:0:
368,339,91004,1,2,2:2:0:0:
395,348,91206,6,0,L|379:243,2,96,2|2|2,2:2|2:2|2:2,0:0:0:0:
483,289,92423,2,0,L|493:230,1,48,2|2,2:2|2:2,0:0:0:0:
498,213,92828,5,2,3:2:0:0:
461,58,93436,1,2,3:2:0:0:
437,40,93639,2,0,P|396:43|371:139,1,144,2|2,2:2|2:2,0:0:0:0:
378,153,94450,2,0,P|365:191|360:249,1,96,2|2,2:2|2:2,0:0:0:0:
278,313,95260,2,0,P|227:286|230:203,1,144,2|2,2:2|2:2,0:0:0:0:
249,189,96071,5,2,3:2:0:0:
230,31,96679,1,2,3:2:0:0:
230,31,96882,2,0,L|304:39,2,72,2|2|2,2:2|2:2|2:2,0:0:0:0:
256,192,97693,12,6,99314,3:2:0:0:
213,95,100125,5,2,3:2:0:0:
110,67,100531,1,8,2:3:0:0:
38,143,100936,2,0,P|39:191|63:232,1,96,2|8,3:2|2:3,0:0:0:0:
41,336,101747,2,0,L|139:362,1,96,2|10,3:2|2:3,0:0:0:0:
218,297,102558,6,0,B|224:249|203:259|206:191,2,96,2|8|2,3:2|2:3|3:2,0:0:0:0:
310,348,103774,1,8,2:3:0:0:
415,353,104179,2,0,P|456:342|465:291,1,96,2|8,3:2|2:3,0:0:0:0:
400,211,104990,1,2,3:2:0:0:
298,183,105395,2,0,L|246:200,1,48,8|2,2:3|3:2,0:0:0:0:
225,186,105801,5,2,3:1:0:0:
132,236,106206,1,8,2:3:0:0:
53,165,106612,2,0,P|53:110|75:68,1,96,10|2,3:3|3:1,0:0:0:0:
171,43,107423,2,0,P|230:59|264:55,1,96,2|8,3:2|2:3,0:0:0:0:
361,15,108233,1,10,3:3:0:0:
464,34,108639,1,8,2:3:0:0:
481,138,109044,6,0,P|454:186|377:161,1,144,2|2,3:2|2:2,0:0:0:0:
371,137,109855,1,10,3:3:0:0:
298,213,110260,2,0,L|247:233,1,48,8|10,3:3|2:2,0:0:0:0:
232,250,110666,6,0,P|243:287|246:341,2,72,6|6|6,3:2|3:2|3:2,0:0:0:0:
213,227,111477,2,0,P|192:164|226:74,1,144,14|10,2:2|3:3,0:0:0:0:
231,69,112287,6,0,L|373:35,1,144,6|2,3:2|2:1,0:0:0:0:
399,30,113098,1,10,2:3:0:0:
449,123,113504,2,0,L|512:138,2,48,2|2|2,3:1|2:1|2:2,0:0:0:0:
375,198,114314,2,0,L|390:251,1,48,2|2,2:1|3:1,0:0:0:0:
408,264,114720,2,0,P|344:279|287:340,1,144,10|2,2:3|2:2,0:0:0:0:
287,361,115531,5,2,3:2:0:0:
217,281,115936,2,0,L|177:329,1,48,2|2,2:1|2:1,0:0:0:0:
167,339,116341,2,0,P|129:353|52:284,1,144,10|2,2:3|2:1,0:0:0:0:
45,268,117152,1,2,2:2:0:0:
57,162,117558,2,0,L|112:149,1,48,2|2,2:1|3:1,0:0:0:0:
131,158,117963,2,0,B|208:158|176:205|263:210,1,144,10|2,2:3|3:2,0:0:0:0:
288,201,118774,5,2,3:2:0:0:
383,245,119179,2,0,L|400:195,1,48,2|2,2:1|2:1,0:0:0:0:
422,183,119585,2,0,P|454:166|486:112,1,96,10|2,2:3|3:1,0:0:0:0:
382,93,120395,2,0,P|383:56|352:2,1,96,2|2,2:2|2:1,0:0:0:0:
284,82,121206,2,0,P|253:62|190:62,1,96,10|2,2:3|2:1,0:0:0:0:
119,135,122017,6,0,B|72:147|55:182|55:182|70:113|41:57,2,192,2|8|0,3:2|2:3|0:0,0:0:0:0:
119,135,125260,6,0,P|124:202|164:221,1,96,6|10,3:2|2:2,0:0:0:0:
172,215,125868,1,2,2:2:0:0:
283,197,126273,1,2,2:2:0:0:
283,197,126477,2,0,L|331:181,1,48,10|2,2:2|2:2,0:0:0:0:
337,154,126881,6,0,P|342:103|298:68,1,96,2|10,3:2|2:2,0:0:0:0:
286,62,127490,1,2,2:2:0:0:
195,20,127895,1,2,2:2:0:0:
195,20,128098,1,2,3:2:0:0:
198,123,128503,6,0,B|123:118|62:35|62:35|35:39,2,192,2|2|2,3:2|3:2|3:2,0:0:0:0:
255,213,130530,2,0,L|236:268,2,48,0|14|2,3:3|2:2|3:2,0:0:0:0:
282,111,131341,1,12,2:2:0:0:
367,49,131746,6,0,P|429:59|454:97,1,96,6|10,3:2|2:2,0:0:0:0:
465,105,132355,1,2,2:2:0:0:
501,208,132760,1,2,2:2:0:0:
501,208,132963,2,0,L|450:197,1,48,10|2,2:2|2:2,0:0:0:0:
430,180,133368,2,0,P|382:196|364:253,1,96,2|10,3:2|2:2,0:0:0:0:
363,263,133977,1,2,2:2:0:0:
393,368,134381,1,2,2:2:0:0:
393,368,134584,1,2,3:2:0:0:
445,273,134990,6,0,P|474:166|490:76,2,192,6|6|6,3:2|3:2|3:2,0:0:0:0:
342,254,137017,2,0,L|334:187,2,48,0|14|2,3:3|2:2|3:2,0:0:0:0:
253,310,137828,2,0,P|230:303|203:299,1,48,12|10,2:2|2:3,0:0:0:0:
184,274,138233,6,0,P|153:293|106:300,1,72,6|2,3:2|2:2,0:0:0:0:
119,301,138841,2,0,P|83:302|39:285,2,72,2|2|14,2:2|2:2|2:2,0:0:0:0:
136,197,139854,6,0,P|172:190|202:171,1,72,6|2,3:2|2:2,0:0:0:0:
202,171,140463,2,0,P|238:179|268:198,2,72,2|10|6,2:2|2:2|3:2,0:0:0:0:
286,109,141476,6,0,P|306:78|313:31,1,72,6|2,3:2|2:2,0:0:0:0:
313,43,142084,2,0,P|275:8|222:18,1,96,2|2,2:2|2:2,0:0:0:0:
212,30,142692,1,14,2:2:0:0:
112,65,143098,5,4,3:2:0:0:
89,168,143503,1,0,3:3:0:0:
137,263,143909,1,0,3:3:0:0:
240,289,144314,1,12,2:2:0:0:
336,244,144719,6,0,L|412:277,1,72,6|2,3:2|2:2,0:0:0:0:
403,273,145327,2,0,L|439:343,2,72,2|10|14,2:2|2:2|2:2,0:0:0:0:
472,193,146341,6,0,L|498:116,1,72,6|2,3:2|2:2,0:0:0:0:
496,125,146949,2,0,L|479:49,2,72,2|10|6,2:2|2:2|3:2,0:0:0:0:
396,159,147963,6,0,P|357:151|338:119,1,72,6|2,3:2|2:2,0:0:0:0:
340,127,148571,2,0,P|346:74|330:29,1,96,2|2,2:2|2:2,0:0:0:0:
309,19,149179,1,14,2:2:0:0:
212,62,149585,5,4,3:2:0:0:
172,159,149990,1,0,3:3:0:0:
219,253,150395,2,0,P|273:246|315:216,1,96,2|12,3:2|2:2,0:0:0:0:
403,181,151206,6,0,P|449:197|467:244,2,96,6|10|2,3:2|2:2|3:2,0:0:0:0:
302,145,152423,2,0,L|312:85,2,48,10|2|6,2:2|2:1|3:2,0:0:0:0:
200,117,153233,2,0,L|187:64,1,48,10|2,2:2|2:1,0:0:0:0:
183,41,153639,1,2,3:2:0:0:
79,20,154044,1,2,3:2:0:0:
9,99,154450,6,0,L|30:207,1,96,6|10,3:2|2:2,0:0:0:0:
45,215,155058,1,2,2:1:0:0:
29,239,155260,2,0,P|17:279|60:319,1,96,2|10,3:2|2:2,0:0:0:0:
140,261,156071,2,0,P|147:213|123:159,2,96,2|2|2,3:2|3:2|3:2,0:0:0:0:
172,361,157287,2,0,L|119:374,2,48,14|10|6,2:2|2:2|3:2,0:0:0:0:
240,280,158098,6,0,P|262:288|279:304,1,48,10|2,2:2|2:2,0:0:0:0:
298,326,158504,2,0,P|332:359|395:363,1,96,2|8,3:2|2:2,0:0:0:0:
466,308,159314,5,2,3:2:0:0:
503,209,159720,1,10,2:2:0:0:
422,140,160125,2,0,P|364:167|272:166,1,144,6|6,3:2|3:2,0:0:0:0:
263,150,160936,5,6,3:2:0:0:
199,234,161341,2,0,L|140:221,1,48,8|2,2:2|2:2,0:0:0:0:
124,232,161747,2,0,P|71:220|41:136,1,144,6|2,3:2|2:2,0:0:0:0:
30,115,162558,5,2,3:2:0:0:
98,35,162963,1,0,3:3:0:0:
185,93,163368,2,0,P|210:125|264:122,1,96,2|12,3:2|2:2,0:0:0:0:
328,41,164179,5,2,3:2:0:0:
432,25,164585,2,0,P|456:21|486:10,2,48,10|2|2,2:2|2:2|3:2,0:0:0:0:
417,49,165193,1,2,2:2:0:0:
423,77,165395,2,0,P|445:111|452:172,1,96,10|2,2:2|3:2,0:0:0:0:
414,263,166206,6,0,L|435:322,2,48,10|2|2,2:2|2:2|3:2,0:0:0:0:
387,250,166814,1,2,2:2:0:0:
359,258,167017,1,2,3:2:0:0:
269,314,167423,6,0,B|236:268|253:218|266:223|282:175|253:109,1,192,6|6,3:2|3:2,0:0:0:0:
224,28,168639,1,8,2:2:0:0:
324,58,169044,2,0,P|365:61|383:20,2,72,6|14|14,3:2|2:2|2:2,0:0:0:0:
296,66,169855,6,0,P|264:108|330:218,1,192,14|2,2:2|2:2,0:0:0:0:
256,192,182017,12,8,183639,2:2:0:0:
328,158,185260,6,0,P|367:134|372:87,1,96,6|10,3:2|2:2,0:0:0:0:
363,60,185868,1,2,2:2:0:0:
265,19,186274,1,2,2:2:0:0:
265,19,186477,2,0,L|207:38,1,48,10|2,2:2|2:2,0:0:0:0:
199,54,186882,6,0,P|188:99|218:135,1,96,2|10,3:2|2:2,0:0:0:0:
242,148,187490,1,2,2:2:0:0:
250,175,187693,2,0,P|252:225|135:264,1,192,0|0,3:3|3:3,0:0:0:0:
42,311,188909,5,10,2:2:0:0:
37,206,189314,2,0,P|53:161|54:113,1,96,2|10,3:2|2:2,0:0:0:0:
77,10,190125,6,0,P|30:7|-10:-5,2,72,2|14|14,3:2|2:2|2:2,0:0:0:0:
101,25,190936,2,0,P|150:14|203:36,1,96,2|12,3:2|2:2,0:0:0:0:
220,128,191747,6,0,P|278:112|301:84,1,96,6|10,3:2|2:2,0:0:0:0:
317,62,192355,1,2,2:2:0:0:
419,27,192760,1,2,2:2:0:0:
419,27,192963,2,0,L|471:36,1,48,10|2,2:2|2:2,0:0:0:0:
477,61,193368,2,0,P|465:116|460:165,1,96,2|10,3:2|2:2,0:0:0:0:
467,183,193977,1,2,2:2:0:0:
476,210,194179,2,0,P|420:218|343:270,1,144,0|10,3:3|2:2,0:0:0:0:
336,316,194990,6,0,B|319:204|365:225|356:107,2,192,6|6|6,3:2|3:2|3:2,0:0:0:0:
230,309,197017,2,0,L|215:243,2,48,0|14|2,3:3|2:2|3:2,0:0:0:0:
141,366,197828,2,0,L|84:334,1,48,14|10,2:2|2:2,0:0:0:0:
92,319,198233,6,0,P|91:283|108:238,1,72,6|2,3:2|2:2,0:0:0:0:
101,249,198841,2,0,P|118:217|155:188,2,72,2|2|14,2:2|2:2|2:2,0:0:0:0:
202,294,199854,6,0,P|237:306|272:304,1,72,6|2,3:2|2:2,0:0:0:0:
274,304,200463,2,0,P|301:329|318:360,2,72,2|10|6,2:2|2:2|3:2,0:0:0:0:
255,205,201476,6,0,P|235:174|228:127,1,72,6|2,3:2|2:2,0:0:0:0:
228,139,202084,2,0,P|266:104|319:114,1,96,2|2,2:2|2:2,0:0:0:0:
335,100,202692,1,14,2:2:0:0:
435,135,203098,5,4,3:2:0:0:
458,238,203503,1,0,3:3:0:0:
410,333,203909,1,0,3:3:0:0:
307,359,204314,1,14,2:2:0:0:
212,326,204719,6,0,L|136:293,1,72,6|2,3:2|2:2,0:0:0:0:
145,297,205327,2,0,L|109:227,2,72,2|10|14,2:2|2:2|2:2,0:0:0:0:
202,209,206341,6,0,L|279:235,1,72,6|2,3:2|2:2,0:0:0:0:
270,233,206949,2,0,L|346:216,2,72,2|10|6,2:2|2:2|3:2,0:0:0:0:
274,131,207963,6,0,P|266:92|234:73,1,72,6|2,3:2|2:2,0:0:0:0:
242,75,208571,2,0,P|189:81|144:65,1,96,2|2,2:2|2:2,0:0:0:0:
126,42,209179,1,14,2:2:0:0:
31,89,209585,6,0,P|21:124|23:159,2,72,4|12|14,3:2|2:3|2:2,0:0:0:0:
25,60,210395,1,2,3:2:0:0:
105,128,210801,1,12,2:2:0:0:
185,196,211206,6,0,P|189:235|157:289,1,96,6|2,3:2|3:2,0:0:0:0:
196,384,212017,2,0,P|160:375|125:375,2,72,2|10|10,3:2|2:2|2:2,0:0:0:0:
287,331,213031,2,0,L|342:345,1,48,2|2,2:2|3:2,0:0:0:0:
360,332,213436,1,10,2:2:0:0:
385,345,213639,2,0,P|430:346|447:304,1,96,0|6,3:3|3:2,0:0:0:0:
439,276,214247,1,10,2:3:0:0:
419,254,214450,6,0,P|420:205|435:141,1,96,6|2,3:2|3:2,0:0:0:0:
376,67,215260,2,0,P|324:67|290:111,1,96,2|2,3:2|3:2,0:0:0:0:
284,123,215868,1,10,2:2:0:0:
347,211,216274,1,2,2:2:0:0:
347,211,216477,2,0,L|283:225,1,48,2|14,3:2|2:2,0:0:0:0:
272,213,216882,1,2,3:2:0:0:
218,122,217287,1,14,2:2:0:0:
272,31,217693,6,0,P|317:45|347:82,1,96,6|2,3:2|3:2,0:0:0:0:
420,157,218504,2,0,P|451:169|497:180,2,72,2|10|10,3:2|2:2|2:2,0:0:0:0:
393,167,219314,1,0,3:3:0:0:
336,256,219720,1,2,3:2:0:0:
236,220,220125,2,0,P|175:222|154:265,1,96,2|2,3:2|3:2,0:0:0:0:
131,260,220733,1,10,2:3:0:0:
104,249,220936,6,0,P|57:205|60:157,1,96,6|6,3:2|3:2,0:0:0:0:
85,75,221747,2,0,B|159:34|152:88|240:35,1,144,6|14,3:2|2:2,0:0:0:0:
326,23,222760,6,0,L|373:34,1,48,14|14,2:2|2:2,0:0:0:0:
402,39,223166,1,14,2:2:0:0:
422,60,223368,6,0,B|450:118|450:118|444:134|426:136,1,96,14|6,2:2|3:2,0:0:0:0:
