osu file format v14

[General]
AudioFilename: audiocut.mp3
AudioLeadIn: 0
PreviewTime: 66461
Countdown: 0
SampleSet: Soft
StackLeniency: 0.7
Mode: 0
LetterboxInBreaks: 0
WidescreenStoryboard: 1
SamplesMatchPlaybackRate: 1

[Editor]
DistanceSpacing: 1.4
BeatDivisor: 8
GridSize: 32
TimelineZoom: 1.912

[Metadata]
Title:On My Own
TitleUnicode:On My Own
Artist:Darci
ArtistUnicode:Darci
Creator:Pieseu
Version:Weakness
Source:
Tags:
BeatmapID:4290797
BeatmapSetID:956964

[Difficulty]
HPDrainRate:5
CircleSize:4
OverallDifficulty:7
ApproachRate:9
SliderMultiplier:2.49999994412065
SliderTickRate:1

[Events]
//Background and Video events
0,0,"bg.jpg",0,0
//Break Periods
2,63545,65976
//Storyboard Layer 0 (Background)
//Storyboard Layer 1 (Fail)
//Storyboard Layer 2 (Pass)
//Storyboard Layer 3 (Foreground)
//Storyboard Layer 4 (Overlay)
//Storyboard Sound Samples

[TimingPoints]
115,461.538461538462,4,2,0,100,1,0
7038,-133.333333333333,4,2,0,100,0,0
34268,-500,4,2,0,100,0,0
37961,-100,4,2,0,100,0,0
50884,-200,4,2,0,100,0,0
51807,-100,4,2,0,100,0,0
55961,-133.333333333333,4,2,0,100,0,0
56422,-500,4,2,0,100,0,0
56653,-166.666666666667,4,2,0,100,0,0
56884,-125,4,2,0,100,0,0
57115,-100,4,2,0,100,0,0
57345,-83.3333333333333,4,2,0,100,0,0
57576,-71.4285714285714,4,2,0,100,0,0
57807,-62.5,4,2,0,100,0,0
58038,-55.5555555555556,4,2,0,100,0,0
58268,-100,4,2,0,100,0,0
66576,-33.3333333333327,4,2,0,100,0,0
67038,-33.3333333333333,4,2,0,100,0,0
67499,-33.3333333333333,4,2,0,100,0,0
67730,-49.9999999999946,4,2,0,100,0,0
71653,-100,4,2,0,100,0,0
73038,-50,4,2,0,100,0,0
79038,-100,4,2,0,100,0,0
83653,-400,4,2,0,100,0,0
84115,-50,4,2,0,100,0,0
84576,-100,4,2,0,100,0,0
85038,-50,4,2,0,100,0,0
86422,-100,4,2,0,100,0,0
86884,-50,4,2,0,100,0,0
90115,-100,4,2,0,100,0,0
90576,-50,4,2,0,100,0,0

[Colours]
Combo1 : 40,54,67
Combo2 : 192,200,194
Combo3 : 90,111,124
Combo4 : 132,164,179
Combo5 : 109,135,162
Combo6 : 68,87,111

[HitObjects]
111,4,7038,6,0,P|139:66|153:137,1,140.625
345,159,7499,6,0,B|281:163|305:240|225:244,1,140.625,4|0,2:3|0:0,2:0:0:0:
68,267,7961,2,0,P|141:305|162:374,1,140.625,4|0,2:3|0:0,0:0:0:0:
28,361,8422,5,8,2:2:0:0:
152,137,8653,1,2,2:0:0:0:
19,154,8884,5,2,2:0:0:0:
250,285,9115,1,2,2:0:0:0:
177,0,9345,2,0,P|162:54|154:137,1,140.625,2|0,2:0|0:0,0:0:0:0:
174,220,9807,1,4,2:3:0:0:
386,144,10038,6,0,L|422:138,3,23.4375
376,175,10268,2,0,P|414:169|484:146,1,93.75,8|0,2:2|2:0,2:0:0:0:
286,316,10730,5,2,2:0:0:0:
382,64,10961,1,2,2:0:0:0:
399,339,11191,6,4,P|453:278|453:277,1,93.75,4|0,2:3|2:0,2:2:0:0:
282,153,11653,2,0,P|263:84|263:83,1,70.3125,4|0,2:3|0:0,2:0:0:0:
193,39,11884,2,0,P|199:29|204:18,2,23.4375,0|0|0,2:0|0:0|0:0,0:0:0:0:
104,53,12115,5,8,2:2:0:0:
34,273,12345,1,2,2:0:0:0:
59,159,12576,5,2,2:0:0:0:
174,384,12807,1,2,2:0:0:0:
282,153,13038,2,0,P|292:104|296:49,1,93.75,2|0,2:0|0:0,2:0:0:0:
402,356,13499,6,0,P|364:307|266:311,1,140.625,4|0,2:3|0:0,0:0:0:0:
159,317,13961,6,0,P|186:282|201:214,1,93.75,8|0,2:2|2:0,2:0:0:0:
28,349,14422,5,2,2:0:0:0:
293,302,14653,1,4,2:3:0:0:
293,302,14768,1,4,2:3:0:0:
293,302,14884,2,0,P|374:272|480:288,1,187.500002961606,4|0,2:3|0:0,0:0:0:0:
255,105,15576,6,0,P|260:86|263:68,3,23.4375003702008,4|0|0|0,2:3|0:0|0:0|0:0,0:0:0:0:
269,143,15807,2,0,P|283:90|291:43,1,93.75,8|2,2:2|2:0,2:0:0:0:
96,218,16268,2,0,P|103:256|117:309,1,93.75,2|2,2:0|2:0,2:0:0:0:
408,366,16730,2,0,P|320:360|291:323,1,140.625,2|0,2:0|0:0,0:0:0:0:
378,227,17191,2,0,P|383:254|380:286,1,46.875,4|0,2:3|0:0,0:0:0:0:
290,219,17422,2,0,P|288:204|288:181,2,23.4375
227,80,17653,6,8,P|199:109|190:134,1,46.875,10|0,2:2|0:0,2:2:0:0:
157,332,17884,6,0,P|155:326|127:297,1,46.875,2|0,2:0|0:0,0:0:0:0:
0,141,18115,2,0,P|50:171|100:159,1,93.75,2|2,2:0|2:0,2:0:0:0:
336,128,18576,6,0,B|269:155|315:211|229:235,1,140.625,4|0,2:3|0:0,2:0:0:0:
213,155,19038,1,4,2:3:0:0:
253,333,19268,5,2,2:0:0:0:
144,89,19499,1,10,2:2:0:0:
122,268,19730,5,2,2:0:0:0:
389,355,19961,1,2,2:0:0:0:
430,165,20191,5,2,2:0:0:0:
249,336,20422,2,0,P|193:348|96:359,1,140.625,2|0,2:0|0:0,0:0:0:0:
36,327,20884,1,4,2:3:0:0:
206,198,21345,1,8,2:2:0:0:
206,198,22038,5,4,2:3:0:0:
461,362,22268,1,4,2:3:0:0:
127,87,24576,5,4,0:3:0:0:
334,273,25038,1,8,0:0:0:0:
334,273,25961,5,4,0:3:0:0:
370,4,26422,1,4,0:3:0:0:
149,326,26884,1,8,0:0:0:0:
149,326,28268,5,4,0:3:0:0:
399,216,28730,1,8,0:0:0:0:
138,94,29422,5,4,2:3:0:0:
158,111,29538,1,4,2:3:0:0:
181,128,29653,2,0,P|167:89|172:31,1,93.75,4|2,2:3|2:0,2:0:0:0:
130,257,30115,2,0,P|93:236|62:188,1,93.75,2|4,2:0|2:3,2:0:0:0:
302,280,30576,2,0,P|237:302|195:383,1,140.625,8|0,2:2|0:0,2:0:0:0:
302,382,31038,1,2,2:0:0:0:
302,382,31961,5,4,2:3:0:0:
302,382,32422,2,0,P|322:341|331:198,1,187.500002961606,8|2,2:2|2:0,2:0:0:0:
331,201,33345,6,0,P|281:203|235:241,2,93.7500014808031,4|2|2,2:3|2:0|2:0,2:0:0:0:
443,254,34038,1,2,2:0:0:0:
418,125,34268,2,0,P|413:95|410:74,1,50,2|2,2:0|2:0,2:0:0:0:
126,3,36115,5,8,2:2:0:0:
126,3,36807,5,2,2:0:0:0:
78,66,37038,2,0,L|90:104,1,37.5,4|0,2:3|0:0,2:0:0:0:
100,119,37499,1,0,2:0:0:0:
100,119,37961,6,0,P|73:110|35:108,1,62.5,8|0,2:2|2:0,2:0:0:0:
181,215,38191,2,0,P|205:227|243:234,1,62.5,2|0,2:0|2:0,2:0:0:0:
57,242,38422,2,0,P|42:266|31:302,1,62.5,2|0,2:0|2:0,2:0:0:0:
324,135,38884,6,0,P|284:93|270:84,1,62.5,2|0,2:0|2:0,2:0:0:0:
406,227,39115,2,0,P|459:201|475:198,1,62.5,2|0,2:0|2:0,2:0:0:0:
324,345,39345,2,0,P|309:289|301:274,1,62.5,4|0,2:3|2:0,2:0:0:0:
125,149,39807,6,0,P|82:160|55:162,1,62.4999986030163,8|0,2:2|0:0,2:0:0:0:
200,89,40038,1,2,2:0:0:0:
40,370,40268,6,0,P|92:322|106:272,1,125,2|2,2:0|2:0,2:0:0:0:
322,179,40730,6,0,P|282:203|271:226,1,62.5,4|0,2:3|2:0,2:0:0:0:
409,127,40961,2,0,P|455:131|478:120,1,62.5,2|0,2:0|2:0,2:0:0:0:
325,77,41191,2,0,P|306:34|286:20,1,62.5,4|0,2:3|0:0,0:0:0:0:
397,278,41653,6,0,P|410:294|455:312,1,62.5,8|0,2:2|2:0,2:0:0:0:
202,146,41884,2,0,P|181:145|137:165,1,62.5,2|0,2:0|2:0,2:0:0:0:
370,109,42115,6,0,P|387:97|408:53,1,62.5,2|0,2:0|2:0,2:0:0:0:
228,297,42345,2,0,P|226:318|244:363,1,62.5,2|0,2:0|2:0,2:0:0:0:
416,199,42576,1,2,2:0:0:0:
256,30,42807,1,2,2:0:0:0:
281,187,43038,1,4,2:3:0:0:
281,187,43499,6,0,P|301:224|325:245,1,62.5,8|0,2:2|0:0,0:0:0:0:
256,30,43730,2,0,P|235:68|211:89,1,62.4999986030163,2|0,2:0|0:0,0:0:0:0:
30,215,43961,2,0,P|91:215|147:160,1,125,2|2,2:0|2:0,0:0:0:0:
460,383,44422,6,0,P|437:349|435:327,1,62.5,4|0,2:3|0:0,2:0:0:0:
315,238,44653,2,0,P|292:272|290:294,1,62.5,2|0,2:0|0:0,0:0:0:0:
491,163,44884,1,2,2:0:0:0:
394,34,45115,1,4,2:3:0:0:
259,94,45345,6,0,P|204:57|198:39,1,62.5,8|0,2:2|0:0,2:0:0:0:
24,223,45576,2,0,P|78:186|97:188,1,62.5,2|0,2:0|0:0,0:0:0:0:
27,7,45807,6,0,P|41:35|67:52,1,62.5,2|0,2:0|0:0,0:0:0:0:
225,255,46038,2,0,P|214:226|191:206,1,62.5,2|0,2:0|0:0,2:0:0:0:
34,368,46268,6,0,P|57:325|137:273,1,125,2|2,2:0|2:0,0:0:0:0:
375,360,46730,1,4,2:3:0:0:
375,360,47191,6,0,P|404:332|420:302,1,62.5,8|0,2:2|0:0,2:0:0:0:
305,176,47422,2,0,P|321:212|344:237,1,62.5,2|0,2:0|0:0,0:0:0:0:
470,75,47653,2,0,P|486:61|508:26,1,62.5,2|0,2:0|0:0,2:0:0:0:
253,61,47884,6,0,P|299:56|345:44,1,62.5,2|0,2:0|0:0,0:0:0:0:
507,220,48115,2,0,P|463:212|415:212,1,62.5,4|0,2:3|0:0,2:0:0:0:
211,162,48345,1,2,2:0:0:0:
188,370,48576,2,0,P|228:336|225:249,1,125,4|0,2:3|0:0,0:0:0:0:
97,170,49038,6,0,P|111:210|140:248,1,62.5,8|0,2:2|0:0,0:0:0:0:
307,89,49268,2,0,P|317:72|332:33,1,62.5,2|0,2:0|0:0,0:0:0:0:
445,210,49499,2,0,P|450:247|498:324,1,125,2|0,2:0|2:0,0:0:0:0:
351,278,49961,5,2,2:0:0:0:
455,64,50191,1,2,2:0:0:0:
218,100,50422,1,4,2:3:0:0:
218,100,50884,6,0,P|216:135|211:174,1,62.5,8|2,2:2|2:0,2:0:0:0:
357,340,51345,2,0,P|354:312|351:278,1,62.5,2|2,2:0|2:0,2:0:0:0:
131,277,51807,6,0,P|173:290|209:295,1,62.5,4|0,2:3|2:0,2:0:0:0:
405,127,52038,2,0,P|361:134|326:144,1,62.5,2|0,2:0|2:0,2:0:0:0:
170,9,52268,1,2,2:0:0:0:
253,73,52499,1,4,2:3:0:0:
113,173,52730,6,0,P|86:123|55:91,1,62.5,8|0,2:2|0:0,2:0:0:0:
191,293,52961,2,0,P|218:243|249:211,1,62.5,2|0,2:0|0:0,0:0:0:0:
73,383,53191,1,2,2:0:0:0:
403,231,53422,6,0,B|341:251|365:291|294:314,1,125,2|2,2:0|2:0,0:0:0:0:
466,346,53884,1,2,2:0:0:0:
348,133,54115,1,4,2:3:0:0:
348,133,54576,6,0,P|366:84|365:45,1,62.5,8|0,2:2|0:0,2:0:0:0:
246,259,54807,2,0,P|223:212|220:173,1,62.5,2|0,2:0|0:0,0:0:0:0:
67,92,55038,6,0,P|117:80|209:94,1,125,2|2,2:0|2:0,2:0:0:0:
74,253,55499,5,4,2:3:0:0:
255,21,55730,1,2,2:0:0:0:
397,251,55961,2,0,P|439:236|437:139,1,140.625002221205,2|0,2:0|0:0,0:0:0:0:
444,60,56422,6,0,P|437:50|428:44,1,12.5,8|0,2:2|2:0,2:0:0:0:
336,100,56653,6,0,P|340:112|361:135,1,37.5,2|0,2:0|2:0,2:0:0:0:
255,21,56884,6,0,P|244:18|193:28,1,50,2|0,2:0|2:0,2:0:0:0:
105,20,57115,6,0,P|101:32|107:91,1,62.5,2|0,2:0|2:0,2:0:0:0:
146,186,57345,6,0,P|157:185|217:138,1,75,2|0,2:0|2:0,2:0:0:0:
41,201,57576,6,0,P|55:243|92:286,1,87.5,2|0,2:0|2:0,2:0:0:0:
190,372,57807,6,0,P|198:364|200:261,1,100,4|0,2:3|2:0,2:0:0:0:
165,56,58038,6,0,P|169:101|226:161,1,112.5,2|0,2:0|2:0,2:0:0:0:
400,167,58268,6,0,P|334:172|277:256,1,125,8|0,2:2|2:0,2:0:0:0:
482,233,58730,6,0,P|508:148|511:69,1,125,2|4,2:0|2:3,0:0:0:0:
440,58,59076,1,4,2:3:0:0:
440,58,59191,2,0,P|390:49|362:39,1,62.5,4|0,2:3|0:0,2:0:0:0:
209,152,59422,2,0,P|231:145|270:140,1,62.4999986030163,2|0,2:0|0:0,0:0:0:0:
66,35,59653,2,0,P|81:128|59:230,1,187.499995809049,2|0,2:0|0:0,0:0:0:0:
207,301,60115,6,0,P|193:270|192:217,1,62.5,8|0,2:2|0:0,2:0:0:0:
347,322,60345,2,0,P|336:356|332:383,1,62.5,2|0,2:0|0:0,0:0:0:0:
469,247,60576,1,2,2:0:0:0:
362,81,60807,2,0,P|311:84|273:175,1,125,2|2,2:0|2:0,0:0:0:0:
482,46,61268,5,2,2:0:0:0:
469,247,61499,1,4,2:3:0:0:
469,247,61961,5,8,2:2:0:0:
337,369,62191,1,2,2:0:0:0:
375,204,62422,1,2,2:0:0:0:
478,364,62653,5,2,2:0:0:0:
250,214,62884,1,4,2:3:0:0:
465,54,63115,1,2,2:0:0:0:
375,204,63345,5,2,2:0:0:0:
307,257,66576,22,1,P|394:146|361:119,1,187.499995809052,4|0,0:3|0:0,0:0:0:0:
461,318,66807,1,2,0:0:0:0:
142,234,67038,6,1,B|232:262|174:321|274:357,1,187.500002961606,4|0,0:3|0:0,0:0:0:0:
306,164,67268,1,2,0:0:0:0:
58,380,67499,6,1,P|125:335|134:216,1,187.499995809049,8|0,0:0|0:0,0:0:0:0:
77,330,67730,2,1,P|116:259|79:186,1,124.999997206046,2|0,0:0|0:0,0:0:0:0:
12,27,67961,6,1,P|41:112|185:107,1,249.999994412058,2|0,0:0|0:0,0:0:0:0:
129,21,68307,1,0,0:0:0:0:
112,50,68422,1,2,0:0:0:0:
320,263,68653,85,2,2:2:0:0:
146,303,68884,6,0,P|204:313|267:356,1,125.25,4|0,2:3|0:0,0:0:0:0:
299,97,69115,2,0,P|266:169|206:215,1,125,2|0,2:2|0:0,0:0:0:0:
195,44,69345,5,10,2:2:0:0:
320,263,69576,1,2,2:2:0:0:
512,48,69807,2,0,P|406:77|466:170,1,250.33332824707,2|0,2:2|2:2,2:0:0:0:
100,328,70268,6,0,P|147:302|264:315,1,125.916664123535,4|0,2:3|0:0,2:0:0:0:
451,361,70499,1,2,2:2:0:0:
451,361,70730,6,0,P|414:301|408:231,1,125.416664123535,4|0,2:3|0:0,2:0:0:0:
512,48,70961,1,2,2:2:0:0:
512,48,71191,6,0,P|457:105|369:101,1,126,8|0,2:2|0:0,2:0:0:0:
181,0,71422,2,0,P|255:23|291:72,1,125.75,2|0,2:2|0:0,0:0:0:0:
286,300,71653,2,0,P|290:194|298:179,1,125.75,2|0,2:2|0:0,0:0:0:0:
185,329,71999,5,0,0:0:0:0:
182,353,72115,2,0,P|136:339|117:325,1,62.5,2|0,2:2|0:0,2:0:0:0:
14,236,72345,2,0,P|58:232|96:213,1,62.9166679382324,2|0,2:2|0:0,0:0:0:0:
117,47,72576,2,0,P|99:90|81:120,1,62.7916679382324,4|0,2:3|0:0,2:0:0:0:
200,190,72807,1,2,2:2:0:0:
200,190,73038,6,0,P|321:171|286:117,1,187.5,10|0,2:2|0:0,0:0:0:0:
424,42,73268,2,0,P|366:91|398:203,1,188.41667175293,2|0,2:2|0:0,0:0:0:0:
401,351,73499,2,0,P|411:261|316:227,1,188.16667175293,2|0,2:2|0:0,0:0:0:0:
277,333,73730,5,4,2:3:0:0:
277,333,73845,1,4,2:3:0:0:
277,333,73961,1,4,2:3:0:0:
197,16,74191,5,2,2:2:0:0:
117,153,74422,2,0,P|71:123|48:48,1,125.75,2|0,2:2|0:0,0:0:0:0:
300,231,74653,2,0,P|240:234|181:294,1,147.033849716187,4|0,2:3|0:0,0:0:0:0:
407,143,74884,6,0,P|444:105|467:27,1,125.25,8|0,2:2|0:0,2:0:0:0:
501,319,75115,1,2,2:2:0:0:
501,319,75345,6,0,B|364:302|408:400|257:368,1,250,2|0,2:0|0:0,0:0:0:0:
158,170,75691,5,0,0:0:0:0:
158,170,75807,2,0,P|206:116|206:39,1,125,2|0,2:2|0:0,0:0:0:0:
15,243,76038,2,0,P|76:275|122:367,1,125,2|0,2:2|0:0,0:0:0:0:
33,112,76268,5,4,2:3:0:0:
5,368,76499,1,2,2:2:0:0:
214,273,76730,6,0,P|259:218|267:165,1,125,10|0,2:2|2:0,2:0:0:0:
418,372,76961,2,0,P|373:316|365:263,1,125,2|0,2:2|2:0,2:0:0:0:
387,83,77191,2,0,P|475:143|471:277,1,250,2|2,2:2|2:2,2:0:0:0:
267,166,77653,6,0,P|179:135|169:104,1,125,4|0,2:3|0:0,0:0:0:0:
272,26,77884,1,2,2:2:0:0:
0,116,78115,6,0,P|87:148|97:180,1,125,4|0,2:3|0:0,0:0:0:0:
0,266,78345,1,2,2:2:0:0:
266,166,78576,6,0,P|214:220|156:220,1,125,10|0,2:2|2:0,2:0:0:0:
412,181,78807,2,0,P|384:109|409:56,1,125,2|0,2:2|2:0,2:0:0:0:
329,293,79038,2,0,P|370:314|397:385,1,125,2|0,2:2|0:0,0:0:0:0:
106,357,79499,5,2,2:2:0:0:
176,88,79730,1,2,2:2:0:0:
265,353,79961,5,4,2:3:0:0:
67,104,80191,1,2,2:2:0:0:
341,249,80422,5,10,2:2:0:0:
45,221,80653,1,2,2:2:0:0:
301,110,80884,1,2,2:2:0:0:
177,356,81115,1,4,2:3:0:0:
177,356,81230,1,4,2:3:0:0:
177,356,81345,1,4,2:3:0:0:
170,274,83653,6,0,P|144:271|124:265,1,46.875,4|0,2:3|2:0,2:0:0:0:
254,197,84115,6,0,P|272:275|343:305,1,125,8|0,2:2|0:0,0:0:0:0:
332,103,84345,2,0,P|264:62|193:92,1,125,2|0,2:2|0:0,0:0:0:0:
374,217,84576,2,0,P|447:184|461:108,1,125,2|2,2:2|2:2,0:0:0:0:
354,363,85038,6,4,P|315:336|223:350,1,125,4|0,2:3|0:0,2:3:0:0:
73,375,85268,1,2,2:2:0:0:
73,375,85499,6,0,P|119:365|172:290,1,125,4|0,2:3|0:0,2:0:0:0:
110,157,85730,1,2,2:2:0:0:
110,157,85961,6,0,P|74:204|86:282,1,125,8|0,2:2|0:0,2:0:0:0:
20,65,86191,6,0,P|78:52|120:-13,1,125,2|0,2:2|0:0,0:0:0:0:
256,181,86422,2,0,P|213:135|210:76,1,125,2|0,2:2|0:0,0:0:0:0:
404,263,86768,5,0,0:0:0:0:
404,263,86884,2,0,P|377:305|404:371,1,125,2|0,2:2|0:0,0:0:0:0:
323,118,87115,2,0,P|373:122|420:69,1,125,2|0,2:2|0:0,0:0:0:0:
136,271,87345,2,0,P|206:261|241:297,1,125,4|0,2:3|0:0,0:0:0:0:
210,75,87576,1,2,2:2:0:0:
210,75,87807,6,0,P|128:88|6:2,1,187.499995809049,10|0,2:2|0:0,0:0:0:0:
0,23,88038,6,0,P|83:84|119:158,1,187.5,2|0,2:2|0:0,0:0:0:0:
33,340,88268,6,0,P|29:284|146:292,1,187.5,2|0,2:2|0:0,0:0:0:0:
150,375,88499,1,4,2:3:0:0:
150,375,88615,1,4,2:3:0:0:
150,375,88730,1,4,2:3:0:0:
328,191,88961,5,2,2:2:0:0:
294,43,89191,6,0,P|238:69|208:140,1,125,0|0,2:0|0:0,2:0:0:0:
463,168,89422,2,0,P|450:108|388:62,1,125,4|0,2:3|0:0,0:0:0:0:
367,339,89653,6,0,P|423:316|457:247,1,125,10|0,2:2|0:0,2:0:0:0:
194,221,89884,2,0,P|208:279|274:321,1,125,2|0,2:0|0:0,0:0:0:0:
75,137,90115,6,0,P|48:190|48:263,1,125,2|0,2:0|0:0,0:0:0:0:
387,83,90576,6,0,B|249:95|318:217|172:222,1,250,0|0,2:0|0:0,0:0:0:0:
381,205,91038,1,4,2:3:0:0:
99,59,91268,6,2,P|133:60|160:67,1,62.5,2|0,2:2|2:0,2:2:0:0:
333,306,91499,2,2,P|304:324|278:333,1,62.5,10|0,2:2|2:0,2:2:0:0:
340,66,91740,6,0,P|343:99|339:127,1,62.5,2|0,0:0|0:0,0:0:0:0:
119,324,91971,2,0,P|98:298|86:273,1,62.5,2|0,0:0|0:0,0:0:0:0:
228,190,92191,5,2,2:2:0:0:
466,58,92422,6,0,P|456:136|468:201,1,125,4|0,2:3|0:0,0:0:0:0:
494,372,92653,1,2,2:2:0:0:
494,372,92884,6,0,P|444:312|388:276,1,125,4|0,2:3|0:0,0:0:0:0:
228,190,93115,1,2,2:2:0:0:
173,383,93345,5,8,2:2:0:0:
262,82,93576,1,2,2:0:0:0:
127,189,93807,2,0,P|143:248|317:259,1,250,2|0,2:2|0:0,2:0:0:0:
134,48,94268,5,2,2:2:0:0:
67,347,94499,1,2,2:2:0:0:
263,173,94730,1,4,2:3:0:0:
28,116,94961,1,0,2:0:0:0:
192,287,95191,5,8,2:2:0:0:
41,18,95422,1,0,2:0:0:0:
20,223,95653,1,2,2:2:0:0:
20,223,96115,5,0,0:0:0:0:
