osu file format v14

[General]
AudioFilename: audiocut.mp3
AudioLeadIn: 0
PreviewTime: 66461
Countdown: 0
SampleSet: Normal
StackLeniency: 0.7
Mode: 0
LetterboxInBreaks: 0
WidescreenStoryboard: 1

[Editor]
DistanceSpacing: 2.4
BeatDivisor: 8
GridSize: 8
TimelineZoom: 2.2

[Metadata]
Title:On My Own
TitleUnicode:On My Own
Artist:Darci
ArtistUnicode:Darci
Creator:Pieseu
Version:Insane
Source:
Tags:
BeatmapID:4290796
BeatmapSetID:956964

[Difficulty]
HPDrainRate:7
CircleSize:5
OverallDifficulty:8
ApproachRate:9
SliderMultiplier:1.4
SliderTickRate:1

[Events]
//Background and Video events
0,0,"bg.jpg",0,0
//Break Periods
2,22469,28823
2,63545,65976
//Storyboard Layer 0 (Background)
//Storyboard Layer 1 (Fail)
//Storyboard Layer 2 (Pass)
//Storyboard Layer 3 (Foreground)
//Storyboard Layer 4 (Overlay)
//Storyboard Sound Samples

[TimingPoints]
115,461.538461538462,4,1,0,100,1,0
8423,-133.333333333333,4,1,0,100,0,0
37961,-100,4,1,0,100,0,0
50884,-200,4,1,0,100,0,0
51807,-100,4,1,0,100,0,0
56653,-95.2380952380952,4,1,0,100,0,0
56884,-90.9090909090909,4,1,0,100,0,0
57346,-83.3333333333333,4,1,0,100,0,0
57576,-80,4,1,0,100,0,0
57807,-76.9230769230769,4,1,0,100,0,0
58038,-74.0740740740741,4,1,0,100,0,0
58269,-100,4,1,0,100,0,0
67500,-66.6666666666667,4,1,0,100,0,0
67961,-100,4,1,0,100,0,0
69346,-66.6666666666667,4,1,0,100,0,0
81345,-200,4,1,0,100,0,0
83653,-285.714285714286,4,1,0,100,0,0
85037,-66.6666666666667,4,1,0,100,0,0

[Colours]
Combo1 : 255,192,0
Combo2 : 0,202,0
Combo3 : 18,124,255
Combo4 : 242,24,57

[HitObjects]
33,172,7500,6,0,B|80:157|107:178|107:178|140:202|193:187,1,140,4|4,2:3|2:3,2:0:0:0:
119,57,8423,6,8,P|140:90|145:123,1,52.5000020027161,8|0,2:2|2:0,2:2:0:0:
110,284,8884,2,0,P|131:252|136:219,1,52.5000020027161,0|0,2:0|2:0,2:0:0:0:
87,166,9346,1,0,2:0:0:0:
87,166,9807,1,4,2:3:0:0:
87,166,10269,2,0,P|113:173|148:169,1,52.5000020027161,8|0,2:2|2:0,2:0:0:0:
52,98,10730,2,0,P|25:96|0:103,1,52.5000020027161,0|0,2:0|2:0,2:0:0:0:
37,220,11192,6,4,P|19:239|9:263,1,52.5000020027161,4|0,2:3|2:0,2:2:0:0:
95,267,11653,2,0,P|94:293|101:318,1,52.5000020027161,4|0,2:3|2:0,2:0:0:0:
192,370,12115,2,0,P|177:348|169:323,1,52.5000020027161,8|0,2:2|2:0,2:0:0:0:
177,210,12576,6,0,P|191:231|199:256,1,52.5000020027161,0|0,2:0|2:0,2:0:0:0:
109,179,13038,2,0,P|136:135|189:134,1,105.000004005432,0|4,2:0|2:3,2:0:0:0:
334,162,13961,6,0,L|278:176,1,52.5000020027161,8|0,2:2|2:0,2:0:0:0:
249,237,14423,2,0,L|305:251,1,52.5000020027161,0|4,2:0|2:3,2:0:0:0:
306,258,14769,1,4,2:3:0:0:
312,268,14884,1,4,2:3:0:0:
351,359,15576,5,4,2:3:0:0:
456,288,15807,2,0,L|452:219,1,52.5000020027161,8|0,2:2|2:0,2:0:0:0:
388,114,16269,2,0,L|384:183,1,52.5000020027161,0|0,2:0|2:0,2:0:0:0:
325,43,16730,1,0,2:0:0:0:
325,43,17192,5,4,2:3:0:0:
325,43,17653,6,8,B|295:58|295:58|276:88,1,52.5000020027161,8|0,2:2|2:0,2:2:0:0:
226,172,18115,2,0,B|256:157|256:157|275:127,1,52.5000020027161,0|0,2:0|2:0,2:0:0:0:
160,8,18576,2,0,B|192:32|192:32|198:65|198:65|236:101,1,105.000004005432,4|4,2:3|2:3,2:0:0:0:
264,136,19269,5,0,2:0:0:0:
325,178,19500,1,8,2:2:0:0:
330,109,19730,1,0,2:0:0:0:
252,203,19961,1,0,2:0:0:0:
381,214,20192,1,0,2:0:0:0:
325,178,20423,5,0,2:0:0:0:
325,178,20884,1,4,2:3:0:0:
325,178,21346,1,8,2:2:0:0:
325,178,22038,5,4,2:3:0:0:
405,90,22269,1,4,2:3:0:0:
110,142,29423,5,4,2:3:0:0:
130,157,29538,1,4,2:3:0:0:
153,170,29653,2,0,P|150:117|156:103,1,52.5000020027161,4|0,2:3|2:0,2:0:0:0:
104,264,30115,2,0,P|74:219|73:204,1,52.5000020027161,0|4,2:0|2:3,2:0:0:0:
224,296,30576,2,0,P|152:340|140:360,1,105.000004005432,8|0,2:2|2:0,2:0:0:0:
256,192,31961,5,4,2:3:0:0:
255,209,32423,2,0,P|281:217|307:215,1,52.5000020027161,8|0,2:2|2:0,2:0:0:0:
424,189,32884,2,0,P|401:183|372:183,1,52.5000020027161,0|0,2:0|2:0,2:0:0:0:
250,133,33346,2,0,P|273:127|302:127,1,52.5000020027161,4|0,2:3|2:0,2:0:0:0:
417,76,33807,2,0,P|394:82|365:82,1,52.5000020027161,0|0,2:0|2:0,2:0:0:0:
455,15,34269,2,0,P|492:65|473:121,1,105.000004005432,0|0,2:0|2:0,2:0:0:0:
454,235,36115,5,8,2:2:0:0:
454,235,36807,5,0,2:0:0:0:
281,273,37038,2,0,L|388:250,1,105.000004005432,4|0,2:3|2:0,2:0:0:0:
326,126,37961,2,0,L|340:182,1,35,8|0,2:2|2:0,2:0:0:0:
368,60,38192,2,0,L|408:45,1,35,0|0,2:0|2:0,2:0:0:0:
287,52,38423,2,0,L|244:32,1,35,0|0,2:0|2:0,2:0:0:0:
187,237,38884,6,0,L|184:274,1,35,0|0,2:0|2:0,2:0:0:0:
99,143,39115,2,0,L|101:177,1,35,0|0,2:0|2:0,2:0:0:0:
175,83,39346,2,0,L|177:48,1,35,4|0,2:3|2:0,2:0:0:0:
250,165,39807,6,0,B|281:165|281:165|296:173|296:173|339:174,1,70,8|0,2:2|2:0,2:0:0:0:
387,64,40269,2,0,B|356:64|356:64|341:72|341:72|298:73,1,70,0|0,2:0|2:0,2:0:0:0:
215,11,40730,2,0,L|222:58,1,35,4|0,2:3|2:0,2:0:0:0:
153,111,40961,2,0,L|156:62,1,35,0|0,2:0|2:0,2:0:0:0:
86,152,41192,5,4,2:3:0:0:
86,152,41653,6,0,P|72:169|65:190,1,35,8|0,2:2|2:0,2:0:0:0:
124,226,41884,2,0,P|123:248|130:268,1,35,0|0,2:0|2:0,2:0:0:0:
202,228,42115,2,0,P|218:242|239:250,1,35,0|0,2:0|2:0,2:0:0:0:
258,172,42346,2,0,P|279:168|299:157,1,35,0|0,2:0|2:0,2:0:0:0:
303,53,42576,6,0,P|297:69|288:84,1,35,0|0,2:0|2:0,2:0:0:0:
209,25,42807,2,0,P|218:39|223:56,1,35,0|0,2:0|2:0,2:0:0:0:
130,43,43038,1,4,2:3:0:0:
174,103,43500,5,8,2:2:0:0:
130,43,43730,1,0,2:0:0:0:
60,66,43961,1,0,2:0:0:0:
60,139,44192,1,0,2:0:0:0:
130,162,44423,2,0,L|135:253,1,70,4|0,2:3|2:0,2:0:0:0:
243,143,44884,1,0,2:0:0:0:
246,73,45115,1,4,2:3:0:0:
294,204,45346,6,0,P|300:261|292:284,2,70,8|0|0,2:2|2:0|2:0,2:0:0:0:
415,179,46038,2,0,P|409:122|417:99,2,70,0|0|0,2:0|2:0|2:0,2:0:0:0:
319,41,46730,1,4,2:3:0:0:
329,33,47192,6,0,L|411:30,1,70,8|0,2:2|2:0,2:0:0:0:
232,83,47653,2,0,L|150:80,1,70,0|0,2:0|2:0,2:0:0:0:
344,128,48115,2,0,L|413:130,1,70,4|0,2:3|2:0,2:0:0:0:
261,195,48576,1,4,2:3:0:0:
261,195,49038,5,8,2:2:0:0:
197,263,49269,1,0,2:0:0:0:
244,341,49500,1,0,2:0:0:0:
334,317,49730,1,0,2:0:0:0:
352,227,49961,2,0,L|355:139,1,70,0|0,2:0|2:0,2:0:0:0:
275,264,50423,1,4,2:3:0:0:
275,264,50884,6,0,L|271:308,1,35,8|0,2:2|2:0,2:0:0:0:
411,353,51346,2,0,L|403:318,1,35,0|0,2:0|2:0,2:0:0:0:
467,179,51807,2,0,L|419:190,1,35,4|0,2:3|2:0,2:0:0:0:
438,110,52038,2,0,L|483:99,1,35,0|0,2:0|2:0,2:0:0:0:
383,57,52269,1,0,2:0:0:0:
314,205,52500,5,4,2:3:0:0:
217,297,52730,2,0,P|251:302|284:292,1,70,8|0,2:2|2:0,2:0:0:0:
314,205,53192,2,0,P|279:199|246:209,1,70,0|0,2:0|2:0,2:0:0:0:
110,217,53653,2,0,P|143:207|177:212,1,70,0|0,2:0|2:0,2:0:0:0:
48,264,54115,1,4,2:3:0:0:
56,256,54576,6,0,P|42:202|62:168,1,70,8|0,2:2|2:0,2:0:0:0:
101,78,55038,2,0,P|114:131|94:165,1,70,0|0,2:0|2:0,2:0:0:0:
32,8,55500,2,4,B|64:16|64:16|104:8,2,70,4|0|0,2:3|2:0|2:0,2:2:0:0:
24,16,56423,6,0,L|32:64,1,35,8|0,2:2|2:0,2:0:0:0:
40,16,56653,6,0,L|48:64,1,36.749998878479,0|0,2:0|2:0,2:0:0:0:
56,16,56884,6,0,L|64:64,1,38.5000011749268,0|0,2:0|2:0,2:0:0:0:
72,16,57114,6,0,L|80:64,1,38.5000011749268,0|0,2:0|2:0,2:0:0:0:
88,16,57346,6,0,L|96:64,1,41.9999987182618,0|0,2:0|2:0,2:0:0:0:
104,16,57576,6,0,L|112:64,1,43.75,0|0,2:0|2:0,2:0:0:0:
192,104,57807,2,0,L|184:56,1,45.4999979171754,4|0,2:3|2:0,2:0:0:0:
176,104,58038,2,0,L|168:56,1,47.2500001802444,0|0,2:0|2:0,2:0:0:0:
144,180,58269,6,0,B|184:172|184:172|224:180,2,70,8|0|0,2:2|2:0|2:0,2:0:0:0:
279,269,58961,1,4,2:3:0:0:
279,252,59076,1,4,2:3:0:0:
279,230,59192,2,0,P|287:182|271:134,1,70,4|0,2:3|2:0,2:0:0:0:
136,272,59653,1,0,2:0:0:0:
212,287,59884,5,4,2:3:0:0:
93,339,60115,2,0,P|125:353|160:352,1,70,8|0,2:2|2:0,2:0:0:0:
320,368,60576,2,0,P|279:368|240:344,1,70,0|0,2:0|2:0,2:0:0:0:
368,312,61038,2,0,P|400:325|434:324,1,70,0|0,2:0|2:0,2:0:0:0:
288,296,61500,1,4,2:3:0:0:
288,296,61961,6,0,P|296:240|288:208,1,70,8|0,2:2|2:0,2:0:0:0:
240,96,62423,2,0,P|232:144|240:184,1,70,0|0,2:0|2:0,2:0:0:0:
208,32,62884,2,0,P|240:24|280:40,2,70,4|0|0,2:3|2:0|2:0,2:0:0:0:
280,268,66576,5,4,2:3:0:0:
190,239,66807,1,2,2:2:0:0:
190,144,67038,1,4,2:3:0:0:
280,115,67269,1,2,2:2:0:0:
336,192,67500,2,0,P|386:199|442:183,1,105,10|2,2:2|2:2,2:0:0:0:
416,40,67961,2,0,P|366:33|310:49,1,105,2|0,2:2|2:0,2:0:0:0:
221,70,68423,5,2,2:2:0:0:
150,133,68653,1,2,2:2:0:0:
189,219,68884,1,4,2:3:0:0:
283,208,69116,1,2,2:2:0:0:
189,219,69346,6,0,L|136:298,1,52.5000020027161,10|0,2:2|2:0,2:0:0:0:
191,366,69576,2,0,L|231:296,1,52.5000020027161,2|0,2:2|2:0,2:0:0:0:
326,285,69807,2,0,L|281:367,1,52.5000020027161,2|0,2:2|2:0,2:0:0:0:
283,208,70038,1,2,2:2:0:0:
374,206,70269,6,0,P|341:167|336:116,1,105.000004005432,4|2,2:3|2:2,2:0:0:0:
375,24,70730,2,0,P|371:76|337:115,1,105.000004005432,4|2,2:3|2:2,2:0:0:0:
241,91,71192,2,0,P|292:88|336:115,1,105.000004005432,8|2,2:2|2:2,2:0:0:0:
339,121,71653,1,2,2:2:0:0:
275,200,72115,6,0,B|300:149|300:149|348:114,1,105.000004005432,2|2,2:2|2:2,2:0:0:0:
362,256,72576,2,0,B|333:304|333:304|288:340,1,105.000004005432,4|2,2:3|2:2,2:0:0:0:
417,182,73038,1,10,2:2:0:0:
324,169,73269,1,2,2:2:0:0:
464,260,73500,1,2,2:2:0:0:
374,112,73730,1,4,2:3:0:0:
374,112,73846,1,4,2:3:0:0:
374,112,73961,5,4,2:3:0:0:
473,122,74192,1,2,2:2:0:0:
493,219,74422,1,2,2:2:0:0:
407,269,74653,1,4,2:3:0:0:
333,203,74884,2,0,L|377:102,1,105.000004005432,8|2,2:2|2:2,2:0:0:0:
321,299,75346,1,0,2:0:0:0:
321,299,75807,5,2,2:2:0:0:
265,222,76037,1,2,2:2:0:0:
175,251,76268,1,4,2:3:0:0:
175,346,76499,1,2,2:2:0:0:
265,375,76730,2,0,L|280:317,1,52.5000020027161,10|0,2:2|2:0,2:0:0:0:
251,171,76961,2,0,L|266:229,1,52.5000020027161,2|0,2:2|2:0,2:0:0:0:
329,141,77192,2,0,L|333:82,1,52.5000020027161,2|0,2:2|2:0,2:0:0:0:
386,204,77423,1,2,2:2:0:0:
472,170,77653,5,4,2:3:0:0:
452,267,77884,1,2,2:2:0:0:
299,228,78115,1,4,2:3:0:0:
274,318,78346,1,2,2:2:0:0:
405,366,78576,2,0,L|393:307,1,52.5000020027161,10|0,2:2|2:0,2:0:0:0:
462,215,78807,2,0,L|450:274,1,52.5000020027161,2|0,2:2|2:0,2:0:0:0:
416,137,79038,1,2,2:2:0:0:
416,137,79500,5,2,2:2:0:0:
298,83,79730,1,2,2:2:0:0:
445,72,79961,5,4,2:3:0:0:
332,91,80191,1,2,2:2:0:0:
473,9,80423,5,10,2:2:0:0:
360,101,80653,1,2,2:2:0:0:
490,166,80884,1,2,2:2:0:0:
349,208,81115,1,4,2:3:0:0:
349,208,81230,1,4,2:3:0:0:
349,208,81345,6,0,L|390:203,1,35,4|2,2:3|2:2,2:0:0:0:
499,287,81807,2,0,L|464:287,1,35,2|2,2:2|2:2,2:0:0:0:
349,343,82269,2,0,L|374:306,1,35,2|2,2:2|2:2,2:0:0:0:
258,327,82730,1,2,2:2:0:0:
258,327,83653,6,0,L|253:365,1,36.749998878479,4|0,2:3|2:0,2:0:0:0:
181,370,84115,1,8,2:2:0:0:
96,342,84346,1,2,2:2:0:0:
96,253,84576,1,2,2:2:0:0:
181,225,84807,1,2,2:2:0:0:
360,216,85037,6,4,P|333:161|344:110,1,105.000004005432,4|2,2:3|2:2,2:3:0:0:
395,39,85499,2,0,P|373:96|328:122,1,105.000004005432,4|2,2:3|2:2,2:0:0:0:
242,106,85961,2,0,P|292:97|339:119,1,105.000004005432,8|2,2:2|2:2,2:0:0:0:
335,43,86423,5,2,2:2:0:0:
335,43,86884,1,2,2:2:0:0:
424,72,87115,1,2,2:2:0:0:
424,166,87346,1,4,2:3:0:0:
334,195,87576,1,2,2:2:0:0:
279,119,87807,1,10,2:2:0:0:
363,115,88038,1,2,2:2:0:0:
252,47,88269,1,2,2:2:0:0:
234,192,88500,1,4,2:3:0:0:
234,192,88615,1,4,2:3:0:0:
234,192,88730,6,0,L|241:298,1,105.000004005432,4|2,2:3|2:2,2:0:0:0:
150,188,89192,2,0,L|157:82,1,105.000004005432,0|4,2:0|2:3,2:0:0:0:
234,192,89653,2,0,L|241:86,1,105.000004005432,10|0,2:2|2:0,2:0:0:0:
308,223,90115,1,0,2:0:0:0:
327,224,90576,5,0,2:0:0:0:
345,224,91038,5,4,2:3:0:0:
445,199,91269,6,2,L|425:223,1,26.2500010013581,2|0,2:2|2:0,2:2:0:0:
391,340,91500,2,2,L|407:318,1,26.2500010013581,10|0,2:2|2:0,2:2:0:0:
505,301,91730,6,2,L|484:287,1,26.2500010013581,2|0,2:2|2:0,2:2:0:0:
345,224,91961,2,0,L|232:239,1,105.000004005432,2|2,2:2|2:2,2:0:0:0:
136,100,92423,5,4,2:3:0:0:
66,123,92653,1,2,2:2:0:0:
66,197,92884,1,4,2:3:0:0:
136,219,93115,1,2,2:2:0:0:
79,366,93346,2,0,P|97:318|75:272,1,105.000004005432,8|0,2:2|2:0,2:0:0:0:
180,312,93807,2,0,B|273:296|273:296|327:328,1,157.500006008148,2|0,2:2|2:0,2:0:0:0:
379,264,94269,6,0,P|354:220|361:164,1,105.000004005432,2|2,2:2|2:2,2:0:0:0:
339,71,94730,2,0,P|364:115|357:171,1,105.000004005432,4|0,2:3|2:0,2:0:0:0:
457,165,95192,6,2,P|409:181|355:165,1,105.000004005432,8|0,2:2|2:0,2:2:0:0:
504,104,95653,1,2,2:2:0:0:
