osu file format v14

[General]
AudioFilename: audio.mp3
AudioLeadIn: 0
PreviewTime: -1
Countdown: 0
SampleSet: Normal
StackLeniency: 0.7
Mode: 0
LetterboxInBreaks: 0
WidescreenStoryboard: 0

[Editor]
Bookmarks: 24396,34858
DistanceSpacing: 1
BeatDivisor: 6
GridSize: 16
TimelineZoom: 2.5

[Metadata]
Title:High speed Technique
TitleUnicode:High speed Technique
Artist:DarTokki
ArtistUnicode:DarTokki
Creator:Arcss
Version:High speed Tapping
Source:
Tags:
BeatmapID:2617672
BeatmapSetID:1259225

[Difficulty]
HPDrainRate:6
CircleSize:5
OverallDifficulty:6
ApproachRate:9
SliderMultiplier:1.4
SliderTickRate:1

[Events]
//Background and Video events
0,0,"78954361_p0.jpg",0,0
//Break Periods
2,54808,59691
//Storyboard Layer 0 (Background)
//Storyboard Layer 1 (Fail)
//Storyboard Layer 2 (Pass)
//Storyboard Layer 3 (Foreground)
//Storyboard Layer 4 (Overlay)
//Storyboard Sound Samples

[TimingPoints]
22069,344.827586206897,4,1,0,100,1,0
22069,-66.6666666666667,4,1,0,100,0,0
24741,344.827586206897,4,1,0,100,1,0
24741,-66.6666666666667,4,1,0,100,0,0
26146,344.827586206897,4,1,0,100,1,0
26146,-50,4,1,0,100,0,0
27525,500,4,1,0,100,1,0
27525,-66.6666666666667,4,1,0,100,0,0
28775,-50,4,1,0,100,0,0
33025,-25,4,1,0,100,0,0
35775,-200,4,1,0,100,0,0
36441,-66.6666666666667,4,1,0,100,0,0
37025,-33.3333333333333,4,1,0,100,0,0
37525,-66.6666666666667,4,1,0,100,0,0
41441,-50,4,1,0,100,0,0
49525,-200,4,1,0,100,0,0
50025,-33.3333333333333,4,1,0,100,0,0
50858,-66.6666666666667,4,1,0,100,0,0
52108,-50,4,1,0,100,0,0
53775,-66.6666666666667,4,1,0,100,0,0
65525,-33.3333333333333,4,1,0,100,0,0
65941,-66.6666666666667,4,1,0,100,0,0

[HitObjects]
255,198,12440,5,0,0:0:0:0:
99,120,13130,1,0,0:0:0:0:
342,145,13819,1,0,0:0:0:0:
155,237,14509,1,0,0:0:0:0:
43,254,15199,2,0,L|10:99,3,140
469,130,16578,2,0,L|502:285,3,140
210,137,17957,2,0,L|285:117,7,70
208,205,19336,2,0,L|171:243,14,35
229,50,22069,6,0,P|182:127|149:209,1,157.500006008148
219,149,22758,2,0,P|259:225|282:300,1,157.500006008148
132,51,23448,2,0,P|93:94|91:118,2,52.5000020027161
108,130,23793,2,0,P|122:167|89:207,2,52.5000020027161
98,218,24137,2,0,P|67:257|74:290,2,52.5000020027161
109,281,24482,2,0,P|139:306|145:345,2,52.5000020027161
306,80,24768,6,0,L|369:184,1,105.000004005432
403,233,25112,1,0,0:0:0:0:
234,196,25284,1,0,0:0:0:0:
234,196,25371,1,0,0:0:0:0:
234,196,25457,1,0,0:0:0:0:
107,214,25629,1,0,0:0:0:0:
159,116,25802,1,0,0:0:0:0:
330,74,26146,6,0,P|370:150|393:225,1,157.500006008148
397,209,26490,2,0,P|372:134|335:64,1,157.500006008148
330,73,26835,2,0,P|367:143|391:218,1,157.500006008148
397,209,27180,2,0,P|372:134|335:64,1,157.500006008148
236,85,27525,6,0,L|118:173,1,140.000005340576
77,202,28025,2,0,L|172:139,1,105.000004005432
188,254,28400,1,0,0:0:0:0:
289,104,28608,1,0,0:0:0:0:
95,59,28858,6,0,L|-39:253,1,233.333333333333
227,89,29441,2,0,L|174:139,1,46.6666666666667
249,136,29608,2,0,L|295:88,1,46.6666666666667
298,153,29775,2,0,L|243:208,1,46.6666666666667
319,202,29941,2,0,L|365:154,1,46.6666666666667
367,225,30108,2,0,L|314:275,1,46.6666666666667
107,95,30358,6,0,L|13:244,1,140
109,259,30775,1,0,0:0:0:0:
109,259,30858,1,0,0:0:0:0:
109,259,30941,1,0,0:0:0:0:
229,244,31108,1,0,0:0:0:0:
266,140,31275,1,0,0:0:0:0:
141,67,31441,6,0,L|232:51,1,93.3333333333333
365,195,32191,1,0,0:0:0:0:
143,115,32358,1,0,0:0:0:0:
269,285,32525,1,0,0:0:0:0:
286,76,32691,1,0,0:0:0:0:
138,231,32858,1,0,0:0:0:0:
231,199,33025,6,0,P|107:178|134:143,2,186.666666666667
286,135,33525,2,0,P|410:156|383:191,2,186.666666666667
213,160,34441,2,0,L|362:84,1,93.3333333333333
213,160,34691,2,0,P|169:184|129:202,1,93.3333333333333
213,160,34941,2,0,L|296:202,1,93.3333333333333
213,160,35191,2,0,L|64:84,1,93.3333333333333
253,292,35525,5,0,0:0:0:0:
131,180,35775,2,0,L|125:196,1,11.6666666666667
264,99,36025,2,0,L|274:112,1,11.6666666666667
233,207,36441,2,0,L|311:225,1,70.0000026702882
368,236,36858,1,0,0:0:0:0:
432,146,37191,6,0,P|482:122|438:116,1,140.000005340576
282,80,37525,1,0,0:0:0:0:
255,102,37608,1,0,0:0:0:0:
229,123,37691,1,0,0:0:0:0:
78,184,37858,2,0,L|37:183,1,35.0000013351441
78,215,38025,2,0,L|37:214,1,35.0000013351441
78,251,38191,2,0,L|37:250,1,35.0000013351441
173,82,38525,5,0,0:0:0:0:
214,191,38691,1,0,0:0:0:0:
234,203,38775,1,0,0:0:0:0:
235,182,38858,1,0,0:0:0:0:
339,72,39025,1,0,0:0:0:0:
371,172,39191,1,0,0:0:0:0:
387,206,39275,1,0,0:0:0:0:
406,176,39358,1,0,0:0:0:0:
320,306,39525,1,0,0:0:0:0:
24,81,39858,6,0,L|172:54,1,140.000005340576
221,85,40358,1,0,0:0:0:0:
150,168,40525,2,0,L|70:207,1,70.0000026702882
188,216,40775,2,0,L|133:242,1,35.0000013351441
223,263,40941,2,0,L|168:289,1,35.0000013351441
255,311,41108,2,0,L|200:337,1,35.0000013351441
292,225,41441,6,0,L|357:154,1,93.3333333333333
426,108,41691,2,0,P|328:63|262:71,1,140
177,87,42025,1,0,0:0:0:0:
171,132,42108,1,0,0:0:0:0:
156,178,42191,1,0,0:0:0:0:
130,216,42275,1,0,0:0:0:0:
94,234,42358,1,0,0:0:0:0:
59,232,42441,1,0,0:0:0:0:
25,213,42525,1,0,0:0:0:0:
65,63,42608,6,0,L|98:122,1,46.6666666666667
171,61,42941,2,0,L|204:120,1,46.6666666666667
300,47,43191,2,0,L|317:93,2,46.6666666666667
331,124,43441,1,0,0:0:0:0:
344,159,43524,1,0,0:0:0:0:
357,193,43608,2,0,L|152:287,1,186.666666666667
28,147,44025,5,0,0:0:0:0:
110,68,44191,2,0,L|231:39,1,93.3333333333333
96,194,44525,1,0,0:0:0:0:
178,115,44691,2,0,L|299:86,1,93.3333333333333
171,242,45025,1,0,0:0:0:0:
253,163,45191,2,0,L|374:134,1,93.3333333333333
427,174,45525,6,0,L|336:276,1,93.3333333333333
368,301,45858,2,0,L|430:231,1,93.3333333333333
468,220,46108,1,0,0:0:0:0:
468,220,46191,1,0,0:0:0:0:
468,220,46275,1,0,0:0:0:0:
388,137,46358,2,0,B|354:102|303:56|303:56|254:112,1,186.666666666667
221,240,46858,6,0,L|88:236,1,93.3333333333333
98,277,47191,2,0,L|223:280,1,93.3333333333333
342,210,47608,1,0,0:0:0:0:
217,128,47775,1,0,0:0:0:0:
220,241,47941,2,0,L|91:239,1,93.3333333333333
123,268,48274,2,0,L|216:269,1,93.3333333333333
220,241,48608,2,0,L|91:239,1,93.3333333333333
123,268,48941,2,0,L|216:269,1,93.3333333333333
389,190,49525,6,0,L|382:203,1,11.6666666666667
222,97,49858,2,0,L|230:111,1,11.6666666666667
143,157,50191,6,0,P|105:112|67:86,1,70.0000026702882
114,179,50358,2,0,P|76:134|38:108,1,70.0000026702882
79,202,50525,2,0,P|41:157|3:131,1,70.0000026702882
46,230,50691,2,0,P|8:185|-30:159,1,70.0000026702882
9,270,50858,6,0,B|69:293|69:293|139:268,1,105.000004005432
151,274,51191,1,0,0:0:0:0:
175,284,51275,1,0,0:0:0:0:
190,293,51358,1,0,0:0:0:0:
254,275,51441,2,0,B|337:260|337:260|285:197|285:197|380:183,1,245.000009346009
494,160,52275,6,0,P|442:93|388:82,1,140
378,219,52691,1,0,0:0:0:0:
378,219,52775,1,0,0:0:0:0:
378,219,52858,1,0,0:0:0:0:
76,103,53108,2,0,L|-5:96,2,46.6666666666667
269,114,53525,1,0,0:0:0:0:
252,123,53608,1,0,0:0:0:0:
236,132,53691,1,0,0:0:0:0:
209,147,53775,2,0,B|84:234|84:234|290:227,1,350.000013351441
40,163,60441,6,0,L|101:192,1,35.0000013351441
220,37,60775,2,0,L|204:68,1,35.0000013351441
368,160,61108,2,0,L|397:99,1,35.0000013351441
410,283,61441,2,0,L|378:267,1,35.0000013351441
173,313,61775,2,0,L|202:252,1,35.0000013351441
0,184,63275,2,0,B|41:84|41:84|60:254|60:254|93:126|93:126|96:223|96:223|132:149|132:149|144:219|144:219|167:183|167:183|322:182,1,840.000032043458
237,114,65525,6,0,L|191:265,1,140.000005340576
23,256,65941,5,0,0:0:0:0:
58,230,66025,1,0,0:0:0:0:
93,217,66108,1,0,0:0:0:0:
134,213,66191,1,0,0:0:0:0:
180,217,66275,1,0,0:0:0:0:
225,240,66358,1,0,0:0:0:0:
261,257,66441,1,0,0:0:0:0:
296,267,66525,1,0,0:0:0:0:
337,280,66608,1,0,0:0:0:0:
380,281,66691,1,0,0:0:0:0:
424,266,66775,1,0,0:0:0:0:
457,239,66858,1,0,0:0:0:0:
476,207,66941,1,0,0:0:0:0:
472,173,67025,1,0,0:0:0:0:
453,146,67108,1,0,0:0:0:0:
426,122,67191,6,0,L|393:85,2,35.0000013351441
384,80,67441,5,0,0:0:0:0:
338,63,67525,1,0,0:0:0:0:
296,54,67608,1,0,0:0:0:0:
251,54,67691,1,0,0:0:0:0:
214,73,67775,1,0,0:0:0:0:
194,107,67858,1,0,0:0:0:0:
190,146,67941,1,0,0:0:0:0:
181,185,68025,1,0,0:0:0:0:
153,218,68108,1,0,0:0:0:0:
105,224,68191,1,0,0:0:0:0:
63,215,68275,1,0,0:0:0:0:
33,187,68358,1,0,0:0:0:0:
17,148,68441,1,0,0:0:0:0:
25,105,68525,6,0,L|57:71,2,35.0000013351441
