osu file format v14

[General]
AudioFilename: audio.mp3
AudioLeadIn: 0
PreviewTime: -1
Countdown: 0
SampleSet: None
StackLeniency: 1
Mode: 0
LetterboxInBreaks: 0
WidescreenStoryboard: 0

[Editor]
Bookmarks: 11383,149913,194913
DistanceSpacing: 1.2
BeatDivisor: 4
GridSize: 4
TimelineZoom: 2.1

[Metadata]
Title:White Noise (feat. Ryder)
TitleUnicode:White Noise (feat. Ryder)
Artist:Danrell
ArtistUnicode:Danrell
Creator:Butlergunner
Version:Static
Source:
Tags:
BeatmapID:1082116
BeatmapSetID:508814

[Difficulty]
HPDrainRate:6.4
CircleSize:4.2
OverallDifficulty:6
ApproachRate:8.7
SliderMultiplier:1.4
SliderTickRate:1

[Events]
//Background and Video events
0,0,"bg.jpg",0,0
//Break Periods
//Storyboard Layer 0 (Background)
//Storyboard Layer 1 (Fail)
//Storyboard Layer 2 (Pass)
//Storyboard Layer 3 (Foreground)
//Storyboard Sound Samples

[TimingPoints]
89.7083070427734,352.941176470588,4,2,0,100,1,0
90,-133.333333333333,4,2,0,70,0,0
10678,-100,4,2,0,80,0,0
11383,-100,4,2,0,90,0,0
33972,-80,4,2,0,100,0,0
35383,-100,4,2,0,90,0,0
46677,-100,4,2,0,100,0,0
55148,-100,4,2,0,70,0,0
55854,-100,4,2,0,80,0,0
56560,-100,4,2,0,90,0,0
57266,-80,4,2,0,100,0,0
57972,-100,4,2,0,90,0,1
80560,-100,4,2,0,80,0,0
103148,-80,4,2,0,100,0,0
104560,-100,4,2,0,80,0,0
115854,-100,4,2,0,100,0,0
124325,-100,4,2,0,70,0,0
125030,-100,4,2,0,80,0,0
125736,-100,4,2,0,90,0,0
126442,-80,4,2,0,100,0,0
127148,-100,4,2,0,90,0,1
149736,-100,4,2,0,70,0,0
161030,-100,4,2,0,100,0,0
169501,-100,4,2,0,70,0,0
170207,-100,4,2,0,80,0,0
170913,-100,4,2,0,90,0,0
171619,-100,4,2,0,100,0,0
172325,-100,4,2,0,90,0,1
194207,-100,4,2,0,100,0,0
194913,-100,4,2,0,80,0,0
197692,-100,4,2,0,70,0,0
200516,-100,4,2,0,60,0,0
203339,-100,4,2,0,50,0,0
206163,-100,4,2,0,40,0,0
208986,-100,4,2,0,30,0,0
211810,-100,4,2,0,20,0,0
214633,-100,4,2,0,10,0,0

[HitObjects]
103,142,89,5,0,0:0:0:0:
166,103,266,2,0,L|238:89,1,52.5000020027161
289,107,619,1,0,0:0:0:0:
342,156,795,2,0,L|368:222,1,52.5000020027161
290,334,1148,6,0,L|236:301,1,52.5000020027161
197,250,1501,1,0,0:0:0:0:
180,178,1677,1,0,0:0:0:0:
209,110,1854,2,0,L|260:57,1,52.5000020027161
360,154,2207,5,0,0:0:0:0:
379,224,2383,1,0,0:0:0:0:
356,294,2560,2,0,L|308:337,1,52.5000020027161
247,354,2913,1,0,0:0:0:0:
281,236,3089,5,0,0:0:0:0:
215,269,3266,1,0,0:0:0:0:
142,259,3442,1,0,0:0:0:0:
91,205,3619,2,0,L|53:140,1,52.5000020027161
126,33,3972,6,0,L|189:51,1,52.5000020027161
236,90,4325,1,0,0:0:0:0:
268,155,4501,1,0,0:0:0:0:
268,228,4677,2,0,L|243:280,1,52.5000020027161
77,325,5030,5,0,0:0:0:0:
127,271,5207,1,0,0:0:0:0:
191,236,5383,2,0,L|264:222,1,52.5000020027161
316,231,5736,1,0,0:0:0:0:
216,344,5913,5,0,0:0:0:0:
288,333,6089,2,0,L|356:300,1,52.5000020027161
381,252,6442,1,0,0:0:0:0:
399,180,6619,1,0,0:0:0:0:
311,37,6795,6,0,L|346:101,1,52.5000020027161
336,156,7148,1,0,0:0:0:0:
313,226,7325,1,0,0:0:0:0:
253,268,7501,2,0,L|192:294,1,52.5000020027161
81,221,7854,5,0,0:0:0:0:
117,157,8030,1,0,0:0:0:0:
173,109,8207,2,0,L|246:98,1,52.5000020027161
297,112,8560,1,0,0:0:0:0:
425,206,8736,5,0,0:0:0:0:
385,268,8913,1,0,0:0:0:0:
314,286,9089,1,0,0:0:0:0:
245,259,9266,2,0,L|186:220,1,52.5000020027161
150,85,9619,5,0,0:0:0:0:
222,75,9795,1,0,0:0:0:0:
294,89,9972,2,0,P|361:169|325:269,1,210.000008010865
168,319,10898,5,0,0:0:0:0:
68,196,11030,2,0,P|101:172|141:174,1,70
244,225,11383,6,0,B|292:353|408:365|468:237|452:145|308:237,1,385
293,167,12442,6,0,B|166:87|243:33|384:34|422:144|309:275,1,420
312,271,14030,1,0,0:0:0:0:
200,180,14207,2,0,B|143:245|13:179|72:53|298:60,1,385
334,63,15266,2,0,B|231:44|166:222|467:234|216:362|115:298,1,420
138,308,16854,5,0,0:0:0:0:
221,205,17030,2,0,P|354:127|198:93,1,385
259,150,18089,2,0,P|178:281|246:289,1,280
245,354,18972,5,0,0:0:0:0:
338,232,19148,2,0,P|263:226|219:150,1,140
237,136,19854,2,0,B|156:201|131:79|162:42|357:52|366:154|284:267,1,385
355,269,20913,2,0,B|292:401|251:258|251:258|96:333|189:163,1,385
181,172,22501,5,0,0:0:0:0:
265,66,22677,2,0,B|349:32|349:32|381:204|181:266,1,385
147,248,23736,2,0,B|89:113|225:111|225:111|276:244|393:103,1,420
386,110,25325,1,0,0:0:0:0:
238,61,25501,2,0,B|156:76|158:148|158:148|222:258|343:91|395:241,1,385,0|0,3:0|0:0,0:0:0:0:
382,273,26560,2,0,B|292:274|292:274|209:234|344:119|228:74|65:99,1,420
92,93,28148,5,0,0:0:0:0:
31,229,28325,2,0,B|125:297|260:221|260:221|312:66,1,385
344,47,29383,2,0,B|416:124|416:124|375:200|258:102|258:102|172:88|167:191,1,420
167,167,30972,1,0,0:0:0:0:
65,61,31148,2,0,B|168:2|263:65|263:65|309:157|157:155,1,385
132,207,32207,2,0,B|217:296|371:283|352:144|352:144|446:227,1,420
425,212,33795,5,0,0:0:0:0:
284,288,33972,2,0,P|184:284|152:192,1,175
116,86,34677,1,0,0:0:0:0:
249,201,35030,1,0,0:0:0:0:
61,239,35383,6,0,L|204:253,1,140
349,340,36089,2,0,L|209:326,1,140
73,246,36795,2,0,P|85:188|175:196,1,140,0|0,3:0|3:0,3:0:0:0:
312,216,37501,2,0,P|308:150|245:131,1,140,0|0,3:0|3:0,3:0:0:0:
188,264,38207,2,0,P|175:321|85:313,1,140,0|0,3:0|3:0,3:0:0:0:
108,176,38913,2,0,P|167:181|170:272,1,140,0|0,3:0|3:0,3:0:0:0:
312,312,39619,5,0,0:0:0:0:
356,160,39972,1,0,0:0:0:0:
192,204,40325,1,0,0:0:0:0:
284,64,40677,2,0,L|363:116,1,70
424,176,41030,1,0,0:0:0:0:
351,318,41383,5,0,0:0:0:0:
266,187,41736,1,0,0:0:0:0:
116,114,42089,2,0,P|64:154|90:243,1,140
255,214,42795,1,0,0:0:0:0:
372,60,43148,2,0,P|405:136|369:205,1,140
261,130,43854,5,0,0:0:0:0:
76,172,44207,2,0,P|91:246|172:290,1,140
189,190,44913,2,0,P|244:247|211:321,1,140
330,218,45619,2,0,P|382:155|345:98,1,140
186,73,46325,1,0,0:0:0:0:
350,95,46677,6,0,P|401:165|370:233,1,140
278,298,47383,2,0,P|227:228|258:160,1,140
390,73,48089,1,0,0:0:0:0:
409,194,48266,2,0,L|356:251,1,70
275,182,48619,2,0,L|223:237,1,70
228,232,49501,5,0,0:0:0:0:
123,105,49854,1,0,0:0:0:0:
286,78,50207,1,0,0:0:0:0:
223,231,50560,1,0,0:0:0:0:
119,103,50913,2,0,P|58:164|53:231,1,140
204,180,51619,2,0,P|265:119|270:52,1,140
416,165,52325,5,0,0:0:0:0:
341,269,52677,1,0,0:0:0:0:
219,229,53030,2,0,P|219:153|289:116,1,140
151,36,53736,1,0,0:0:0:0:
125,178,53913,2,0,L|217:145,1,70
272,55,54266,1,0,0:0:0:0:
74,133,54442,1,0,0:0:0:0:
166,283,54795,5,0,0:0:0:0:
261,76,55148,2,0,L|335:79,1,70
376,93,55413,1,0,0:0:0:0:
396,121,55501,1,0,0:0:0:0:
408,154,55589,1,0,0:0:0:0:
411,188,55677,1,0,0:0:0:0:
406,223,55765,1,0,0:0:0:0:
387,249,55854,6,0,L|342:273,1,35
188,265,56030,2,0,L|218:248,1,35
289,158,56207,2,0,L|305:188,1,35
303,337,56383,2,0,L|286:306,1,35
203,186,56560,2,0,L|172:202,1,35
68,337,56736,2,0,L|98:320,1,35
84,158,56913,2,0,L|100:188,1,35
242,346,57089,2,0,L|204:294,1,35
197,260,57266,5,0,0:0:0:0:
304,128,57486,2,0,L|349:187,1,65.625,0|0,0:3|0:3,0:3:0:0:
197,260,57972,5,0,0:0:0:0:
182,95,58677,2,0,P|256:85|316:142,1,140
417,260,60089,2,0,P|352:311|310:266,1,140
76,217,61501,2,0,P|124:171|185:212,1,140
328,113,62560,1,0,0:0:0:0:
280,240,62780,2,0,L|232:265,1,52.5000020027161
206,123,63266,1,0,0:0:0:0:
330,64,63619,6,0,L|362:210,1,140
154,261,64325,2,0,P|144:190|191:118,1,140
174,131,65736,1,0,0:0:0:0:
324,121,66089,1,0,0:0:0:0:
324,121,67148,2,0,B|357:147|357:147|273:233,1,140
288,217,68207,1,0,0:0:0:0:
139,183,68427,2,0,L|185:158,1,52.5000020027161
269,296,68913,2,0,P|345:256|389:275,1,140
424,145,69972,6,0,L|272:63,1,140
300,78,71383,1,0,0:0:0:0:
350,214,71736,1,0,0:0:0:0:
215,274,72795,2,0,B|172:269|172:269|231:191,1,140
328,113,73854,1,0,0:0:0:0:
280,240,74075,2,0,L|232:265,1,52.5000020027161
206,123,74560,1,0,0:0:0:0:
103,81,74913,6,0,P|109:212|213:276,1,245
237,271,75619,2,0,B|281:253|281:253|226:170,1,140
229,175,77030,1,0,0:0:0:0:
132,77,77383,1,0,0:0:0:0:
261,74,78442,2,0,P|257:141|335:184,1,140
421,118,79501,1,0,0:0:0:0:
343,257,79722,2,0,L|389:232,1,52.5000020027161
389,231,80560,6,0,B|415:159|415:159|301:225|232:85|232:85|187:179,1,385
177,205,81619,2,0,B|234:293|324:247|324:247|281:383|120:308,1,420
122,309,83207,1,0,0:0:0:0:
66,175,83383,2,0,B|82:28|258:229|291:44|291:44|335:135,1,385
349,153,84442,2,0,B|279:180|279:180|405:238|278:294|278:294|222:249|123:329,1,420
127,326,86030,5,0,0:0:0:0:
241,287,86207,2,0,B|342:179|276:106|276:106|230:168|76:123,1,385
68,182,87266,2,0,B|186:209|186:209|130:302|233:346|233:346|342:309|321:265,1,420
323,271,88854,1,0,0:0:0:0:
388,169,89030,2,0,B|336:103|201:96|201:96|227:210|104:224,1,385
90,265,90089,2,0,B|207:340|306:283|306:283|194:160|316:116,1,420
294,125,91854,2,0,B|337:85|337:85|464:155|363:253|363:253|304:218|258:289,1,385
227,309,92913,2,0,B|132:252|225:169|225:169|244:61|168:51|168:51|99:54|107:114,1,420
106,105,94501,5,0,0:0:0:0:
251,52,94677,2,0,B|378:95|351:254|351:254|281:187|225:270,1,385
208,297,95736,2,0,B|403:353|427:245|427:245|401:114|301:126,1,420
328,125,97325,1,0,0:0:0:0:
277,231,97501,2,0,B|198:276|198:276|74:207|114:80|253:56,1,385
274,66,98560,2,0,B|376:142|331:208|331:208|219:158|106:281,1,420
110,276,100148,5,0,0:0:0:0:
280,279,100325,2,0,B|387:205|387:205|318:113|138:184,1,385
103,184,101383,2,0,B|70:112|180:71|180:71|236:219|364:249,1,420
362,246,102972,1,0,0:0:0:0:
299,176,103148,2,0,L|206:186,1,87.5
273,300,103501,2,0,L|180:310,1,87.5
140,163,103854,2,0,L|47:173,1,87.5
43,348,104207,2,0,L|129:338,1,87.5
252,276,104560,5,0,0:0:0:0:
158,123,104913,2,0,P|228:88|284:120,1,140
252,276,105619,1,0,0:0:0:0:
408,240,105972,1,0,0:0:0:0:
288,116,106325,2,0,P|225:141|208:206,1,140
324,312,107030,1,0,0:0:0:0:
360,212,107207,6,0,L|308:160,1,70
172,92,107736,1,0,0:0:0:0:
168,260,108089,1,0,0:0:0:0:
172,92,108442,2,0,P|256:88|304:140,1,140
248,264,109148,1,0,0:0:0:0:
408,208,109501,1,0,0:0:0:0:
272,108,109854,1,0,0:0:0:0:
156,164,110030,6,0,L|224:192,1,70
366,255,110560,1,0,0:0:0:0:
221,321,110913,1,0,0:0:0:0:
254,162,111266,1,0,0:0:0:0:
74,147,111619,2,0,P|151:117|219:142,1,140
229,285,112325,1,0,0:0:0:0:
117,162,112677,1,0,0:0:0:0:
234,129,112854,6,0,L|210:204,1,70
314,332,113383,1,0,0:0:0:0:
388,197,113736,1,0,0:0:0:0:
223,193,114089,1,0,0:0:0:0:
352,312,114442,2,0,P|420:297|464:220,1,140,0|0,3:0|3:0,3:0:0:0:
347,138,115148,1,0,0:0:0:0:
206,223,115501,1,0,0:0:0:0:
347,138,115854,5,0,0:0:0:0:
196,74,116207,2,0,P|147:108|145:203,1,140
306,239,116913,1,0,0:0:0:0:
195,75,117266,1,0,0:0:0:0:
143,179,117442,2,0,L|193:238,1,70
240,128,117795,2,0,L|194:74,1,70
186,232,118325,5,0,0:0:0:0:
303,116,118677,1,0,0:0:0:0:
377,280,119030,2,0,P|295:273|256:215,1,140
224,89,119736,1,0,0:0:0:0:
105,200,120089,2,0,P|180:191|241:253,1,140
407,184,120795,2,0,P|332:193|271:131,1,140
103,196,121501,5,0,0:0:0:0:
217,78,121854,1,0,0:0:0:0:
369,150,122207,2,0,P|345:68|268:55,1,140
145,125,122913,1,0,0:0:0:0:
98,227,123089,2,0,L|146:291,1,70
187,180,123442,2,0,L|140:119,1,70
300,231,123972,1,0,0:0:0:0:
268,78,124325,5,0,0:0:0:0:
268,78,124413,1,0,0:0:0:0:
268,78,124501,2,0,L|203:100,1,35
211,155,124677,5,0,0:0:0:0:
211,155,124765,1,0,0:0:0:0:
211,155,124853,2,0,L|255:135,1,35
317,132,125030,5,0,0:0:0:0:
317,132,125118,1,0,0:0:0:0:
317,132,125206,2,0,L|337:176,1,35
385,204,125383,5,0,0:0:0:0:
385,204,125471,1,0,0:0:0:0:
385,204,125559,2,0,L|341:224,1,35
293,222,125736,5,0,0:0:0:0:
293,222,125824,1,0,0:0:0:0:
293,222,125912,2,0,L|273:178,1,35
248,146,126089,5,0,0:0:0:0:
248,146,126177,1,0,0:0:0:0:
248,146,126265,2,0,L|174:181,1,70
151,298,126663,6,0,L|230:282,1,65.625,0|0,0:3|0:3,0:3:0:0:
351,224,127148,1,0,0:0:0:0:
256,90,127854,2,0,P|204:149|226:233,1,140
342,187,129266,2,0,P|302:249|226:260,1,140
238,260,130677,1,0,0:0:0:0:
342,187,131030,1,0,0:0:0:0:
217,96,131736,5,0,0:0:0:0:
139,201,131913,2,0,L|217:180,1,70
277,261,132442,1,0,0:0:0:0:
421,233,132795,2,0,P|363:157|300:137,1,140
221,45,133501,2,0,P|176:120|189:170,1,140
187,166,134913,1,0,0:0:0:0:
335,167,135266,1,0,0:0:0:0:
335,167,136325,6,0,P|346:231|306:297,1,140
311,295,137383,1,0,0:0:0:0:
181,283,137560,2,0,L|225:224,1,70
333,164,138089,1,0,0:0:0:0:
250,47,138442,2,0,P|164:100|142:155,1,140
227,254,139148,1,0,0:0:0:0:
147,129,139501,1,0,0:0:0:0:
147,129,140560,6,0,P|230:87|281:90,1,140
270,87,141972,2,0,P|235:152|253:225,1,140
248,214,143030,1,0,0:0:0:0:
339,257,143207,2,0,L|309:179,1,70
260,83,143736,1,0,0:0:0:0:
118,153,144089,2,0,P|150:221|239:244,1,140
291,152,144795,1,0,0:0:0:0:
118,153,145148,1,0,0:0:0:0:
118,153,146207,6,0,P|181:110|251:126,1,140
242,121,147619,2,0,P|223:194|249:255,1,140
246,251,148677,1,0,0:0:0:0:
139,236,148854,2,0,L|203:188,1,70
192,196,149736,6,0,B|240:136|240:136|284:224|356:200|356:200|400:120|304:64,1,385
260,56,150795,2,0,B|128:32|104:168|104:168|248:224|144:344,1,420
160,320,152383,2,0,L|232:300,1,70
328,240,152736,5,0,0:0:0:0:
328,156,152913,1,0,0:0:0:0:
264,104,153089,1,0,0:0:0:0:
180,92,153266,2,0,L|112:120,1,70
208,184,153619,6,0,L|296:156,1,70
360,172,153972,1,0,0:0:0:0:
428,220,154148,1,0,0:0:0:0:
436,304,154325,1,0,0:0:0:0:
456,222,154501,1,0,0:0:0:0:
441,139,154677,6,0,L|360:97,1,70
296,86,155030,1,0,0:0:0:0:
218,118,155207,1,0,0:0:0:0:
164,182,155383,2,0,L|146:258,1,70
248,342,155736,5,0,0:0:0:0:
235,258,155913,1,0,0:0:0:0:
186,189,156089,2,0,L|102:143,1,70
41,143,156442,2,0,L|103:87,1,70
195,42,156795,5,0,0:0:0:0:
267,85,156972,1,0,0:0:0:0:
301,161,157148,1,0,0:0:0:0:
266,237,157325,1,0,0:0:0:0:
158,305,157501,6,0,L|244:346,1,70
305,335,157854,1,0,0:0:0:0:
373,287,158030,1,0,0:0:0:0:
407,210,158207,2,0,L|413:127,1,70
325,41,158560,5,0,0:0:0:0:
245,66,158736,1,0,0:0:0:0:
189,129,158913,2,0,L|167:200,1,70
182,278,159266,2,0,L|261:336,1,70
360,297,159619,5,0,0:0:0:0:
282,264,159795,1,0,0:0:0:0:
197,262,159972,1,0,0:0:0:0:
122,300,160148,2,0,L|58:343,1,70
56,223,160501,5,0,0:0:0:0:
103,153,160677,1,0,0:0:0:0:
175,109,160854,1,0,0:0:0:0:
258,103,161030,2,0,L|281:113,1,17.5
333,264,161383,5,0,0:0:0:0:
347,125,161736,2,0,P|257:127|215:189,1,140
236,289,162442,1,0,0:0:0:0:
294,141,162795,1,0,0:0:0:0:
288,289,163148,1,0,0:0:0:0:
346,141,163501,1,0,0:0:0:0:
228,36,163854,6,0,P|152:105|154:165,1,140
209,286,164560,1,0,0:0:0:0:
342,189,164913,1,0,0:0:0:0:
240,113,165266,2,0,P|159:162|156:222,1,140
294,288,165972,2,0,P|250:195|191:178,1,140
58,193,166677,5,2,0:0:0:0:
169,291,167030,1,0,0:0:0:0:
135,147,167383,1,0,0:0:0:0:
272,80,167736,2,0,P|271:176|247:225,1,140
192,305,168442,1,0,0:0:0:0:
326,217,168795,1,0,0:0:0:0:
172,181,169148,1,0,0:0:0:0:
122,91,169501,5,0,0:0:0:0:
122,91,169589,1,0,0:0:0:0:
122,91,169677,2,0,L|187:113,1,35
163,165,169853,5,0,0:0:0:0:
163,165,169941,1,0,0:0:0:0:
163,165,170029,2,0,L|119:185,1,35
157,239,170206,5,0,0:0:0:0:
157,239,170294,1,0,0:0:0:0:
157,239,170382,2,0,L|177:283,1,35
232,242,170559,5,0,0:0:0:0:
232,242,170647,1,0,0:0:0:0:
232,242,170735,2,0,L|263:227,1,35
257,167,170912,5,0,0:0:0:0:
257,167,171000,1,0,0:0:0:0:
257,167,171088,2,0,L|237:123,1,35
299,105,171265,5,0,0:0:0:0:
299,105,171353,1,0,0:0:0:0:
299,105,171441,2,0,L|323:182,1,70
309,311,171839,6,0,L|244:297,1,65.625,0|0,0:3|0:3,0:3:0:0:
109,237,172324,1,0,0:0:0:0:
256,90,173030,2,0,P|204:149|226:233,1,140
342,187,174442,2,0,P|302:249|226:260,1,140
238,260,175853,1,0,0:0:0:0:
342,187,176206,1,0,0:0:0:0:
217,96,176912,5,0,0:0:0:0:
139,201,177089,2,0,L|217:180,1,70
277,261,177618,1,0,0:0:0:0:
421,233,177971,2,0,P|363:157|300:137,1,140
221,45,178677,2,0,P|176:120|189:170,1,140
187,166,180089,1,0,0:0:0:0:
335,167,180442,1,0,0:0:0:0:
335,167,181501,6,0,P|346:231|306:297,1,140
311,295,182559,1,0,0:0:0:0:
181,283,182736,2,0,L|225:224,1,70
333,164,183265,1,0,0:0:0:0:
250,47,183618,2,0,P|164:100|142:155,1,140
227,254,184324,1,0,0:0:0:0:
147,129,184677,1,0,0:0:0:0:
147,129,185736,6,0,P|230:87|281:90,1,140
270,87,187148,2,0,P|235:152|253:225,1,140
248,214,188206,1,0,0:0:0:0:
339,257,188383,2,0,L|309:179,1,70
260,83,188912,1,0,0:0:0:0:
118,153,189265,2,0,P|150:221|239:244,1,140
291,152,189971,1,0,0:0:0:0:
118,153,190324,1,0,0:0:0:0:
118,153,191383,6,0,P|181:110|251:126,1,140
242,121,192795,2,0,P|223:194|249:255,1,140
246,251,193853,1,0,0:0:0:0:
139,236,194075,2,0,L|203:188,1,70
319,115,194560,2,0,P|362:159|355:221,1,105
342,236,194913,5,0,0:0:0:0:
304,183,195222,1,0,0:0:0:0:
271,247,195575,1,0,0:0:0:0:
238,188,195928,1,0,0:0:0:0:
133,108,196281,5,0,0:0:0:0:
117,173,196633,1,0,0:0:0:0:
187,152,196986,1,0,0:0:0:0:
201,86,197339,1,0,0:0:0:0:
274,165,197692,6,0,P|300:223|272:295,1,140
190,260,198398,2,0,P|236:209|304:205,1,140
384,284,199104,5,0,0:0:0:0:
400,219,199456,1,0,0:0:0:0:
330,240,199809,1,0,0:0:0:0:
316,306,200162,1,0,0:0:0:0:
177,304,200516,6,0,P|186:241|249:196,1,140
414,184,201222,2,0,P|345:179|299:129,1,140
269,30,201927,2,0,P|213:69|201:136,1,140
304,118,202633,2,0,P|352:165|354:234,1,140
216,307,203339,5,0,0:0:0:0:
282,296,203691,1,0,0:0:0:0:
235,240,204044,1,0,0:0:0:0:
169,253,204397,1,0,0:0:0:0:
118,145,204751,5,0,0:0:0:0:
126,78,205104,1,0,0:0:0:0:
193,50,205457,1,0,0:0:0:0:
183,116,205809,1,0,0:0:0:0:
56,168,206163,6,0,P|65:105|128:60,1,140
273,35,206869,2,0,P|244:97|180:122,1,140
84,191,207574,2,0,P|115:251|180:273,1,140
302,270,208280,2,0,P|286:203|228:166,1,140
256,192,208986,12,0,216089,0:0:0:0:
