osu file format v14

[General]
AudioFilename: audio.mp3
AudioLeadIn: 0
PreviewTime: 41876
Countdown: 0
SampleSet: Soft
StackLeniency: 0.5
Mode: 0
LetterboxInBreaks: 0
WidescreenStoryboard: 1

[Editor]
DistanceSpacing: 1.2
BeatDivisor: 4
GridSize: 16
TimelineZoom: 2.899999

[Metadata]
Title:Atlantis (TV Size)
TitleUnicode:Atlantis (TV Size)
Artist:Danny Jacob, Phineas and Ferb Cast
ArtistUnicode:Danny Jacob, Phineas and Ferb Cast
Creator:AJT
Version:Basic
Source:Phineas and Ferb
Tags:english folk disney channel phineas flynn vincent martella baljeet tjinder maulik pancholy buford van stomm bobby gaylor isabella garcia-shapiro alyson stoner irving du bois jack mcbrayer
BeatmapID:3405635
BeatmapSetID:1665761

[Difficulty]
HPDrainRate:0
CircleSize:2
OverallDifficulty:2
ApproachRate:4
SliderMultiplier:1.5
SliderTickRate:1

[Events]
//Background and Video events
0,0,"atlantis.jpg",0,0
Video,-1110,"video.mp4"
//Break Periods
//Storyboard Layer 0 (Background)
//Storyboard Layer 1 (Fail)
//Storyboard Layer 2 (Pass)
//Storyboard Layer 3 (Foreground)
//Storyboard Layer 4 (Overlay)
//Storyboard Sound Samples

[TimingPoints]
5824,836.820083682008,4,2,0,60,1,0
20940,530.035335689046,4,2,0,60,1,0
32070,-100,4,2,0,60,0,0
35780,-100,4,2,0,60,0,0
39226,-100,4,2,0,60,0,0
42936,-100,4,2,0,60,0,0
46381,-90.9090909090909,4,2,0,70,0,1
48501,-90.9090909090909,4,2,0,70,0,1
50621,-90.9090909090909,4,2,0,70,0,1
53802,-100,4,2,0,60,0,0
54862,-100,4,2,0,5,0,0
56717,-100,4,2,0,60,0,0
56982,-66.6666666666667,4,2,0,70,0,1
58307,-500,4,2,0,60,0,0

[Colours]
Combo1 : 255,197,19
Combo2 : 72,164,255
Combo3 : 0,81,179
Combo4 : 255,113,45

[HitObjects]
256,192,15865,5,2,0:0:0:0:
256,192,16075,12,2,19213,0:0:0:0:
80,16,20940,6,0,B|160:16|160:16|192:96,1,150,4|8,0:0|0:0,0:0:0:0:
256,144,21735,1,2,0:0:0:0:
326,80,22000,2,0,B|352:16|352:16|432:16,1,150,2|8,0:0|0:0,0:0:0:0:
497,79,22795,1,2,0:0:0:0:
459,160,23060,2,0,B|475:262,2,75,2|2|8,0:0|0:0|0:0,0:0:0:0:
375,193,23855,1,2,0:0:0:0:
289,165,24120,2,0,B|256:236|256:236|174:199,1,150,2|8,0:0|0:0,0:0:0:0:
71,72,25180,6,0,P|22:86|-34:98,2,75,2|2|8,0:0|3:2|0:0,0:0:0:0:
144,20,25975,2,0,P|193:34|203:61,1,75,2|2,0:0|0:0,0:0:0:0:
252,134,26505,1,2,0:0:0:0:
252,134,26770,1,10,0:0:0:0:
336,292,27300,6,0,P|385:278|441:266,2,75,2|0|10,3:2|3:2|3:2,0:0:0:0:
256,256,28095,1,0,3:2:0:0:
176,292,28360,2,0,P|127:278|71:266,1,75,2|6,0:0|0:0,0:0:0:0:
21,119,29155,5,2,0:0:0:0:
21,119,29420,2,0,B|55:50|55:50|133:103,1,150,2|8,0:0|0:0,0:0:0:0:
149,174,30215,1,2,0:0:0:0:
93,244,30480,2,0,P|99:287|129:330,1,75,2|2,0:0|0:0,0:0:0:0:
193,355,31010,1,8,0:0:0:0:
282,365,31275,1,2,0:0:0:0:
372,371,31540,2,0,P|441:337|486:276,2,150,2|8|2,0:0|0:0|0:0,0:0:0:0:
328,292,32865,1,2,0:0:0:0:
249,247,33130,2,0,P|238:192|229:169,1,75,8|2,0:0|0:0,0:0:0:0:
164,115,33660,6,0,P|115:101|59:89,2,75,2|2|10,0:0|0:0|0:0,0:0:0:0:
224,48,34455,2,0,P|273:62|329:74,1,75,2|2,0:0|0:0,0:0:0:0:
384,37,34985,1,2,0:0:0:0:
384,37,35250,1,10,0:0:0:0:
430,210,35780,6,0,P|444:259|456:315,2,75,2|0|10,3:2|3:2|3:2,0:0:0:0:
344,238,36575,1,0,3:2:0:0:
255,221,36840,2,0,P|241:270|229:326,1,75,2|6,0:0|0:0,0:0:0:0:
92,182,37636,6,0,P|43:196|-13:208,2,75,2|2|2,0:0|0:0|0:0,0:0:0:0:
132,103,38431,1,10,0:0:0:0:
132,103,38696,1,2,0:0:0:0:
216,134,38961,2,0,P|265:148|321:160,2,75,2|2|8,0:0|0:0|0:0,0:0:0:0:
132,293,40021,6,0,P|83:307|27:319,2,75,2|2|8,0:0|0:0|0:0,0:0:0:0:
216,324,40816,1,2,0:0:0:0:
296,283,41081,2,0,P|345:297|401:309,2,75,2|2|10,0:0|0:0|0:1,0:0:0:0:
440,175,42141,6,0,P|489:161|545:149,2,75,2|2|8,0:0|0:0|0:0,0:0:0:0:
353,150,42936,1,2,0:0:0:0:
406,77,43201,2,0,P|455:63|511:51,2,75,2|2|8,0:0|0:0|0:0,0:0:0:0:
322,44,43996,1,2,0:0:0:0:
232,50,44261,6,0,P|183:36|127:24,2,75,2|0|10,3:2|3:2|3:2,0:0:0:0:
244,139,45056,1,0,3:2:0:0:
157,164,45321,2,0,P|108:150|52:138,1,75,2|6,0:0|0:0,0:0:0:0:
256,272,46116,1,2,0:0:0:0:
166,313,46381,6,0,P|117:327|61:339,2,82.5000025177003,2|0|8,3:2|3:2|3:2,0:0:0:0:
256,272,47176,1,0,3:2:0:0:
346,313,47441,2,0,P|395:327|451:339,2,82.5000025177003,2|0|8,3:2|3:2|3:2,0:0:0:0:
366,216,48236,1,0,3:2:0:0:
350,118,48501,6,0,P|399:104|455:92,2,82.5000025177003,2|0|8,3:2|3:2|3:2,0:0:0:0:
366,216,49296,1,0,3:2:0:0:
346,313,49561,2,0,P|395:327|451:339,2,82.5000025177003,2|0|8,3:2|3:2|3:2,0:0:0:0:
256,272,50356,1,0,3:2:0:0:
166,313,50621,6,0,P|117:327|61:339,2,82.5000025177003,2|0|8,3:2|3:2|3:2,0:0:0:0:
256,272,51416,1,0,3:2:0:0:
333,210,51681,2,0,P|382:196|409:155,1,82.5000025177003,2|0,3:2|3:2,0:0:0:0:
375,77,52212,1,8,3:2:0:0:
276,63,52477,1,0,3:2:0:0:
189,122,52742,5,2,3:0:0:0:
80,124,53007,1,2,3:0:0:0:
5,51,53272,2,0,L|-2:3,1,41.2500012588501,12|12,0:0|0:0,0:0:0:0:
0,10,53802,6,0,B|84:57|165:-57|290:26,1,300.000011444092,2|0,0:0|0:0,0:0:0:0:
256,192,56717,1,2,0:0:0:0:
160,224,56982,6,0,P|109:239|51:251,2,112.500004291535,2|0|8,3:2|3:2|3:2,0:0:0:0:
256,192,57777,1,0,3:2:0:0:
352,224,58042,2,0,P|403:239|461:251,1,112.500004291535,2|4,1:2|1:0,0:0:0:0:
