osu file format v14

[General]
AudioFilename: audio.mp3
AudioLeadIn: 0
PreviewTime: 21259
Countdown: 0
SampleSet: Soft
StackLeniency: 0.3
Mode: 0
LetterboxInBreaks: 0
WidescreenStoryboard: 1

[Editor]
Bookmarks: 27444,42666
DistanceSpacing: 1.3
BeatDivisor: 4
GridSize: 8
TimelineZoom: 1.5

[Metadata]
Title:Disco Party
TitleUnicode:Disco Party
Artist:Danny Elfman
ArtistUnicode:Danny Elfman
Creator:Vespirit
Version:Hard
Source:LEGO Batman: The Videogame
Tags:Traveller's Tales TT Fusion Arduck
BeatmapID:1777666
BeatmapSetID:850236

[Difficulty]
HPDrainRate:5
CircleSize:4
OverallDifficulty:6
ApproachRate:7.3
SliderMultiplier:1.5
SliderTickRate:1

[Events]
//Background and Video events
0,0,"bg.jpg",0,0
//Break Periods
//Storyboard Layer 0 (Background)
//Storyboard Layer 1 (Fail)
//Storyboard Layer 2 (Pass)
//Storyboard Layer 3 (Foreground)
//Storyboard Layer 4 (Overlay)
//Storyboard Sound Samples

[TimingPoints]
0,444.444444444444,4,2,1,75,1,0
21333,-100,4,2,1,75,0,1
28444,-100,4,2,1,75,0,0
32888,-100,4,2,2,75,0,0
35111,-100,4,2,1,75,0,0
43555,-100,4,2,1,61,0,0
44444,-100,4,2,1,51,0,0
45333,-100,4,2,1,42,0,0
46222,-100,4,2,1,33,0,0
47111,-100,4,2,1,23,0,0
47999,-100,4,2,1,14,0,0
48888,-100,4,2,1,5,0,0

[Colours]
Combo1 : 61,71,140
Combo2 : 67,185,235
Combo3 : 10,26,132
SliderTrackOverride : 69,70,74
SliderBorder : 245,236,115

[HitObjects]
87,74,0,6,0,P|120:57|157:56,1,75,4|2,3:2|0:3,0:0:0:0:
196,142,444,2,0,P|144:168|90:166,2,112.5,8|0|0,0:3|0:0|0:0,0:0:0:0:
256,61,1333,1,8,0:3:0:0:
354,230,1777,6,0,P|391:228|424:212,1,75,0|2,3:0|0:3,0:0:0:0:
368,133,2222,2,0,P|370:77|394:27,2,112.5,8|0|0,0:3|0:0|0:0,0:0:0:0:
392,229,3111,1,8,0:3:0:0:
208,162,3555,6,0,L|201:236,1,75,0|2,3:0|0:3,0:0:0:0:
102,134,3999,2,0,L|116:284,1,150,8|0,0:3|3:0,0:0:0:0:
162,369,4666,2,0,B|127:383|127:383|79:375,1,75,0|8,0:0|0:3,0:0:0:0:
284,342,5333,6,0,L|291:268,1,75,0|2,3:0|0:3,0:0:0:0:
390,370,5777,2,0,L|376:220,1,150,8|0,0:3|3:0,0:0:0:0:
330,135,6444,1,8,0:3:0:0:
330,135,6666,2,0,B|364:120|364:120|412:128,1,75,8|2,0:3|0:0,0:0:0:0:
270,216,7111,6,0,P|192:267|189:174,1,225,4|0,3:2|0:0,0:0:0:0:
245,94,7999,2,0,P|211:80|174:77,1,75,0|2,3:0|0:3,0:0:0:0:
94,135,8444,2,0,P|56:133|21:120,1,75,8|0,0:3|0:0,0:0:0:0:
188,174,8888,6,0,P|287:324|343:152,1,450,0|8,3:0|0:3,0:0:0:0:
274,225,10444,1,2,0:3:0:0:
262,128,10666,6,0,P|311:74|384:78,2,150,0|8|0,3:0|0:3|3:0,0:0:0:0:
183,184,11777,2,0,L|108:177,1,75,2|8,0:3|0:3,0:0:0:0:
298,219,12444,6,0,L|372:212,1,75,0|0,3:0|0:0,0:0:0:0:
458,165,12888,2,0,P|394:117|320:129,1,150,8|0,0:3|3:0,0:0:0:0:
302,223,13555,1,8,0:3:0:0:
302,223,13777,2,0,L|308:297,1,75,8|2,0:3|0:3,0:0:0:0:
216,218,14222,6,0,B|208:123|208:123|245:102|245:102|238:14,1,225,4|0,3:2|0:0,0:0:0:0:
148,52,15111,2,0,L|73:45,1,75,0|0,3:0|0:0,0:0:0:0:
208,123,15555,2,0,L|282:116,1,75,8|2,0:3|0:3,0:0:0:0:
104,157,15999,6,0,B|94:246|94:246|140:251|140:251|131:345|131:345|225:355|225:355|230:308|230:308|313:317,1,450,0|8,3:0|0:3,0:0:0:0:
322,219,17555,1,2,0:3:0:0:
401,275,17777,6,0,P|449:232|440:136,1,150,0|8,3:0|0:3,0:0:0:0:
341,49,18444,2,0,L|334:123,1,75,2|0,0:0|3:0,0:0:0:0:
250,173,18888,2,0,L|243:247,1,75,2|8,0:0|0:3,0:0:0:0:
298,328,19333,6,0,L|372:321,1,75,2|0,0:0|3:0,0:0:0:0:
206,338,19777,2,0,L|132:345,1,75,2|8,0:0|0:3,0:0:0:0:
243,247,20222,1,2,0:0:0:0:
145,255,20444,2,0,L|148:218,3,37.5,0|0|8|0,3:0|0:0|0:3|0:0,0:0:0:0:
173,176,20888,2,0,L|166:102,1,75,8|2,0:3|0:0,0:0:0:0:
243,247,21333,5,4,3:2:0:0:
261,245,21444,1,0,0:0:0:0:
280,243,21555,1,2,0:0:0:0:
299,241,21666,1,0,0:0:0:0:
317,239,21777,1,8,0:3:0:0:
346,146,21999,2,0,L|272:153,1,75,2|0,0:0|3:0,0:0:0:0:
168,254,22444,2,0,L|242:247,1,75,2|8,0:0|0:3,0:0:0:0:
271,153,22888,1,2,0:0:0:0:
205,21,23111,5,0,3:0:0:0:
195,37,23222,1,0,0:0:0:0:
190,55,23333,1,2,0:0:0:0:
189,73,23444,1,0,0:0:0:0:
192,92,23555,2,0,B|154:88|154:88|113:100,1,75,8|2,0:3|0:0,0:0:0:0:
271,153,23999,5,0,3:0:0:0:
281,137,24110,1,0,0:0:0:0:
286,119,24221,1,2,0:0:0:0:
287,101,24332,1,0,0:0:0:0:
284,82,24443,2,0,B|322:86|322:86|363:74,1,75,8|2,0:3|0:0,0:0:0:0:
344,217,24888,5,0,3:0:0:0:
343,235,24999,1,0,0:0:0:0:
342,254,25110,1,2,0:0:0:0:
341,273,25221,1,0,0:0:0:0:
340,291,25332,1,8,0:3:0:0:
246,318,25555,2,0,L|253:244,1,75,2|0,0:0|3:0,0:0:0:0:
163,205,25999,2,0,L|126:208,4,37.5,2|0|8|0|2,0:0|0:0|0:3|0:0|0:0,0:0:0:0:
270,113,26666,5,0,3:0:0:0:
307,102,26778,1,0,0:0:0:0:
346,122,26888,1,0,0:0:0:0:
383,111,26999,2,0,B|371:145|371:145|381:221,1,112.5,2|0,0:0|0:0,0:0:0:0:
416,256,27444,2,0,L|286:245,1,112.5,2|8,0:0|0:3,0:0:0:0:
243,322,27999,1,8,0:3:0:0:
243,322,28222,1,2,0:3:0:0:
142,235,28444,5,4,3:2:0:0:
142,235,28555,1,0,0:0:0:0:
142,235,28666,1,2,0:0:0:0:
224,183,28888,2,0,P|231:127|213:74,1,112.5,8|0,0:3|0:0,0:0:0:0:
170,49,29333,2,0,P|151:54|133:56,2,37.5,0|0|2,3:0|0:0|0:0,0:0:0:0:
258,8,29777,2,0,P|313:0|366:18,1,112.5,8|0,0:3|0:0,0:0:0:0:
397,56,30222,6,0,L|390:133,2,75,0|2|8,3:0|0:0|0:3,0:0:0:0:
293,150,30888,1,2,0:0:0:0:
214,91,31111,2,0,L|166:95,2,37.5,0|0|2,3:0|0:0|0:0,0:0:0:0:
248,57,31444,2,0,L|135:66,1,112.5,0|2,0:0|0:0,0:0:0:0:
73,141,31999,6,0,P|82:177|80:214,1,75,0|0,3:0|0:0,0:0:0:0:
199,172,32444,2,0,P|188:208|167:240,1,75,8|0,0:3|0:0,0:0:0:0:
210,75,32888,2,0,P|276:108|296:189,1,150,2|10,3:0|0:3,0:0:0:0:
155,300,33555,2,0,P|150:227|199:172,1,150,2|2,0:3|0:3,0:0:0:0:
377,235,34222,2,0,P|316:275|244:260,1,150,10|2,0:3|3:0,0:0:0:0:
199,173,34888,1,10,0:3:0:0:
267,95,35111,2,0,L|307:90,3,37.5,8|8|2|0,0:3|0:3|0:0|0:0,0:0:0:0:
326,133,35555,6,0,L|474:151,2,150,4|8|0,3:2|0:3|3:0,0:0:0:0:
259,60,36666,1,2,0:0:0:0:
259,60,36777,1,2,0:0:0:0:
259,60,36888,1,8,0:3:0:0:
177,114,37111,1,2,0:0:0:0:
243,185,37333,6,0,L|233:259,1,75,0|0,3:0|0:0,0:0:0:0:
340,166,37777,2,0,P|358:94|330:26,1,150,8|0,0:3|3:0,0:0:0:0:
238,62,38444,1,2,0:0:0:0:
237,62,38666,2,0,P|232:104|244:137,1,75,8|2,0:3|0:0,0:0:0:0:
340,166,39111,6,0,L|421:159,1,75,0|0,3:0|0:0,0:0:0:0:
268,231,39555,2,0,L|193:237,1,75,8|0,0:3|0:0,0:0:0:0:
360,259,39999,2,0,L|434:265,1,75,0|2,3:0|0:0,0:0:0:0:
434,265,40333,1,2,0:0:0:0:
434,265,40444,1,8,0:3:0:0:
506,199,40666,1,2,0:0:0:0:
437,73,40888,6,0,P|422:120|429:160,1,75,0|0,3:0|0:0,0:0:0:0:
329,253,41333,2,0,P|315:218|316:181,1,75,8|0,0:3|0:0,0:0:0:0:
329,92,41777,1,0,3:0:0:0:
200,204,41999,1,8,0:3:0:0:
200,204,42222,2,0,L|203:248,2,37.5,8|8|2,0:3|0:3|0:3,0:0:0:0:
193,106,42666,5,4,3:2:0:0:
256,192,42888,12,0,49333,0:0:0:0:
