osu file format v14

[General]
AudioFilename: audio.mp3
AudioLeadIn: 0
PreviewTime: 115830
Countdown: 0
SampleSet: Soft
StackLeniency: 0.4
Mode: 0
LetterboxInBreaks: 0
WidescreenStoryboard: 0

[Editor]
Bookmarks: 57999,104264,138963,185228,208360,231493
DistanceSpacing: 1.4
BeatDivisor: 4
GridSize: 32
TimelineZoom: 2.5

[Metadata]
Title:Starting It Over (Feat. Hannah Symons)
TitleUnicode:Starting It Over (Feat. Hannah Symons)
Artist:Danny Byrd
ArtistUnicode:Danny Byrd
Creator:ItashaS13
Version:All Again!
Source:
Tags:jungle drum n bass atomic funk
BeatmapID:1843826
BeatmapSetID:881886

[Difficulty]
HPDrainRate:6
CircleSize:4.3
OverallDifficulty:9
ApproachRate:9.6
SliderMultiplier:1.74
SliderTickRate:1

[Events]
//Background and Video events
0,0,"24604273555_bbef160ccd_o.jpg",0,0
//Break Periods
//Storyboard Layer 0 (Background)
//Storyboard Layer 1 (Fail)
//Storyboard Layer 2 (Pass)
//Storyboard Layer 3 (Foreground)
//Storyboard Sound Samples

[TimingPoints]
168,361.44578313253,4,2,0,30,1,0
168,-250,4,2,0,30,0,0
11734,-200,4,2,0,30,0,0
13722,-166.666666666667,4,2,0,30,0,0
14083,-200,4,2,0,30,0,0
22758,-166.666666666667,4,2,0,30,0,0
23119,-200,4,2,0,30,0,0
23300,-125,4,2,0,60,0,0
34866,-71.4285714285714,4,2,0,60,0,0
36312,-100,4,2,0,60,0,0
46433,-1000,4,2,0,30,0,0
47155,-500,4,2,0,30,0,0
47878,-333.333333333333,4,2,0,30,0,0
48601,-250,4,2,0,40,0,0
49324,-200,4,2,0,40,0,0
50047,-166.666666666667,4,2,0,40,0,0
50770,-142.857142857143,4,2,0,40,0,0
51493,-125,4,2,0,50,0,0
57457,-71.4285714285714,4,2,0,50,0,0
57999,-66.6666666666667,4,2,0,50,0,0
58360,-100,4,2,0,80,0,0
59445,-71.4285714285714,4,2,0,80,0,0
61433,-100,4,2,0,80,0,0
62336,-71.4285714285714,4,2,0,80,0,0
63421,-50,4,2,0,80,0,0
63782,-66.6666666666667,4,2,0,80,0,0
64143,-100,4,2,0,80,0,0
65228,-71.4285714285714,4,2,0,80,0,0
67396,-66.6666666666667,4,2,0,80,0,0
68119,-83.3333333333333,4,2,0,80,0,0
69204,-66.6666666666667,4,2,0,80,0,0
69565,-66.6666666666667,4,2,0,80,0,0
69926,-100,4,2,0,80,0,0
71011,-71.4285714285714,4,2,0,80,0,0
72999,-100,4,2,0,80,0,0
73902,-71.4285714285714,4,2,0,80,0,0
74987,-50,4,2,0,80,0,0
75348,-66.6666666666667,4,2,0,80,0,0
75709,-100,4,2,0,80,0,0
76794,-71.4285714285714,4,2,0,80,0,0
78240,-62.5,4,2,0,80,0,1
78962,-66.6666666666667,4,2,0,80,0,1
80228,-83.3333333333333,4,2,0,80,0,1
80589,-58.8235294117647,4,2,0,80,0,1
81131,-71.4285714285714,4,2,0,80,0,0
86553,-50,4,2,0,80,0,0
86914,-71.4285714285714,4,2,0,80,0,0
89806,-62.5,4,2,0,80,0,0
92336,-50,4,2,0,80,0,0
92698,-71.4285714285714,4,2,0,80,0,0
98120,-50,4,2,0,80,0,0
98481,-71.4285714285714,4,2,0,80,0,0
103722,-50,4,2,0,80,0,0
104264,-125,4,2,0,30,0,0
115830,-71.4285714285714,4,2,0,60,0,0
117276,-100,4,2,0,60,0,0
127396,-1000,4,2,0,30,0,0
128118,-500,4,2,0,30,0,0
128841,-333.333333333333,4,2,0,30,0,0
129564,-250,4,2,0,30,0,0
130287,-200,4,2,0,40,0,0
131010,-166.666666666667,4,2,0,40,0,0
131733,-142.857142857143,4,2,0,40,0,0
132456,-125,4,2,0,40,0,0
138420,-71.4285714285714,4,2,0,50,0,0
138963,-66.6666666666667,4,2,0,80,0,0
139324,-100,4,2,0,80,0,0
140408,-71.4285714285714,4,2,0,80,0,0
142397,-100,4,2,0,80,0,0
143300,-71.4285714285714,4,2,0,80,0,0
144383,-43.4782608695652,4,2,0,80,0,0
144744,-66.6666666666667,4,2,0,80,0,0
145105,-100,4,2,0,80,0,0
146190,-71.4285714285714,4,2,0,80,0,0
148358,-66.6666666666667,4,2,0,80,0,0
149081,-83.3333333333333,4,2,0,80,0,0
150166,-66.6666666666667,4,2,0,80,0,0
150527,-66.6666666666667,4,2,0,80,0,0
150888,-100,4,2,0,80,0,0
151973,-71.4285714285714,4,2,0,80,0,0
153961,-100,4,2,0,80,0,0
154864,-71.4285714285714,4,2,0,80,0,0
155951,-40,4,2,0,80,0,0
156310,-55.5555555555556,4,2,0,80,0,0
156671,-100,4,2,0,80,0,0
157035,-58.8235294117647,4,2,0,80,0,0
157396,-100,4,2,0,80,0,0
157758,-62.5,4,2,0,80,0,0
158119,-100,4,2,0,80,0,0
158481,-66.6666666666667,4,2,0,80,0,0
158842,-100,4,2,0,80,0,0
159204,-33.3333333333333,4,2,0,80,0,1
159924,-66.6666666666667,4,2,0,80,0,1
161190,-83.3333333333333,4,2,0,80,0,1
161551,-58.8235294117647,4,2,0,80,0,1
162093,-71.4285714285714,4,2,0,80,0,0
167517,-38.4615384615385,4,2,0,80,0,0
167876,-71.4285714285714,4,2,0,80,0,0
170768,-62.5,4,2,0,80,0,0
173298,-33.3333333333333,4,2,0,80,0,0
173660,-71.4285714285714,4,2,0,80,0,0
179082,-40,4,2,0,80,0,0
179445,-71.4285714285714,4,2,0,80,0,0
185228,-125,4,2,0,70,0,0

[HitObjects]
55,296,168,6,0,P|70:277|109:263,1,52.2,0|0,0:0|0:0,0:0:0:0:
42,262,529,1,0,0:0:0:0:
42,262,890,2,0,P|57:243|96:229,1,52.2,0|0,0:0|0:0,0:0:0:0:
29,228,1251,1,0,0:0:0:0:
81,136,1433,1,0,0:0:0:0:
209,128,1613,6,0,P|190:92|170:80,1,52.2,0|0,0:0|0:0,0:0:0:0:
232,99,1975,1,0,0:0:0:0:
232,99,2336,2,0,P|213:63|193:51,1,52.2,0|0,0:0|0:0,0:0:0:0:
255,70,2698,1,0,0:0:0:0:
356,46,2878,1,0,0:0:0:0:
441,177,3059,6,0,P|467:179|495:164,1,52.2,0|0,0:0|0:0,0:0:0:0:
461,212,3421,1,0,0:0:0:0:
461,212,3782,2,0,P|487:214|515:199,1,52.2,0|0,0:0|0:0,0:0:0:0:
481,247,4144,1,0,0:0:0:0:
456,130,4324,1,0,0:0:0:0:
370,241,4505,6,0,P|334:255|310:249,1,52.2,0|0,0:0|0:0,0:0:0:0:
365,280,4866,1,0,0:0:0:0:
365,280,5228,2,0,L|305:288,1,52.2,0|0,0:0|0:0,0:0:0:0:
360,319,5589,1,0,0:0:0:0:
486,330,5770,1,0,0:0:0:0:
286,178,5951,6,0,P|281:148|265:130,1,52.2,0|0,0:0|0:0,0:0:0:0:
312,150,6312,1,0,0:0:0:0:
312,150,6674,2,0,P|307:120|291:102,1,52.2,0|0,0:0|0:0,0:0:0:0:
338,122,7035,1,0,0:0:0:0:
441,133,7216,1,0,0:0:0:0:
206,76,7396,6,0,P|184:75|148:94,1,52.2,0|0,0:0|0:0,0:0:0:0:
187,44,7758,1,0,0:0:0:0:
187,44,8119,2,0,P|165:43|129:62,1,52.2,0|0,0:0|0:0,0:0:0:0:
168,12,8481,1,0,0:0:0:0:
64,22,8661,1,0,0:0:0:0:
168,188,8842,6,0,P|192:205|216:207,1,52.2,0|0,0:0|0:0,0:0:0:0:
169,226,9203,1,0,0:0:0:0:
169,226,9565,2,0,P|193:243|217:245,1,52.2,0|0,0:0|0:0,0:0:0:0:
170,264,9926,1,0,0:0:0:0:
90,329,10107,1,0,0:0:0:0:
39,212,10288,5,0,0:0:0:0:
170,356,10469,1,0,0:0:0:0:
169,226,10649,1,0,0:0:0:0:
130,342,10830,1,0,0:0:0:0:
270,295,11011,2,0,B|314:269|328:321|382:278,1,104.4,0|0,0:0|0:0,0:0:0:0:
450,43,11734,6,0,L|454:-17,1,43.5,0|0,0:0|0:0,0:0:0:0:
356,49,12095,2,0,L|390:78,1,43.5,0|0,0:0|0:0,0:0:0:0:
326,109,12457,2,0,L|360:138,1,43.5,0|0,0:0|0:0,0:0:0:0:
460,220,12818,1,0,0:0:0:0:
329,230,12999,1,0,0:0:0:0:
219,158,13180,6,0,L|213:108,1,43.5,0|0,0:0|0:0,0:0:0:0:
192,176,13451,1,0,0:0:0:0:
192,176,13541,2,0,L|195:205,1,21.75,0|0,0:0|0:0,0:0:0:0:
163,16,13722,2,0,P|208:-1|229:5,1,52.1999984069825,0|0,0:0|0:0,0:0:0:0:
295,14,14083,1,0,0:0:0:0:
127,23,14264,1,0,0:0:0:0:
85,146,14445,1,0,0:0:0:0:
161,250,14625,6,0,P|194:260|208:278,1,43.5,0|0,0:0|0:0,0:0:0:0:
167,128,14987,2,0,P|167:162|154:181,1,43.5,0|0,0:0|0:0,0:0:0:0:
273,63,15348,2,0,P|240:74|218:67,1,43.5,0|0,0:0|0:0,0:0:0:0:
85,146,15710,1,0,0:0:0:0:
198,209,15890,1,0,0:0:0:0:
323,172,16071,6,0,P|318:136|307:119,1,43.5,0|0,0:0|0:0,0:0:0:0:
393,183,16342,1,0,0:0:0:0:
393,160,16433,2,0,P|388:124|377:107,1,43.5,0|0,0:0|0:0,0:0:0:0:
273,63,16794,2,0,B|317:54|317:54|351:66|351:66|403:56,1,130.5,0|0,0:0|0:0,0:0:0:0:
475,0,17427,1,0,0:0:0:0:
474,25,17517,6,0,L|471:70,1,43.5,0|0,0:0|0:0,0:0:0:0:
512,162,17878,2,0,L|468:173,1,43.5,0|0,0:0|0:0,0:0:0:0:
402,13,18240,2,0,L|399:58,1,43.5,0|0,0:0|0:0,0:0:0:0:
386,186,18601,1,0,0:0:0:0:
262,143,18782,1,0,0:0:0:0:
220,19,18963,6,0,L|269:36,1,43.5,0|0,0:0|0:0,0:0:0:0:
173,75,19234,1,0,0:0:0:0:
196,84,19324,2,0,L|245:101,1,43.5,0|0,0:0|0:0,0:0:0:0:
402,13,19686,2,0,L|361:55,1,43.5,0|0,0:0|0:0,0:0:0:0:
386,186,20047,1,0,0:0:0:0:
262,143,20228,1,0,0:0:0:0:
173,238,20408,6,0,L|121:228,1,43.5,0|0,0:0|0:0,0:0:0:0:
269,185,20770,2,0,L|259:128,1,43.5,0|0,0:0|0:0,0:0:0:0:
414,153,21131,2,0,L|386:186,1,43.5,0|0,0:0|0:0,0:0:0:0:
255,109,21493,1,0,0:0:0:0:
154,192,21674,1,0,0:0:0:0:
138,321,21854,6,0,L|110:323,1,21.75,0|0,0:0|0:0,0:0:0:0:
136,341,22035,2,0,L|108:343,1,21.75,0|0,0:0|0:0,0:0:0:0:
134,361,22216,2,0,L|106:363,1,21.75,0|0,0:0|0:0,0:0:0:0:
21,355,22396,1,0,0:0:0:0:
158,157,22577,1,0,0:0:0:0:
236,384,22758,2,0,P|263:363|217:335,1,104.399996813965,0|0,0:0|0:0,0:0:0:0:
43,331,23300,6,0,L|36:246,1,69.6,0|0,0:0|0:0,0:0:0:0:
21,355,23661,2,0,L|14:270,1,69.6,0|0,0:0|0:0,0:0:0:0:
222,331,24023,1,0,0:0:0:0:
222,331,24565,5,0,0:0:0:0:
222,331,25017,1,0,0:0:0:0:
238,313,25107,2,0,L|231:228,1,69.6,0|0,0:0|0:0,0:0:0:0:
425,313,25649,5,0,0:0:0:0:
438,160,26101,1,0,0:0:0:0:
449,136,26192,2,0,L|366:153,1,69.6,0|0,0:0|0:0,0:0:0:0:
468,104,26553,2,0,L|385:121,1,69.6,0|0,0:0|0:0,0:0:0:0:
460,0,26914,1,0,0:0:0:0:
460,0,27457,5,0,0:0:0:0:
460,0,27908,1,0,0:0:0:0:
477,19,27999,2,0,L|394:36,1,69.6,0|0,0:0|0:0,0:0:0:0:
264,63,28541,1,0,0:0:0:0:
299,132,28722,1,0,0:0:0:0:
39,34,28902,1,0,0:0:0:0:
21,63,29083,6,0,L|96:74,1,69.6,0|0,0:0|0:0,0:0:0:0:
3,89,29445,2,0,L|78:100,1,69.6,0|0,0:0|0:0,0:0:0:0:
226,126,29806,1,0,0:0:0:0:
226,126,30348,5,0,0:0:0:0:
226,126,30800,1,0,0:0:0:0:
252,151,30890,2,0,L|262:69,1,69.6,0|0,0:0|0:0,0:0:0:0:
427,167,31433,1,0,0:0:0:0:
445,308,31794,1,0,0:0:0:0:
447,318,31884,1,0,0:0:0:0:
484,340,31975,6,0,L|406:346,1,69.6,0|0,0:0|0:0,0:0:0:0:
511,360,32336,2,0,L|433:366,1,69.6,0|0,0:0|0:0,0:0:0:0:
256,338,32698,1,0,0:0:0:0:
256,338,33240,5,0,0:0:0:0:
256,338,33692,1,0,0:0:0:0:
225,353,33782,2,0,L|219:268,1,69.6,0|0,0:0|0:0,0:0:0:0:
106,220,34143,2,0,P|142:212|182:233,1,69.6,0|0,0:0|0:0,0:0:0:0:
256,338,34505,2,0,L|250:253,1,69.6,0|0,0:0|0:0,0:0:0:0:
78,185,34866,6,0,P|125:178|88:259,1,182.699994424439,0|0,0:0|0:0,0:0:0:0:
106,220,35228,1,0,0:0:0:0:
105,325,35408,1,0,0:0:0:0:
2,37,35589,1,0,0:0:0:0:
2,37,35770,1,0,0:0:0:0:
71,103,35951,1,0,0:0:0:0:
365,29,36131,1,0,0:0:0:0:
365,29,36312,6,0,L|360:127,1,87,0|0,0:0|0:0,0:0:0:0:
443,178,36583,1,0,0:0:0:0:
443,178,36674,1,0,0:0:0:0:
332,41,36854,2,0,L|327:139,1,87,0|0,0:0|0:0,0:0:0:0:
380,215,37125,1,0,0:0:0:0:
380,215,37216,1,0,0:0:0:0:
485,41,37396,2,0,P|428:14|362:30,1,130.5,0|0,0:0|0:0,0:0:0:0:
375,130,37758,6,0,L|262:120,1,87,0|0,0:0|0:0,0:0:0:0:
72,92,38119,1,0,0:0:0:0:
133,15,38300,1,0,0:0:0:0:
120,340,38481,1,0,0:0:0:0:
120,340,38661,1,0,0:0:0:0:
72,92,38842,1,0,0:0:0:0:
124,175,39023,1,0,0:0:0:0:
0,355,39204,6,0,L|102:369,1,87,0|0,0:0|0:0,0:0:0:0:
162,312,39475,1,0,0:0:0:0:
162,312,39565,1,0,0:0:0:0:
0,320,39746,2,0,L|61:331,1,43.5,0|0,0:0|0:0,0:0:0:0:
58,217,39927,2,0,L|78:255,1,43.5,0|0,0:0|0:0,0:0:0:0:
240,241,40107,2,0,L|179:230,1,43.5,0|0,0:0|0:0,0:0:0:0:
182,344,40288,2,0,L|162:306,1,43.5,0|0,0:0|0:0,0:0:0:0:
164,117,40469,1,0,0:0:0:0:
164,128,40559,1,0,0:0:0:0:
155,202,40649,6,0,L|261:192,1,87,0|0,0:0|0:0,0:0:0:0:
459,171,41011,1,0,0:0:0:0:
512,88,41192,1,0,0:0:0:0:
253,125,41372,1,0,0:0:0:0:
253,125,41553,1,0,0:0:0:0:
512,88,41734,1,0,0:0:0:0:
449,4,41914,1,0,0:0:0:0:
297,200,42095,6,0,P|242:212|209:201,1,87,0|0,0:0|0:0,0:0:0:0:
253,125,42366,1,0,0:0:0:0:
253,125,42457,1,0,0:0:0:0:
298,245,42637,2,0,P|243:257|210:246,1,87,0|0,0:0|0:0,0:0:0:0:
254,170,42908,1,0,0:0:0:0:
254,170,42999,1,0,0:0:0:0:
253,365,43180,1,0,0:0:0:0:
298,245,43360,1,0,0:0:0:0:
224,6,43541,6,0,L|199:107,1,87,0|0,0:0|0:0,0:0:0:0:
259,0,43902,2,0,L|234:101,1,87,0|0,0:0|0:0,0:0:0:0:
18,184,44264,1,0,0:0:0:0:
18,184,44445,1,0,0:0:0:0:
238,84,44625,1,0,0:0:0:0:
224,6,44806,1,0,0:0:0:0:
121,304,44987,6,0,P|156:340|215:347,1,87,0|0,0:0|0:0,0:0:0:0:
270,323,45258,1,0,0:0:0:0:
270,323,45348,1,0,0:0:0:0:
76,245,45529,2,0,P|75:295|112:341,2,87,0|0|0,0:0|0:0|0:0,0:0:0:0:
90,175,46071,6,0,P|53:210|47:269,1,87,0|0,0:0|0:0,0:0:0:0:
398,265,46433,6,0,L|403:236,1,26.1,0|0,0:0|0:0,0:0:0:0:
416,285,47155,6,0,L|425:231,1,52.2,0|0,0:0|0:0,0:0:0:0:
389,316,47878,6,0,L|404:228,1,78.2999976104737,0|0,0:0|0:0,0:0:0:0:
375,278,48601,6,0,L|394:167,1,104.4,0|0,0:0|0:0,0:0:0:0:
398,265,49324,6,0,L|422:120,1,130.5,0|0,0:0|0:0,0:0:0:0:
416,285,50047,6,0,L|443:126,1,156.599995220947,0|0,0:0|0:0,0:0:0:0:
389,316,50770,6,0,L|421:125,1,182.699994424439,0|0,0:0|0:0,0:0:0:0:
375,278,51493,6,0,L|411:68,1,208.8,0|0,0:0|0:0,0:0:0:0:
446,73,52216,6,0,L|477:93,1,34.8,0|0,0:0|0:0,0:0:0:0:
372,22,52396,1,0,0:0:0:0:
68,63,52577,1,0,0:0:0:0:
140,122,52758,1,0,0:0:0:0:
72,165,52939,6,0,L|41:185,1,34.8,0|0,0:0|0:0,0:0:0:0:
140,122,53119,1,0,0:0:0:0:
381,214,53300,1,0,0:0:0:0:
450,155,53481,1,0,0:0:0:0:
455,265,53661,6,0,L|486:285,1,34.8,0|0,0:0|0:0,0:0:0:0:
381,214,53841,1,0,0:0:0:0:
155,306,54022,1,0,0:0:0:0:
77,255,54203,1,0,0:0:0:0:
81,357,54384,6,0,L|50:377,1,34.8,0|0,0:0|0:0,0:0:0:0:
155,306,54564,1,0,0:0:0:0:
459,347,54745,1,0,0:0:0:0:
455,265,54926,1,0,0:0:0:0:
171,341,55107,1,0,0:0:0:0:
186,332,55197,1,0,0:0:0:0:
203,329,55287,1,0,0:0:0:0:
220,329,55378,1,0,0:0:0:0:
237,334,55468,1,0,0:0:0:0:
251,344,55558,1,0,0:0:0:0:
259,356,55649,5,0,0:0:0:0:
293,365,55739,1,0,0:0:0:0:
327,363,55830,1,0,0:0:0:0:
360,352,55920,1,0,0:0:0:0:
388,331,56010,1,0,0:0:0:0:
408,303,56101,1,0,0:0:0:0:
420,271,56191,1,0,0:0:0:0:
421,236,56281,1,0,0:0:0:0:
413,202,56372,1,0,0:0:0:0:
394,173,56462,1,0,0:0:0:0:
368,150,56553,5,0,0:0:0:0:
336,181,56644,1,0,0:0:0:0:
324,138,56734,1,0,0:0:0:0:
365,169,56824,1,0,0:0:0:0:
320,169,56915,1,0,0:0:0:0:
342,130,57005,1,0,0:0:0:0:
336,181,57095,2,0,L|300:150,1,34.8,0|0,0:0|0:0,0:0:0:0:
459,90,57276,2,0,L|453:125,1,34.8,0|0,0:0|0:0,0:0:0:0:
421,236,57457,2,0,P|365:264|411:178,1,243.599992565918,0|0,0:0|0:0,0:0:0:0:
72,97,57999,6,0,P|143:92|92:166,1,195.75000746727,0|0,0:0|0:0,0:0:0:0:
71,171,58360,2,0,L|15:171,1,43.5,0|0,0:0|0:0,0:0:0:0:
204,230,58541,1,0,0:0:0:0:
189,6,58722,1,0,0:0:0:0:
189,6,58902,1,0,0:0:0:0:
194,118,59083,1,0,0:0:0:0:
194,118,59264,1,0,0:0:0:0:
135,346,59445,6,0,P|188:277|232:278,1,121.799996282959,0|0,0:0|0:0,0:0:0:0:
294,321,59716,1,0,0:0:0:0:
294,321,59806,2,0,L|302:247,1,60.8999981414796,0|0,0:0|0:0,0:0:0:0:
68,300,59987,6,0,P|110:230|144:212,1,121.799996282959,0|0,0:0|0:0,0:0:0:0:
216,274,60258,1,0,0:0:0:0:
216,274,60348,2,0,L|224:200,1,60.8999981414796,0|0,0:0|0:0,0:0:0:0:
145,0,60529,2,0,P|112:53|190:25,1,182.699994424439,0|0,0:0|0:0,0:0:0:0:
210,15,60890,6,0,B|279:19|279:19|312:49|312:49|396:58,1,182.699994424439,0|0,0:0|0:0,0:0:0:0:
463,11,61252,1,0,0:0:0:0:
454,71,61342,1,0,0:0:0:0:
446,131,61433,2,0,L|421:87,1,43.5,0|0,0:0|0:0,0:0:0:0:
130,112,61613,1,0,0:0:0:0:
130,112,61794,1,0,0:0:0:0:
249,133,61975,1,0,0:0:0:0:
249,133,62156,1,0,0:0:0:0:
15,28,62336,6,0,P|87:8|140:25,1,121.799996282959,0|0,0:0|0:0,0:0:0:0:
130,112,62607,1,0,0:0:0:0:
130,112,62697,2,0,L|187:65,1,60.8999981414796,0|0,0:0|0:0,0:0:0:0:
28,109,62878,6,0,P|107:89|131:113,1,121.799996282959,0|0,0:0|0:0,0:0:0:0:
137,206,63149,1,0,0:0:0:0:
137,206,63239,2,0,L|194:159,1,60.8999981414796,0|0,0:0|0:0,0:0:0:0:
398,27,63421,6,0,B|431:-2|431:-2|448:60|448:60|382:123|382:123|404:234,1,261,0|0,0:0|0:0,0:0:0:0:
404,211,63782,6,0,P|313:243|282:333,1,195.75000746727,0|0,0:0|0:0,0:0:0:0:
286,370,64143,1,0,0:0:0:0:
237,197,64324,1,0,0:0:0:0:
504,384,64505,1,0,0:0:0:0:
504,384,64686,1,0,0:0:0:0:
394,323,64866,1,0,0:0:0:0:
394,323,65047,1,0,0:0:0:0:
301,134,65228,6,0,P|238:109|187:126,1,121.799996282959,0|0,0:0|0:0,0:0:0:0:
140,213,65499,1,0,0:0:0:0:
140,213,65589,2,0,L|203:240,1,60.8999981414796,0|0,0:0|0:0,0:0:0:0:
293,21,65770,2,0,P|230:-4|179:13,1,121.799996282959,0|0,0:0|0:0,0:0:0:0:
132,100,66041,1,0,0:0:0:0:
132,100,66131,2,0,L|195:127,1,60.8999981414796,0|0,0:0|0:0,0:0:0:0:
362,61,66312,2,0,P|340:5|286:33,1,121.799996282959,0|0,0:0|0:0,0:0:0:0:
395,76,66674,6,0,P|418:54|427:25,1,60.8999981414796,0|0,0:0|0:0,0:0:0:0:
428,175,66854,2,0,P|459:172|484:153,1,60.8999981414796,0|0,0:0|0:0,0:0:0:0:
396,275,67035,2,0,P|423:291|454:290,1,60.8999981414796,0|0,0:0|0:0,0:0:0:0:
312,339,67216,2,0,P|324:367|350:384,1,60.8999981414796,0|0,0:0|0:0,0:0:0:0:
295,192,67396,6,0,P|321:212|353:215,1,60.8999981414796,0|0,0:0|0:0,0:0:0:0:
368,43,67577,2,0,P|340:56|310:54,1,60.8999981414796,0|0,0:0|0:0,0:0:0:0:
210,300,67758,2,0,P|219:331|243:353,1,60.8999981414796,0|0,0:0|0:0,0:0:0:0:
150,127,67939,2,0,P|179:132|203:151,1,60.8999981414796,0|0,0:0|0:0,0:0:0:0:
488,146,68119,6,0,P|467:161|442:164,1,52.1999984069825,0|0,0:0|0:0,0:0:0:0:
455,288,68300,2,0,P|430:287|406:277,1,52.1999984069825,0|0,0:0|0:0,0:0:0:0:
347,383,68481,2,0,P|326:369|315:345,1,52.1999984069825,0|0,0:0|0:0,0:0:0:0:
427,27,68661,2,0,P|417:56|395:76,1,60.8999981414796,0|0,0:0|0:0,0:0:0:0:
455,288,68842,2,0,P|430:287|406:277,1,52.1999984069825,0|0,0:0|0:0,0:0:0:0:
183,207,69023,5,0,0:0:0:0:
256,233,69113,1,0,0:0:0:0:
329,207,69204,2,0,L|392:178,1,65.2500024890901,0|0,0:0|0:0,0:0:0:0:
329,37,69384,5,0,0:0:0:0:
256,11,69474,1,0,0:0:0:0:
183,37,69565,2,0,P|137:61|110:141,1,130.50000497818,0|0,0:0|0:0,0:0:0:0:
373,123,69927,1,0,0:0:0:0:
255,122,70107,1,0,0:0:0:0:
512,21,70288,1,0,0:0:0:0:
512,21,70469,1,0,0:0:0:0:
484,125,70649,1,0,0:0:0:0:
484,125,70830,1,0,0:0:0:0:
250,32,71011,6,0,B|247:75|247:75|228:100|228:100|225:154,1,121.799996282959,0|0,0:0|0:0,0:0:0:0:
303,216,71282,1,0,0:0:0:0:
303,216,71372,2,0,L|305:291,1,60.8999981414796,0|0,0:0|0:0,0:0:0:0:
161,0,71553,2,0,B|158:43|158:43|139:68|139:68|136:122,1,121.799996282959,0|0,0:0|0:0,0:0:0:0:
214,184,71824,1,0,0:0:0:0:
214,184,71914,2,0,L|216:259,1,60.8999981414796,0|0,0:0|0:0,0:0:0:0:
88,15,72095,2,0,P|44:-11|82:56,1,182.699994424439,0|0,0:0|0:0,0:0:0:0:
70,108,72457,6,0,P|96:177|58:279,1,182.699994424439,0|0,0:0|0:0,0:0:0:0:
32,298,72818,1,0,0:0:0:0:
110,214,72999,1,0,0:0:0:0:
403,303,73180,1,0,0:0:0:0:
403,303,73360,1,0,0:0:0:0:
321,384,73541,1,0,0:0:0:0:
321,384,73722,1,0,0:0:0:0:
115,236,73902,6,0,P|172:217|229:235,1,121.799996282959,0|0,0:0|0:0,0:0:0:0:
294,296,74174,1,0,0:0:0:0:
294,296,74264,2,0,L|303:217,1,60.8999981414796,0|0,0:0|0:0,0:0:0:0:
230,76,74445,2,0,P|286:94|323:142,1,121.799996282959,0|0,0:0|0:0,0:0:0:0:
339,229,74717,1,0,0:0:0:0:
339,229,74806,2,0,L|348:150,1,60.8999981414796,0|0,0:0|0:0,0:0:0:0:
443,9,74987,6,0,B|474:73|474:73|437:119|466:194|466:194|426:243,1,261,0|0,0:0|0:0,0:0:0:0:
395,271,75348,6,0,B|339:229|339:229|275:266|217:252,1,195.75000746727,0|0,0:0|0:0,0:0:0:0:
188,244,75710,2,0,L|196:192,1,43.5,0|0,0:0|0:0,0:0:0:0:
168,364,75890,1,0,0:0:0:0:
216,75,76071,2,0,L|224:23,1,43.5,0|0,0:0|0:0,0:0:0:0:
302,39,76252,1,0,0:0:0:0:
115,130,76433,2,0,L|107:182,1,43.5,0|0,0:0|0:0,0:0:0:0:
31,164,76613,1,0,0:0:0:0:
323,331,76794,6,0,P|390:347|445:318,1,121.799996282959,0|0,0:0|0:0,0:0:0:0:
483,224,77065,1,0,0:0:0:0:
483,224,77155,2,0,L|399:220,1,60.8999981414796,0|0,0:0|0:0,0:0:0:0:
283,234,77336,2,0,P|350:250|405:221,1,121.799996282959,0|0,0:0|0:0,0:0:0:0:
443,127,77607,1,0,0:0:0:0:
443,127,77697,2,0,L|359:123,1,60.8999981414796,0|0,0:0|0:0,0:0:0:0:
323,331,77878,2,0,P|376:278|303:229,1,182.699994424439,0|0,0:0|0:0,0:0:0:0:
283,234,78240,6,0,B|235:271|235:271|122:265,1,139.2,0|0,0:0|0:0,0:0:0:0:
0,26,78601,1,0,0:0:0:0:
23,134,78782,1,0,0:0:0:0:
512,189,78963,1,0,0:0:0:0:
512,189,79143,1,0,0:0:0:0:
402,269,79324,1,0,0:0:0:0:
402,269,79505,1,0,0:0:0:0:
48,346,79686,6,0,P|0:272|82:264,1,195.75000746727,0|0,0:0|0:0,0:0:0:0:
114,284,80047,1,0,0:0:0:0:
155,315,80137,1,0,0:0:0:0:
208,311,80228,2,0,L|259:265,1,52.1999984069825,0|0,0:0|0:0,0:0:0:0:
354,0,80408,2,0,L|354:52,1,52.1999984069825,0|0,0:0|0:0,0:0:0:0:
482,255,80589,6,0,P|467:362|452:234,1,369.750007052422,0|0,0:0|0:0,0:0:0:0:
405,232,81131,6,0,P|352:228|301:281,1,121.799996282959,0|0,0:0|0:0,0:0:0:0:
506,191,81493,2,0,P|453:187|402:240,1,121.799996282959,0|0,0:0|0:0,0:0:0:0:
201,120,81854,2,0,L|197:180,1,60.8999981414796,0|0,0:0|0:0,0:0:0:0:
276,113,82035,2,0,L|299:169,1,60.8999981414796,0|0,0:0|0:0,0:0:0:0:
333,63,82216,2,0,L|379:102,1,60.8999981414796,0|0,0:0|0:0,0:0:0:0:
198,216,82396,6,0,L|145:255,1,60.8999981414796,0|0,0:0|0:0,0:0:0:0:
320,217,82577,2,0,L|345:275,1,60.8999981414796,0|0,0:0|0:0,0:0:0:0:
404,129,82758,2,0,L|469:118,1,60.8999981414796,0|0,0:0|0:0,0:0:0:0:
299,330,82939,1,0,0:0:0:0:
370,334,83029,1,0,0:0:0:0:
416,280,83119,2,0,L|405:214,1,60.8999981414796,0|0,0:0|0:0,0:0:0:0:
455,277,83300,2,0,L|444:211,1,60.8999981414796,0|0,0:0|0:0,0:0:0:0:
358,47,83481,2,0,L|397:99,1,60.8999981414796,0|0,0:0|0:0,0:0:0:0:
509,129,83661,2,0,B|439:113|463:170|396:168,1,121.799996282959,0|0,0:0|0:0,0:0:0:0:
394,96,83933,1,0,0:0:0:0:
414,118,84023,6,0,P|430:175|393:233,1,121.799996282959,0|0,0:0|0:0,0:0:0:0:
425,9,84384,2,0,P|441:66|404:124,1,121.799996282959,0|0,0:0|0:0,0:0:0:0:
268,115,84746,2,0,L|200:115,1,60.8999981414796,0|0,0:0|0:0,0:0:0:0:
312,38,84927,2,0,L|244:38,1,60.8999981414796,0|0,0:0|0:0,0:0:0:0:
313,187,85107,2,0,L|245:187,1,60.8999981414796,0|0,0:0|0:0,0:0:0:0:
212,25,85288,6,0,L|148:0,1,60.8999981414796,0|0,0:0|0:0,0:0:0:0:
173,114,85469,2,0,L|105:114,1,60.8999981414796,0|0,0:0|0:0,0:0:0:0:
199,202,85649,2,0,L|135:227,1,60.8999981414796,0|0,0:0|0:0,0:0:0:0:
14,113,85830,1,0,0:0:0:0:
66,59,85921,1,0,0:0:0:0:
112,114,86011,2,0,L|32:114,1,60.8999981414796,0|0,0:0|0:0,0:0:0:0:
92,154,86192,2,0,L|12:154,1,60.8999981414796,0|0,0:0|0:0,0:0:0:0:
149,20,86372,2,0,L|229:20,1,60.8999981414796,0|0,0:0|0:0,0:0:0:0:
199,202,86553,6,0,P|142:186|205:125,1,174,0|0,0:0|0:0,0:0:0:0:
231,193,86824,5,0,0:0:0:0:
229,227,86914,2,0,P|179:275|125:280,1,121.799996282959,0|0,0:0|0:0,0:0:0:0:
341,242,87276,2,0,P|272:251|225:223,1,121.799996282959,0|0,0:0|0:0,0:0:0:0:
126,176,87637,2,0,P|103:154|64:146,1,60.8999981414796,0|0,0:0|0:0,0:0:0:0:
211,127,87818,2,0,L|199:63,1,60.8999981414796,0|0,0:0|0:0,0:0:0:0:
309,143,87999,2,0,P|322:115|356:94,1,60.8999981414796,0|0,0:0|0:0,0:0:0:0:
73,82,88180,6,0,P|55:112|47:148,1,60.8999981414796,0|0,0:0|0:0,0:0:0:0:
189,7,88360,2,0,L|200:70,1,60.8999981414796,0|0,0:0|0:0,0:0:0:0:
334,31,88541,2,0,P|367:53|384:80,1,60.8999981414796,0|0,0:0|0:0,0:0:0:0:
144,142,88722,1,0,0:0:0:0:
206,99,88812,1,0,0:0:0:0:
278,120,88902,2,0,L|337:159,1,60.8999981414796,0|0,0:0|0:0,0:0:0:0:
218,166,89083,2,0,L|228:225,1,60.8999981414796,0|0,0:0|0:0,0:0:0:0:
247,322,89264,2,0,L|237:263,1,60.8999981414796,0|0,0:0|0:0,0:0:0:0:
171,200,89445,2,0,P|217:165|286:185,1,121.799996282959,0|0,0:0|0:0,0:0:0:0:
218,277,89716,1,0,0:0:0:0:
181,268,89806,6,0,L|167:179,1,69.6,0|0,0:0|0:0,0:0:0:0:
104,314,89987,2,0,L|90:225,1,69.6,0|0,0:0|0:0,0:0:0:0:
263,187,90167,2,0,L|277:98,1,69.6,0|0,0:0|0:0,0:0:0:0:
340,233,90348,2,0,L|354:144,1,69.6,0|0,0:0|0:0,0:0:0:0:
134,42,90529,6,0,L|212:55,1,69.6,0|0,0:0|0:0,0:0:0:0:
121,190,90710,2,0,L|199:203,1,69.6,0|0,0:0|0:0,0:0:0:0:
6,103,90890,2,0,L|84:116,1,69.6,0|0,0:0|0:0,0:0:0:0:
394,157,91071,6,0,L|404:227,1,69.6,0|0,0:0|0:0,0:0:0:0:
263,187,91252,2,0,L|273:257,1,69.6,0|0,0:0|0:0,0:0:0:0:
306,64,91433,2,0,L|316:134,1,69.6,0|0,0:0|0:0,0:0:0:0:
286,337,91613,5,0,0:0:0:0:
202,350,91704,1,0,0:0:0:0:
163,276,91794,2,0,P|161:248|186:209,1,69.6,0|0,0:0|0:0,0:0:0:0:
349,321,91975,2,0,P|325:336|279:334,1,69.6,0|0,0:0|0:0,0:0:0:0:
296,142,92155,2,0,P|321:154|342:195,1,69.6,0|0,0:0|0:0,0:0:0:0:
22,200,92336,6,0,P|-1:101|139:60,1,261,0|0,0:0|0:0,0:0:0:0:
149,83,92698,6,0,L|126:215,1,121.799996282959,0|0,0:0|0:0,0:0:0:0:
262,39,93059,2,0,L|121:93,1,121.799996282959,0|0,0:0|0:0,0:0:0:0:
100,152,93421,2,0,L|88:225,1,60.8999981414796,0|0,0:0|0:0,0:0:0:0:
208,22,93601,2,0,L|284:-8,1,60.8999981414796,0|0,0:0|0:0,0:0:0:0:
194,120,93782,2,0,L|148:82,1,60.8999981414796,0|0,0:0|0:0,0:0:0:0:
117,230,93963,6,0,L|105:303,1,60.8999981414796,0|0,0:0|0:0,0:0:0:0:
296,22,94143,2,0,L|372:-8,1,60.8999981414796,0|0,0:0|0:0,0:0:0:0:
310,149,94324,1,0,0:0:0:0:
282,216,94414,1,0,0:0:0:0:
212,239,94505,2,0,L|202:163,1,60.8999981414796,0|0,0:0|0:0,0:0:0:0:
191,96,94686,1,0,0:0:0:0:
201,61,94776,2,0,L|268:35,1,60.8999981414796,0|0,0:0|0:0,0:0:0:0:
398,146,94957,2,0,L|465:120,1,60.8999981414796,0|0,0:0|0:0,0:0:0:0:
331,352,95137,1,0,0:0:0:0:
297,336,95228,2,0,L|279:199,1,121.799996282959,0|0,0:0|0:0,0:0:0:0:
289,177,95499,1,0,0:0:0:0:
281,215,95589,6,0,P|220:250|161:242,1,121.799996282959,0|0,0:0|0:0,0:0:0:0:
391,184,95951,2,0,P|329:218|270:210,1,121.799996282959,0|0,0:0|0:0,0:0:0:0:
130,174,96312,2,0,L|165:239,1,60.8999981414796,0|0,0:0|0:0,0:0:0:0:
233,57,96493,2,0,L|251:133,1,60.8999981414796,0|0,0:0|0:0,0:0:0:0:
383,94,96674,2,0,L|392:173,1,60.8999981414796,0|0,0:0|0:0,0:0:0:0:
193,228,96854,6,0,L|140:302,1,60.8999981414796,0|0,0:0|0:0,0:0:0:0:
357,186,97035,2,0,L|446:203,1,60.8999981414796,0|0,0:0|0:0,0:0:0:0:
382,329,97216,1,0,0:0:0:0:
318,365,97306,1,0,0:0:0:0:
245,355,97396,2,0,L|184:332,1,60.8999981414796,0|0,0:0|0:0,0:0:0:0:
174,196,97577,1,0,0:0:0:0:
193,228,97667,2,0,L|258:235,1,60.8999981414796,0|0,0:0|0:0,0:0:0:0:
233,57,97848,2,0,L|251:133,1,60.8999981414796,0|0,0:0|0:0,0:0:0:0:
346,148,98029,1,0,0:0:0:0:
351,179,98119,2,0,L|307:226,1,60.8999981414796,0|0,0:0|0:0,0:0:0:0:
89,224,98300,1,0,0:0:0:0:
67,124,98390,1,0,0:0:0:0:
113,34,98481,6,0,L|239:58,1,121.799996282959,0|0,0:0|0:0,0:0:0:0:
331,52,98842,2,0,L|450:29,1,121.799996282959,0|0,0:0|0:0,0:0:0:0:
138,113,99204,2,0,L|215:128,1,60.8999981414796,0|0,0:0|0:0,0:0:0:0:
386,121,99384,2,0,L|445:109,1,60.8999981414796,0|0,0:0|0:0,0:0:0:0:
284,1,99565,2,0,L|284:103,1,60.8999981414796,0|0,0:0|0:0,0:0:0:0:
196,196,99746,6,0,L|167:130,1,60.8999981414796,0|0,0:0|0:0,0:0:0:0:
284,122,99927,2,0,L|284:20,1,60.8999981414796,0|0,0:0|0:0,0:0:0:0:
403,211,100107,1,0,0:0:0:0:
359,270,100198,1,0,0:0:0:0:
286,274,100288,2,0,L|286:172,1,60.8999981414796,0|0,0:0|0:0,0:0:0:0:
372,135,100469,2,0,L|401:69,1,60.8999981414796,0|0,0:0|0:0,0:0:0:0:
284,61,100650,2,0,L|284:-41,1,60.8999981414796,0|0,0:0|0:0,0:0:0:0:
196,138,100830,2,0,L|167:72,1,60.8999981414796,0|0,0:0|0:0,0:0:0:0:
359,270,101011,2,0,P|331:334|282:347,1,121.799996282959,0|0,0:0|0:0,0:0:0:0:
260,196,101282,1,0,0:0:0:0:
284,225,101372,6,0,L|285:348,1,121.799996282959,0|0,0:0|0:0,0:0:0:0:
358,148,101734,2,0,L|359:271,1,121.799996282959,0|0,0:0|0:0,0:0:0:0:
58,83,102095,6,0,L|20:18,1,60.8999981414796,0|0,0:0|0:0,0:0:0:0:
69,101,102276,2,0,L|214:107,1,121.799996282959,0|0,0:0|0:0,0:0:0:0:
457,161,102637,6,0,L|495:96,1,60.8999981414796,0|0,0:0|0:0,0:0:0:0:
446,179,102818,2,0,L|301:185,1,121.799996282959,0|0,0:0|0:0,0:0:0:0:
19,244,103180,5,0,0:0:0:0:
0,210,103270,1,0,0:0:0:0:
38,278,103360,2,0,L|183:284,1,121.799996282959,0|0,0:0|0:0,0:0:0:0:
247,384,103540,1,0,0:0:0:0:
254,360,103722,6,0,P|272:324|301:287,1,87,0|0,0:0|0:0,0:0:0:0:
186,246,103902,2,0,P|168:210|139:173,1,87,0|0,0:0|0:0,0:0:0:0:
281,73,104083,2,0,P|299:37|328:0,1,87,0|0,0:0|0:0,0:0:0:0:
102,73,104264,6,0,L|95:158,1,69.6,0|0,0:0|0:0,0:0:0:0:
80,49,104625,2,0,L|73:134,1,69.6,0|0,0:0|0:0,0:0:0:0:
281,73,104987,1,0,0:0:0:0:
281,73,105529,5,0,0:0:0:0:
281,73,105981,1,0,0:0:0:0:
297,91,106071,2,0,L|290:176,1,69.6,0|0,0:0|0:0,0:0:0:0:
482,142,106613,5,0,0:0:0:0:
291,185,107065,1,0,0:0:0:0:
302,209,107156,2,0,L|219:192,1,69.6,0|0,0:0|0:0,0:0:0:0:
317,238,107517,2,0,L|234:221,1,69.6,0|0,0:0|0:0,0:0:0:0:
111,348,107878,1,0,0:0:0:0:
111,348,108421,5,0,0:0:0:0:
111,348,108872,1,0,0:0:0:0:
128,329,108963,2,0,L|45:312,1,69.6,0|0,0:0|0:0,0:0:0:0:
332,342,109505,1,0,0:0:0:0:
274,265,109686,1,0,0:0:0:0:
326,107,109866,1,0,0:0:0:0:
292,117,110047,6,0,L|347:169,1,69.6,0|0,0:0|0:0,0:0:0:0:
262,128,110409,2,0,L|317:180,1,69.6,0|0,0:0|0:0,0:0:0:0:
424,286,110770,1,0,0:0:0:0:
424,286,111312,5,0,0:0:0:0:
424,286,111764,1,0,0:0:0:0:
450,311,111854,2,0,L|460:229,1,69.6,0|0,0:0|0:0,0:0:0:0:
492,59,112397,1,0,0:0:0:0:
282,133,112758,1,0,0:0:0:0:
272,131,112848,1,0,0:0:0:0:
250,94,112939,6,0,L|244:172,1,69.6,0|0,0:0|0:0,0:0:0:0:
230,67,113300,2,0,L|224:145,1,69.6,0|0,0:0|0:0,0:0:0:0:
199,369,113662,1,0,0:0:0:0:
199,369,114204,5,0,0:0:0:0:
199,369,114656,1,0,0:0:0:0:
168,384,114746,2,0,L|162:299,1,69.6,0|0,0:0|0:0,0:0:0:0:
133,252,115107,2,0,P|169:244|209:265,1,69.6,0|0,0:0|0:0,0:0:0:0:
66,365,115469,2,0,L|60:280,1,69.6,0|0,0:0|0:0,0:0:0:0:
87,69,115830,6,0,B|151:49|136:101|203:85|203:85|166:107|135:100,1,182.699994424439,0|0,0:0|0:0,0:0:0:0:
54,74,116192,1,0,0:0:0:0:
166,160,116372,1,0,0:0:0:0:
180,5,116553,1,0,0:0:0:0:
180,5,116734,1,0,0:0:0:0:
27,77,116915,1,0,0:0:0:0:
346,54,117095,1,0,0:0:0:0:
346,54,117276,6,0,P|357:107|341:152,1,87,0|0,0:0|0:0,0:0:0:0:
399,210,117547,1,0,0:0:0:0:
399,210,117638,1,0,0:0:0:0:
446,140,117818,2,0,P|423:189|384:216,1,87,0|0,0:0|0:0,0:0:0:0:
397,297,118089,1,0,0:0:0:0:
397,297,118180,1,0,0:0:0:0:
501,94,118360,2,0,P|444:67|385:102,1,130.5,0|0,0:0|0:0,0:0:0:0:
371,123,118722,6,0,P|318:130|288:114,1,87,0|0,0:0|0:0,0:0:0:0:
477,317,119083,1,0,0:0:0:0:
406,384,119264,1,0,0:0:0:0:
440,24,119445,1,0,0:0:0:0:
440,24,119625,1,0,0:0:0:0:
232,135,119806,1,0,0:0:0:0:
284,218,119987,1,0,0:0:0:0:
157,373,120168,6,0,L|259:387,1,87,0|0,0:0|0:0,0:0:0:0:
319,330,120439,1,0,0:0:0:0:
319,330,120529,1,0,0:0:0:0:
215,235,120710,2,0,L|235:273,1,43.5,0|0,0:0|0:0,0:0:0:0:
199,345,120891,2,0,L|157:338,1,43.5,0|0,0:0|0:0,0:0:0:0:
472,327,121071,2,0,L|411:338,1,43.5,0|0,0:0|0:0,0:0:0:0:
393,262,121252,2,0,L|413:224,1,43.5,0|0,0:0|0:0,0:0:0:0:
302,113,121433,1,0,0:0:0:0:
303,125,121523,1,0,0:0:0:0:
311,198,121613,6,0,L|205:188,1,87,0|0,0:0|0:0,0:0:0:0:
0,88,121975,1,0,0:0:0:0:
53,171,122156,1,0,0:0:0:0:
293,0,122336,1,0,0:0:0:0:
293,0,122517,1,0,0:0:0:0:
0,88,122698,1,0,0:0:0:0:
63,4,122878,1,0,0:0:0:0:
215,200,123059,6,0,P|270:212|303:201,1,87,0|0,0:0|0:0,0:0:0:0:
262,126,123330,1,0,0:0:0:0:
262,126,123421,1,0,0:0:0:0:
70,183,123601,2,0,P|107:225|140:235,1,87,0|0,0:0|0:0,0:0:0:0:
149,147,123872,1,0,0:0:0:0:
149,147,123963,1,0,0:0:0:0:
368,164,124144,1,0,0:0:0:0:
338,35,124324,1,0,0:0:0:0:
224,378,124505,6,0,L|199:277,1,87,0|0,0:0|0:0,0:0:0:0:
259,384,124866,1,0,0:0:0:0:
238,299,125046,1,0,0:0:0:0:
18,184,125228,1,0,0:0:0:0:
18,184,125409,1,0,0:0:0:0:
372,384,125589,1,0,0:0:0:0:
358,306,125770,1,0,0:0:0:0:
250,81,125951,6,0,P|214:116|207:175,1,87,0|0,0:0|0:0,0:0:0:0:
231,230,126222,1,0,0:0:0:0:
231,230,126312,1,0,0:0:0:0:
309,36,126493,2,0,P|259:35|213:72,2,87,0|0|0,0:0|0:0|0:0,0:0:0:0:
379,49,127035,6,0,P|344:12|285:6,1,87,0|0,0:0|0:0,0:0:0:0:
256,192,127396,6,0,P|267:182|280:178,1,26.1,0|0,0:0|0:0,0:0:0:0:
240,192,128119,6,0,P|260:211|285:218,1,52.2,0|0,0:0|0:0,0:0:0:0:
224,192,128842,6,0,P|255:163|292:152,1,78.2999976104737,0|0,0:0|0:0,0:0:0:0:
208,192,129565,6,0,P|247:228|294:242,1,104.4,0|0,0:0|0:0,0:0:0:0:
192,192,130288,6,0,P|246:142|311:122,1,130.5,0|0,0:0|0:0,0:0:0:0:
176,192,131011,6,0,P|235:246|306:268,1,156.599995220947,0|0,0:0|0:0,0:0:0:0:
160,192,131734,6,0,P|230:127|314:102,1,182.699994424439,0|0,0:0|0:0,0:0:0:0:
144,192,132457,6,0,P|218:263|316:299,1,208.8,0|0,0:0|0:0,0:0:0:0:
340,72,133180,6,0,P|301:104|352:127,1,104.4,0|0,0:0|0:0,0:0:0:0:
413,110,133541,1,0,0:0:0:0:
413,110,133631,1,0,0:0:0:0:
265,54,133722,2,0,B|246:105|246:105|275:154,1,104.4,0|0,0:0|0:0,0:0:0:0:
330,133,134083,2,0,P|359:96|320:71,1,104.4,0|0,0:0|0:0,0:0:0:0:
219,126,134445,2,0,L|251:178,1,34.8,0|0,0:0|0:0,0:0:0:0:
459,216,134625,5,0,0:0:0:0:
470,194,134716,2,0,P|478:165|478:143,1,34.8,0|0,0:0|0:0,0:0:0:0:
383,24,134896,1,0,0:0:0:0:
380,41,134987,1,0,0:0:0:0:
383,58,135077,2,0,P|399:76|414:85,1,34.8,0|0,0:0|0:0,0:0:0:0:
350,228,135348,1,0,0:0:0:0:
332,210,135439,2,0,P|306:193|285:186,1,34.8,0|0,0:0|0:0,0:0:0:0:
86,224,135710,1,0,0:0:0:0:
181,65,135890,1,0,0:0:0:0:
198,38,135981,6,0,L|200:100,2,34.8,0|0|0,0:0|0:0|0:0,0:0:0:0:
155,155,136252,2,0,L|245:152,1,69.6,0|0,0:0|0:0,0:0:0:0:
199,8,136613,1,0,0:0:0:0:
104,246,136794,1,0,0:0:0:0:
122,275,136884,1,0,0:0:0:0:
149,296,136974,1,0,0:0:0:0:
182,306,137065,1,0,0:0:0:0:
217,305,137155,1,0,0:0:0:0:
249,291,137245,1,0,0:0:0:0:
274,267,137336,1,0,0:0:0:0:
289,236,137426,1,0,0:0:0:0:
307,206,137517,5,0,0:0:0:0:
334,185,137607,1,0,0:0:0:0:
367,175,137698,1,0,0:0:0:0:
402,176,137788,1,0,0:0:0:0:
434,190,137878,1,0,0:0:0:0:
459,214,137969,1,0,0:0:0:0:
474,245,138059,2,0,L|475:297,1,34.8,0|0,0:0|0:0,0:0:0:0:
471,34,138240,2,0,L|472:-18,1,34.8,0|0,0:0|0:0,0:0:0:0:
289,236,138421,6,0,P|168:214|261:166,1,304.499990707398,0|0,0:0|0:0,0:0:0:0:
170,288,138963,6,0,B|168:233|116:215|116:215|168:198|167:138,1,195.75000746727,0|0,0:0|0:0,0:0:0:0:
60,114,139324,2,0,P|72:132|94:144,1,43.5,0|0,0:0|0:0,0:0:0:0:
258,164,139505,1,0,0:0:0:0:
0,36,139686,1,0,0:0:0:0:
0,36,139866,1,0,0:0:0:0:
26,230,140047,1,0,0:0:0:0:
26,230,140228,1,0,0:0:0:0:
240,47,140408,6,0,P|200:16|121:20,1,121.799996282959,0|0,0:0|0:0,0:0:0:0:
78,106,140680,1,0,0:0:0:0:
78,106,140770,2,0,L|84:175,1,60.8999981414796,0|0,0:0|0:0,0:0:0:0:
335,142,140951,2,0,P|320:93|254:50,1,121.799996282959,0|0,0:0|0:0,0:0:0:0:
169,94,141223,1,0,0:0:0:0:
169,94,141312,2,0,L|175:163,1,60.8999981414796,0|0,0:0|0:0,0:0:0:0:
327,221,141493,2,0,P|395:175|329:144,1,182.699994424439,0|0,0:0|0:0,0:0:0:0:
343,264,141854,6,0,P|269:227|165:246,1,182.699994424439,0|0,0:0|0:0,0:0:0:0:
110,344,142216,1,0,0:0:0:0:
95,284,142306,1,0,0:0:0:0:
81,225,142396,2,0,L|12:210,1,60.8999981414796,0|0,0:0|0:0,0:0:0:0:
431,285,142577,1,0,0:0:0:0:
431,285,142758,1,0,0:0:0:0:
280,360,142939,1,0,0:0:0:0:
280,360,143119,1,0,0:0:0:0:
363,124,143300,6,0,P|381:191|357:237,1,121.799996282959,0|0,0:0|0:0,0:0:0:0:
249,250,143571,1,0,0:0:0:0:
249,250,143661,2,0,L|163:249,1,60.8999981414796,0|0,0:0|0:0,0:0:0:0:
463,140,143842,2,0,P|438:204|391:227,1,121.799996282959,0|0,0:0|0:0,0:0:0:0:
296,174,144113,1,0,0:0:0:0:
296,174,144203,2,0,L|227:122,1,60.8999981414796,0|0,0:0|0:0,0:0:0:0:
488,322,144384,6,0,B|415:350|415:350|352:308|300:336|300:336|247:371|186:325,1,300.150005724907,0|0,0:0|0:0,0:0:0:0:
250,267,144746,6,0,B|197:198|197:198|84:197,1,195.75000746727
0,338,145107,1,0,0:0:0:0:
67,174,145288,2,0,L|9:174,1,43.5
257,377,145469,1,0,0:0:0:0:
257,377,145649,1,0,0:0:0:0:
128,310,145830,1,0,0:0:0:0:
128,310,146011,1,0,0:0:0:0:
150,45,146192,6,0,B|180:101|180:101|144:174,1,121.799996282959,0|0,0:0|0:0,0:0:0:0:
223,232,146463,1,0,0:0:0:0:
223,232,146553,1,0,0:0:0:0:
0,62,146734,2,0,B|57:89|57:89|70:169,1,121.799996282959,0|0,0:0|0:0,0:0:0:0:
146,186,147005,1,0,0:0:0:0:
146,186,147095,1,0,0:0:0:0:
253,5,147276,2,0,B|305:60|305:60|266:172,1,182.699994424439,0|0,0:0|0:0,0:0:0:0:
260,192,147637,6,0,P|293:203|328:191,1,60.8999981414796,0|0,0:0|0:0,0:0:0:0:
184,73,147818,2,0,P|151:62|116:74,1,60.8999981414796,0|0,0:0|0:0,0:0:0:0:
133,275,147999,2,0,P|166:286|201:274,1,60.8999981414796,0|0,0:0|0:0,0:0:0:0:
57,156,148180,2,0,P|24:145|-11:157,1,60.8999981414796,0|0,0:0|0:0,0:0:0:0:
259,192,148360,6,0,P|288:174|306:134,1,65.2500024890901,0|0,0:0|0:0,0:0:0:0:
184,73,148541,2,0,P|189:46|182:3,1,65.2500024890901,0|0,0:0|0:0,0:0:0:0:
57,156,148722,2,0,P|43:129|9:104,1,65.2500024890901,0|0,0:0|0:0,0:0:0:0:
174,135,148902,2,0,P|171:107|183:73,1,65.2500024890901,0|0,0:0|0:0,0:0:0:0:
59,255,149083,6,0,P|34:280|25:314,1,52.1999984069825,0|0,0:0|0:0,0:0:0:0:
161,326,149264,2,0,P|155:360|168:393,1,52.1999984069825,0|0,0:0|0:0,0:0:0:0:
302,314,149445,2,0,P|318:345|347:364,1,52.1999984069825,0|0,0:0|0:0,0:0:0:0:
129,200,149626,6,0,P|160:216|195:214,1,52.1999984069825,0|0,0:0|0:0,0:0:0:0:
374,2,149806,1,0,0:0:0:0:
254,296,149987,2,0,P|285:312|320:310,1,52.1999984069825,0|0,0:0|0:0,0:0:0:0:
499,98,150167,1,0,0:0:0:0:
382,384,150348,1,0,0:0:0:0:
425,302,150439,1,0,0:0:0:0:
504,258,150529,2,0,P|415:272|347:171,1,195.75000746727,0|0,0:0|0:0,0:0:0:0:
346,158,150890,5,0,0:0:0:0:
462,0,151071,2,0,L|452:69,1,43.5
487,369,151252,1,0,0:0:0:0:
487,369,151433,1,0,0:0:0:0:
322,317,151613,1,0,0:0:0:0:
322,317,151794,1,0,0:0:0:0:
452,200,151975,6,0,B|449:153|449:153|467:126|467:126|464:69,1,121.799996282959,0|0,0:0|0:0,0:0:0:0:
403,13,152246,1,0,0:0:0:0:
403,13,152336,2,0,L|475:-3,1,60.8999981414796,0|0,0:0|0:0,0:0:0:0:
368,242,152517,2,0,B|365:195|365:195|383:168|383:168|380:111,1,121.799996282959,0|0,0:0|0:0,0:0:0:0:
319,55,152788,1,0,0:0:0:0:
319,55,152878,2,0,L|391:39,1,60.8999981414796,0|0,0:0|0:0,0:0:0:0:
443,262,153059,2,0,B|405:271|405:271|394:290|394:290|365:298|365:298|337:286|337:286|325:263|325:263|275:254,1,182.699994424439,0|0,0:0|0:0,0:0:0:0:
258,254,153421,6,0,B|219:282|219:282|212:334|212:334|158:376|108:329,1,182.699994424439,0|0,0:0|0:0,0:0:0:0:
53,313,153782,1,0,0:0:0:0:
279,364,153963,2,0,L|284:308,1,43.5,0|0,0:0|0:0,0:0:0:0:
223,53,154143,1,0,0:0:0:0:
223,53,154324,1,0,0:0:0:0:
197,191,154505,1,0,0:0:0:0:
197,191,154686,1,0,0:0:0:0:
52,167,154866,6,0,B|40:96|40:96|76:43,1,121.799996282959,0|0,0:0|0:0,0:0:0:0:
184,5,155137,1,0,0:0:0:0:
184,5,155228,2,0,L|235:68,1,60.8999981414796,0|0,0:0|0:0,0:0:0:0:
125,284,155408,2,0,B|66:242|66:242|54:179,1,121.799996282959,0|0,0:0|0:0,0:0:0:0:
145,84,155679,1,0,0:0:0:0:
145,84,155770,2,0,L|225:92,1,60.8999981414796,0|0,0:0|0:0,0:0:0:0:
365,289,155951,6,0,P|297:376|300:246,1,326.25,0|0,0:0|0:0,0:0:0:0:
308,219,156312,6,0,P|313:182|337:140,1,78.2999976104737,0|0,0:0|0:0,0:0:0:0:
442,0,156493,1,0,0:0:0:0:
329,384,156674,1,0,0:0:0:0:
425,218,156854,2,0,P|451:198|488:195,1,43.5,0|0,0:0|0:0,0:0:0:0:
308,114,157035,6,0,P|341:118|377:138,1,73.9500014104843,0|0,0:0|0:0,0:0:0:0:
505,234,157216,1,0,0:0:0:0:
159,132,157397,1,0,0:0:0:0:
308,219,157577,2,0,P|326:242|328:275,1,43.5,0|0,0:0|0:0,0:0:0:0:
107,185,157758,6,0,P|92:166|89:108,1,69.6,0|0,0:0|0:0,0:0:0:0:
70,28,157939,1,0,0:0:0:0:
190,250,158120,1,0,0:0:0:0:
159,132,158300,2,0,P|161:111|176:93,1,43.5,0|0,0:0|0:0,0:0:0:0:
243,302,158481,6,0,P|224:316|172:320,1,65.2500024890901,0|0,0:0|0:0,0:0:0:0:
86,339,158662,1,0,0:0:0:0:
308,219,158843,1,0,0:0:0:0:
190,250,159023,2,0,P|169:247|151:232,1,43.5,0|0,0:0|0:0,0:0:0:0:
404,81,159204,6,0,P|414:41|433:18,1,65.2500024890901,0|0,0:0|0:0,0:0:0:0:
413,84,159294,2,0,P|444:57|473:50,1,65.2500024890901,0|0,0:0|0:0,0:0:0:0:
420,91,159385,2,0,P|461:88|488:99,1,65.2500024890901,0|0,0:0|0:0,0:0:0:0:
424,99,159475,2,0,P|458:120|474:146,1,65.2500024890901,0|0,0:0|0:0,0:0:0:0:
426,109,159565,2,0,P|441:147|439:177,1,65.2500024890901,0|0,0:0|0:0,0:0:0:0:
425,118,159656,2,0,P|415:158|396:180,1,65.2500024890901,0|0,0:0|0:0,0:0:0:0:
420,127,159746,2,0,P|388:153|359:160,1,65.2500024890901,0|0,0:0|0:0,0:0:0:0:
412,133,159836,2,0,P|370:135|343:124,1,65.2500024890901,0|0,0:0|0:0,0:0:0:0:
403,136,159927,6,0,P|368:114|352:88,1,65.2500024890901,0|0,0:0|0:0,0:0:0:0:
0,81,160107,2,0,P|32:70|85:71,1,65.2500024890901,0|0,0:0|0:0,0:0:0:0:
250,98,160288,2,0,P|278:115|311:157,1,65.2500024890901,0|0,0:0|0:0,0:0:0:0:
362,317,160469,2,0,P|366:350|354:402,1,65.2500024890901,0|0,0:0|0:0,0:0:0:0:
5,233,160649,2,0,P|79:203|177:267,1,195.75000746727,0|0,0:0|0:0,0:0:0:0:
242,344,161011,1,0,0:0:0:0:
295,378,161101,1,0,0:0:0:0:
358,369,161191,2,0,L|362:310,1,52.1999984069825,0|0,0:0|0:0,0:0:0:0:
509,59,161372,2,0,L|512:0,1,52.1999984069825,0|0,0:0|0:0,0:0:0:0:
149,187,161553,6,0,P|19:126|155:99,1,369.750007052422,0|0,0:0|0:0,0:0:0:0:
146,36,162095,6,0,L|154:109,1,60.8999981414796,0|0,0:0|0:0,0:0:0:0:
80,241,162276,1,0,0:0:0:0:
230,0,162457,2,0,L|238:73,1,60.8999981414796,0|0,0:0|0:0,0:0:0:0:
164,205,162638,1,0,0:0:0:0:
450,144,162818,2,0,L|535:165,1,60.8999981414796,0|0,0:0|0:0,0:0:0:0:
378,197,162999,2,0,L|415:247,1,60.8999981414796,0|0,0:0|0:0,0:0:0:0:
294,239,163180,2,0,L|297:316,1,60.8999981414796,0|0,0:0|0:0,0:0:0:0:
452,116,163360,6,0,L|525:115,1,60.8999981414796,0|0,0:0|0:0,0:0:0:0:
261,248,163541,2,0,L|257:331,1,60.8999981414796,0|0,0:0|0:0,0:0:0:0:
372,63,163722,1,0,0:0:0:0:
325,126,163812,1,0,0:0:0:0:
248,145,163902,2,0,L|144:155,1,60.8999981414796,0|0,0:0|0:0,0:0:0:0:
194,51,164083,2,0,L|90:61,1,60.8999981414796,0|0,0:0|0:0,0:0:0:0:
420,142,164264,1,0,0:0:0:0:
373,205,164354,1,0,0:0:0:0:
296,224,164444,2,0,L|192:234,1,60.8999981414796,0|0,0:0|0:0,0:0:0:0:
23,191,164625,2,0,P|66:150|86:227,1,121.799996282959,0|0,0:0|0:0,0:0:0:0:
75,317,164896,1,0,0:0:0:0:
87,291,164987,6,0,P|125:277|176:297,1,60.8999981414796,0|0,0:0|0:0,0:0:0:0:
266,372,165167,1,0,0:0:0:0:
105,183,165348,2,0,P|143:169|194:189,1,60.8999981414796,0|0,0:0|0:0,0:0:0:0:
284,264,165528,1,0,0:0:0:0:
184,61,165710,2,0,P|185:37|207:2,1,60.8999981414796,0|0,0:0|0:0,0:0:0:0:
301,108,165890,2,0,P|315:89|354:73,1,60.8999981414796,0|0,0:0|0:0,0:0:0:0:
357,225,166071,2,0,P|380:218|420:228,1,60.8999981414796,0|0,0:0|0:0,0:0:0:0:
155,91,166252,6,0,P|131:56|132:25,1,60.8999981414796,0|0,0:0|0:0,0:0:0:0:
361,264,166433,2,0,P|394:283|411:306,1,60.8999981414796,0|0,0:0|0:0,0:0:0:0:
157,189,166613,1,0,0:0:0:0:
228,223,166704,1,0,0:0:0:0:
263,293,166794,1,0,0:0:0:0:
188,319,166884,1,0,0:0:0:0:
108,315,166975,2,0,P|76:300|63:280,1,60.8999981414796,0|0,0:0|0:0,0:0:0:0:
60,81,167155,1,0,0:0:0:0:
131,115,167246,1,0,0:0:0:0:
157,189,167336,2,0,P|147:227|119:250,1,60.8999981414796,0|0,0:0|0:0,0:0:0:0:
403,15,167517,6,0,B|422:-8|494:-14|514:61|475:86|475:86|428:74|393:92|393:92|346:61|285:85,1,339.299984468079,0|0,0:0|0:0,0:0:0:0:
293,0,167878,6,0,P|316:27|325:61,1,60.8999981414796,0|0,0:0|0:0,0:0:0:0:
331,199,168059,1,0,0:0:0:0:
131,115,168240,2,0,P|163:101|198:103,1,60.8999981414796,0|0,0:0|0:0,0:0:0:0:
333,167,168421,1,0,0:0:0:0:
512,310,168601,2,0,P|495:337|468:354,1,60.8999981414796,0|0,0:0|0:0,0:0:0:0:
416,42,168782,2,0,P|436:65|445:94,1,60.8999981414796,0|0,0:0|0:0,0:0:0:0:
507,160,168963,2,0,P|510:191|500:219,1,60.8999981414796,0|0,0:0|0:0,0:0:0:0:
274,1,169144,6,0,P|305:8|329:28,1,60.8999981414796,0|0,0:0|0:0,0:0:0:0:
416,177,169324,2,0,P|418:207|408:235,1,60.8999981414796,0|0,0:0|0:0,0:0:0:0:
171,275,169505,1,0,0:0:0:0:
127,220,169595,1,0,0:0:0:0:
151,154,169685,1,0,0:0:0:0:
220,141,169776,1,0,0:0:0:0:
266,193,169866,2,0,P|260:228|225:263,1,60.8999981414796,0|0,0:0|0:0,0:0:0:0:
68,148,170047,1,0,0:0:0:0:
34,86,170138,1,0,0:0:0:0:
69,26,170228,2,0,P|103:21|147:44,1,60.8999981414796,0|0,0:0|0:0,0:0:0:0:
171,275,170408,2,0,P|84:270|117:231,1,182.699994424439,0|0,0:0|0:0,0:0:0:0:
175,205,170770,6,0,L|169:289,1,69.6,0|0,0:0|0:0,0:0:0:0:
275,177,170951,2,0,L|269:261,1,69.6,0|0,0:0|0:0,0:0:0:0:
100,112,171131,2,0,L|106:196,1,69.6,0|0,0:0|0:0,0:0:0:0:
0,84,171312,2,0,L|6:168,1,69.6,0|0,0:0|0:0,0:0:0:0:
227,62,171493,6,0,L|233:146,1,69.6,0|0,0:0|0:0,0:0:0:0:
363,86,171674,2,0,L|318:157,1,69.6,0|0,0:0|0:0,0:0:0:0:
448,193,171854,2,0,L|369:224,1,69.6,0|0,0:0|0:0,0:0:0:0:
144,165,172035,6,0,L|100:112,1,69.6,0|0,0:0|0:0,0:0:0:0:
378,307,172216,2,0,L|446:324,1,69.6,0|0,0:0|0:0,0:0:0:0:
235,364,172396,1,0,0:0:0:0:
199,305,172486,1,0,0:0:0:0:
215,240,172576,1,0,0:0:0:0:
274,205,172667,1,0,0:0:0:0:
333,170,172758,2,0,P|350:137|349:99,1,69.6,0|0,0:0|0:0,0:0:0:0:
132,309,172939,2,0,P|168:314|204:302,1,69.6,0|0,0:0|0:0,0:0:0:0:
350,105,173119,1,0,0:0:0:0:
314,46,173209,1,0,0:0:0:0:
247,37,173300,6,0,B|208:53|182:89|182:89|130:184|241:212|295:99|179:89|179:89|140:82|84:95,1,391.50001493454,0|0,0:0|0:0,0:0:0:0:
13,103,173661,6,0,P|39:136|91:146,1,60.8999981414796,0|0,0:0|0:0,0:0:0:0:
260,118,173842,1,0,0:0:0:0:
0,22,174023,2,0,P|26:55|78:65,1,60.8999981414796,0|0,0:0|0:0,0:0:0:0:
247,37,174204,1,0,0:0:0:0:
0,206,174384,2,0,P|32:190|44:169,1,60.8999981414796,0|0,0:0|0:0,0:0:0:0:
164,209,174565,2,0,P|166:239|151:265,1,60.8999981414796,0|0,0:0|0:0,0:0:0:0:
308,196,174746,2,0,P|302:160|286:142,1,60.8999981414796,0|0,0:0|0:0,0:0:0:0:
146,37,174927,6,0,P|129:68|132:92,1,60.8999981414796,0|0,0:0|0:0,0:0:0:0:
199,321,175107,2,0,P|200:351|185:376,1,60.8999981414796,0|0,0:0|0:0,0:0:0:0:
79,250,175288,1,0,0:0:0:0:
81,175,175378,1,0,0:0:0:0:
135,125,175469,2,0,P|162:115|205:119,1,60.8999981414796,0|0,0:0|0:0,0:0:0:0:
260,348,175649,2,0,P|233:358|190:354,1,60.8999981414796,0|0,0:0|0:0,0:0:0:0:
272,110,175830,1,0,0:0:0:0:
351,128,175920,1,0,0:0:0:0:
400,184,176010,2,0,P|400:229|379:264,1,60.8999981414796,0|0,0:0|0:0,0:0:0:0:
208,260,176192,2,0,P|207:206|252:271,1,182.699994424439,0|0,0:0|0:0,0:0:0:0:
188,293,176553,6,0,P|133:303|86:288,1,60.8999981414796,0|0,0:0|0:0,0:0:0:0:
128,127,176734,1,0,0:0:0:0:
319,149,176914,2,0,P|311:204|277:252,1,60.8999981414796,0|0,0:0|0:0,0:0:0:0:
160,102,177095,1,0,0:0:0:0:
167,326,177276,2,0,P|112:336|65:321,1,60.8999981414796,0|0,0:0|0:0,0:0:0:0:
322,309,177457,2,0,P|283:349|236:364,1,60.8999981414796,0|0,0:0|0:0,0:0:0:0:
400,133,177637,2,0,P|392:188|363:228,1,60.8999981414796,0|0,0:0|0:0,0:0:0:0:
192,212,177818,6,0,P|169:228|129:237,1,60.8999981414796,0|0,0:0|0:0,0:0:0:0:
287,101,177998,2,0,P|278:130|262:155,1,60.8999981414796,0|0,0:0|0:0,0:0:0:0:
58,112,178180,1,0,0:0:0:0:
117,154,178270,1,0,0:0:0:0:
188,134,178360,1,0,0:0:0:0:
216,66,178451,1,0,0:0:0:0:
180,2,178541,2,0,P|148:35|144:62,1,60.8999981414796,0|0,0:0|0:0,0:0:0:0:
192,212,178722,1,0,0:0:0:0:
251,254,178812,1,0,0:0:0:0:
322,234,178902,2,0,P|343:207|346:175,1,60.8999981414796,0|0,0:0|0:0,0:0:0:0:
38,267,179083,6,0,P|53:369|104:244,1,326.25,0|0,0:0|0:0,0:0:0:0:
91,311,179445,6,0,L|165:326,1,60.8999981414796,0|0,0:0|0:0,0:0:0:0:
333,384,179625,1,0,0:0:0:0:
81,206,179806,2,0,L|155:221,1,60.8999981414796,0|0,0:0|0:0,0:0:0:0:
323,279,179986,1,0,0:0:0:0:
156,83,180167,2,0,L|211:149,1,60.8999981414796,0|0,0:0|0:0,0:0:0:0:
298,29,180348,2,0,L|306:107,1,60.8999981414796,0|0,0:0|0:0,0:0:0:0:
450,56,180529,2,0,L|398:143,1,60.8999981414796,0|0,0:0|0:0,0:0:0:0:
177,224,180710,6,0,L|246:193,1,60.8999981414796,0|0,0:0|0:0,0:0:0:0:
411,187,180890,2,0,L|502:199,1,60.8999981414796,0|0,0:0|0:0,0:0:0:0:
323,279,181071,2,0,L|333:352,1,60.8999981414796,0|0,0:0|0:0,0:0:0:0:
228,108,181252,1,0,0:0:0:0:
304,66,181342,1,0,0:0:0:0:
387,87,181433,2,0,L|478:99,1,60.8999981414796,0|0,0:0|0:0,0:0:0:0:
414,327,181613,1,0,0:0:0:0:
338,369,181703,1,0,0:0:0:0:
255,348,181794,2,0,L|164:336,1,60.8999981414796,0|0,0:0|0:0,0:0:0:0:
288,206,181975,2,0,P|328:168|333:249,1,182.699994424439,0|0,0:0|0:0,0:0:0:0:
414,143,182336,6,0,P|435:192|421:266,1,121.799996282959,0|0,0:0|0:0,0:0:0:0:
432,13,182698,2,0,P|477:40|509:108,1,121.799996282959,0|0,0:0|0:0,0:0:0:0:
512,303,183059,2,0,P|480:314|437:317,1,60.8999981414796,0|0,0:0|0:0,0:0:0:0:
149,66,183240,2,0,P|145:36|150:7,1,60.8999981414796,0|0,0:0|0:0,0:0:0:0:
262,286,183421,2,0,P|236:270|215:248,1,60.8999981414796,0|0,0:0|0:0,0:0:0:0:
453,263,183601,6,0,P|430:270|393:270,1,60.8999981414796,0|0,0:0|0:0,0:0:0:0:
199,97,183782,2,0,P|197:67|205:38,1,60.8999981414796,0|0,0:0|0:0,0:0:0:0:
277,251,183963,2,0,P|252:234|235:210,1,60.8999981414796,0|0,0:0|0:0,0:0:0:0:
400,185,184143,5,0,0:0:0:0:
315,160,184233,1,0,0:0:0:0:
288,77,184324,2,0,P|291:45|306:16,1,60.8999981414796,0|0,0:0|0:0,0:0:0:0:
458,343,184505,2,0,P|484:361|502:389,1,60.8999981414796,0|0,0:0|0:0,0:0:0:0:
92,301,184686,6,0,P|62:314|112:234,1,304.499990707398
106,259,185228,6,0,P|146:247|201:273,1,104.4
164,221,185589,2,0,P|133:192|128:131,1,104.4
104,172,185951,2,0,P|94:212|44:247,1,104.4,0|0,3:0|3:0,3:0:0:0:
8,253,186312,1,0,0:0:0:0:
112,133,186493,1,0,0:0:0:0:
225,258,186674,6,0,P|265:270|305:255,1,69.6
284,166,186945,1,0,0:0:0:0:
260,169,187035,2,0,P|229:197|224:258,1,104.4
224,257,187396,2,0,P|184:245|124:272,1,104.4
110,293,187758,1,0,0:0:0:0:
262,353,187939,1,0,0:0:0:0:
258,341,188029,1,0,0:0:0:0:
251,267,188119,6,0,P|291:267|340:222,1,104.4
342,192,188481,2,0,L|388:304,1,104.4
395,317,188842,2,0,P|431:280|482:276,1,104.4
512,288,189204,1,0,0:0:0:0:
384,348,189384,1,0,0:0:0:0:
443,201,189565,6,0,P|452:161|445:121,1,69.6
446,29,189836,1,0,0:0:0:0:
437,52,189927,2,0,P|410:74|369:81,1,69.6
235,17,190288,2,0,L|247:143,1,104.4
247,149,190649,1,0,0:0:0:0:
327,0,190830,2,0,L|333:63,1,34.8
165,273,191011,6,0,P|143:229|161:163,1,104.4
57,192,191372,2,0,P|92:157|160:154,1,104.4
99,59,191734,2,0,P|142:81|166:145,1,104.4
172,161,192095,1,0,0:0:0:0:
285,95,192276,1,0,0:0:0:0:
380,196,192457,6,0,P|396:152|423:134,1,69.6
387,228,192728,1,0,0:0:0:0:
412,232,192818,2,0,P|446:251|475:313,1,104.4
479,341,193180,1,0,0:0:0:0:
512,184,193360,1,0,0:0:0:0:
381,334,193541,1,0,0:0:0:0:
304,221,193722,1,0,0:0:0:0:
382,111,193902,6,0,P|406:72|403:14,1,104.4
364,93,194264,2,0,P|334:58|278:43,1,104.4
352,121,194625,2,0,P|309:138|277:187,1,104.4
304,221,194987,1,0,0:0:0:0:
173,171,195167,1,0,0:0:0:0:
184,68,195348,6,0,L|178:149,1,69.6
173,171,195619,1,0,0:0:0:0:
138,190,195710,2,0,L|132:271,1,69.6
26,349,196071,2,0,P|47:311|87:294,1,69.6
200,300,196433,2,0,P|229:324|245:362,1,69.6
129,120,196794,6,0,L|142:222,1,69.6
85,89,197155,2,0,L|98:191,1,69.6
298,0,197517,1,0,0:0:0:0:
298,0,198059,5,0,0:0:0:0:
298,0,198511,1,0,0:0:0:0:
320,13,198601,2,0,L|333:115,1,69.6
353,238,198963,1,0,0:0:0:0:
425,40,199143,1,0,0:0:0:0:
353,238,199324,1,0,0:0:0:0:
452,194,199505,1,0,0:0:0:0:
443,288,199686,6,0,L|365:251,1,69.6
448,344,200047,2,0,L|370:307,1,69.6
138,329,200408,1,0,0:0:0:0:
138,329,200951,5,0,0:0:0:0:
138,329,201402,1,0,0:0:0:0:
112,317,201493,2,0,L|105:257,1,34.8
40,146,201674,6,0,P|54:145|37:168,1,34.8
137,51,201854,2,0,P|130:63|119:37,1,34.8
183,179,202035,2,0,P|175:167|203:170,1,34.8
0,136,202216,2,0,P|14:135|-3:158,1,34.8
147,20,202396,2,0,P|140:32|129:6,1,34.8
230,204,202577,6,0,L|248:293,1,69.6
183,179,202939,2,0,L|201:268,1,69.6
0,297,203300,1,0,0:0:0:0:
0,297,203842,5,0,0:0:0:0:
0,297,204294,1,0,0:0:0:0:
17,317,204384,2,0,L|115:332,1,69.6
245,351,204746,1,0,0:0:0:0:
53,211,204927,1,0,0:0:0:0:
267,239,205107,1,0,0:0:0:0:
221,139,205288,1,0,0:0:0:0:
253,159,205378,1,0,0:0:0:0:
276,134,205469,6,0,L|319:44,1,69.6
221,139,205830,2,0,L|264:49,1,69.6
483,40,206192,1,0,0:0:0:0:
483,40,206734,5,0,0:0:0:0:
483,40,207186,1,0,0:0:0:0:
453,42,207276,2,0,L|485:140,1,69.6
256,192,207637,12,0,208360,0:0:0:0:
