osu file format v14

[General]
AudioFilename: audio.mp3
AudioLeadIn: 0
PreviewTime: 47406
Countdown: 0
SampleSet: Soft
StackLeniency: 0.7
Mode: 0
LetterboxInBreaks: 0
WidescreenStoryboard: 1

[Editor]
DistanceSpacing: 0.9
BeatDivisor: 2
GridSize: 32
TimelineZoom: 1.600001

[Metadata]
Title:Maximum Wave (Cut Ver.)
TitleUnicode:Maximum Wave (Cut Ver.)
Artist:Danny Brown
ArtistUnicode:Danny Brown
Creator:niii_san
Version:Normal
Source:Club Penguin
Tags:video game instrumental rock dan wociechowski the ventures walk don't run cart surfer surfing theme song sounddogs disney gibune down nisan
BeatmapID:3569319
BeatmapSetID:1744732

[Difficulty]
HPDrainRate:3
CircleSize:3
OverallDifficulty:5
ApproachRate:5
SliderMultiplier:1.2
SliderTickRate:1

[Events]
//Background and Video events
0,0,"bg.jpg",0,0
//Break Periods
//Storyboard Layer 0 (Background)
//Storyboard Layer 1 (Fail)
//Storyboard Layer 2 (Pass)
//Storyboard Layer 3 (Foreground)
//Storyboard Layer 4 (Overlay)
//Storyboard Sound Samples

[TimingPoints]
264,357.142857142857,4,2,1,40,1,0
1692,357.142857142857,4,2,1,50,1,0

[Colours]
Combo1 : 17,254,176
Combo2 : 173,255,95
Combo3 : 255,88,100
Combo4 : 255,94,55

[HitObjects]
18,122,1692,6,0,B|90:99|134:160,1,120,6|8,1:0|0:0,0:0:0:0:
199,230,2406,1,0,1:0:0:0:
305,211,2763,2,0,L|319:149,1,60,10|2,0:1|0:1,0:0:0:0:
364,122,3121,2,0,L|349:60,1,60,2|2,1:0|0:1,0:0:0:0:
393,30,3478,1,10,0:1:0:0:
393,30,3656,2,0,B|475:35|502:109|461:177,1,180,2|10,0:1|0:1,0:0:0:0:
410,248,4549,6,0,B|353:232|288:228,1,120,6|8,1:0|0:0,0:0:0:0:
192,186,5263,1,0,1:0:0:0:
106,252,5621,2,0,L|35:239,2,60,10|2|2,0:1|0:1|1:1,0:0:0:0:
151,280,6156,2,0,L|160:340,1,60,2|10,0:1|0:1,0:0:0:0:
196,369,6513,2,0,B|264:381|320:327|299:248,1,180,2|10,0:1|0:1,0:0:0:0:
229,180,7406,6,0,L|241:118,1,60,6|0,1:0|0:0,0:0:0:0:
281,85,7763,1,10,0:1:0:0:
200,14,8121,1,2,1:1:0:0:
96,45,8478,1,10,0:1:0:0:
72,151,8835,2,0,L|84:215,1,60,2|2,1:1|0:1,0:0:0:0:
100,261,9192,1,10,0:1:0:0:
100,261,9371,2,2,B|198:219|285:272,1,180,2|10,0:1|0:0,0:1:0:0:
371,310,10263,6,0,L|356:371,2,60,2|2|10,1:1|0:1|0:1,0:0:0:0:
475,280,10978,2,0,B|488:212|452:145,1,120,2|10,1:1|0:1,0:0:0:0:
380,89,11692,2,0,L|304:98,1,60,2|2,1:1|0:1,0:0:0:0:
286,138,12049,1,10,0:1:0:0:
286,138,12228,2,2,B|206:108|107:114,1,180,2|10,0:1|0:0,0:1:0:0:
14,61,13121,6,0,L|-7:123,1,60,6|2,1:1|0:1,0:0:0:0:
11,169,13478,1,10,0:1:0:0:
57,266,13835,1,2,1:1:0:0:
163,252,14192,1,10,0:1:0:0:
182,146,14549,2,0,L|171:80,1,60,2|2,1:1|0:1,0:1:0:0:
209,47,14906,1,10,0:1:0:0:
209,47,15085,2,2,B|259:16|348:35|356:124,1,180,2|10,0:1|0:0,0:1:0:0:
456,136,15978,6,0,B|445:208,1,60,2|2,1:1|0:1,0:0:0:0:
411,236,16335,1,10,0:1:0:0:
347,323,16692,1,2,1:1:0:0:
257,262,17049,1,10,0:1:0:0:
211,359,17406,2,0,L|146:345,1,60,2|2,1:1|0:1,0:1:0:0:
104,372,17763,2,0,L|39:358,1,60,10|0,0:1|0:1,0:1:0:0:
6,320,18121,2,2,B|-20:255|24:199,1,120,2|8,1:1|0:0,0:1:0:0:
117,162,18835,5,4,1:0:0:0:
205,224,19192,2,0,B|276:213,1,60,10|2,0:1|0:1,0:0:0:0:
307,182,19549,2,0,B|366:190,1,60,2|2,1:1|0:1,0:0:0:0:
417,172,19906,2,0,B|425:113,1,60,10|2,0:1|0:1,0:0:0:0:
403,62,20263,1,4,1:0:0:0:
249,9,20799,1,2,0:1:0:0:
249,9,20978,2,0,L|185:0,2,60,2|2|10,1:1|1:1|0:1,0:0:0:0:
314,94,21692,5,2,1:0:0:0:
274,194,22049,1,10,0:1:0:0:
167,209,22406,1,2,1:1:0:0:
100,123,22763,1,10,0:1:0:0:
140,21,23121,1,2,1:0:0:0:
409,147,24549,6,0,B|423:200|415:255|389:287,1,120,6|10,1:0|0:1,0:0:0:0:
303,306,25263,2,0,L|235:296,1,60,2|2,1:0|0:1,0:0:0:0:
206,257,25621,1,10,0:1:0:0:
106,298,25978,2,0,L|97:364,2,60,2|2|10,1:0|0:1|0:1,0:0:0:0:
69,258,26513,2,2,B|14:177|77:84,1,180,2|10,0:1|0:0,0:1:0:0:
159,24,27406,6,0,B|221:28|304:39,1,120,2|10,1:0|0:1,0:0:0:0:
383,62,28121,2,0,L|372:129,1,60,2|2,1:0|0:1,0:0:0:0:
336,161,28478,1,10,0:1:0:0:
231,188,28835,2,0,L|244:255,2,60,2|2|10,1:1|0:1|0:1,0:0:0:0:
191,150,29371,2,2,B|81:168|81:290,1,180,2|10,0:1|0:1,0:1:0:0:
133,366,30263,5,6,1:0:0:0:
215,295,30621,1,8,0:0:0:0:
301,360,30978,1,2,1:0:0:0:
381,288,31335,2,0,L|444:303,1,60,8|2,0:0|0:1,0:0:0:0:
487,278,31692,2,0,B|544:196|488:107,1,180,2|2,1:0|0:1,0:0:0:0:
350,25,32763,5,10,0:1:0:0:
254,76,33121,2,0,B|196:63|108:52,2,120,2|8|2,1:1|0:0|1:0,0:0:0:0:
347,130,34192,2,0,B|328:207,1,60,10|0,0:1|1:0,0:0:0:0:
370,227,34549,2,0,B|339:349,1,120,2|10,1:0|0:1,0:0:0:0:
296,374,35085,2,2,P|240:363|108:348,1,180,2|10,0:1|0:1,0:1:0:0:
37,276,35978,5,6,1:0:0:0:
60,170,36335,1,10,0:1:0:0:
164,137,36692,2,0,L|148:60,2,60,2|2|10,1:0|0:1|0:1,0:0:0:0:
244,210,37406,2,0,L|231:268,2,60,2|2|10,1:0|0:1|0:1,0:0:0:0:
284,174,37942,1,2,0:1:0:0:
284,174,38121,2,0,B|342:163|419:224,1,120,2|10,1:0|0:1,0:0:0:0:
495,163,38835,5,2,1:0:0:0:
486,55,39192,1,10,0:1:0:0:
380,30,39549,2,0,L|322:42,2,60,2|2|10,1:0|0:1|0:1,0:0:0:0:
386,137,40263,2,0,L|444:149,2,60,2|2|10,1:0|0:1|0:1,0:0:0:0:
344,172,40799,1,2,0:1:0:0:
344,172,40978,2,0,B|282:155|183:147,1,120,2|10,1:0|0:1,0:0:0:0:
148,76,41692,5,2,1:0:0:0:
53,127,42049,1,10,0:1:0:0:
72,233,42406,2,0,L|4:248,2,60,2|2|10,1:0|0:1|0:1,0:0:0:0:
178,247,43121,2,0,L|164:319,2,60,2|2|10,1:0|0:1|0:1,0:0:0:0:
206,201,43656,1,2,0:1:0:0:
206,201,43835,2,0,B|268:180|327:229,1,120,2|10,1:0|0:1,0:0:0:0:
415,271,44549,6,0,B|445:219|445:219|426:158,1,120,2|10,1:0|0:1,0:0:0:0:
379,65,45263,2,0,L|440:48,2,60,2|2|10,1:0|0:1|0:1,0:0:0:0:
281,112,45978,2,0,B|223:92|152:83,1,120,2|2,1:0|1:0,0:0:0:0:
70,30,46692,2,0,B|32:87|66:161,1,120,2|10,1:0|0:0,0:0:0:0:
153,197,47406,5,4,1:0:0:0:
65,260,47763,2,0,L|78:320,1,60,10|2,0:1|0:1,0:0:0:0:
128,338,48121,2,0,L|188:325,1,60,2|2,1:1|0:1,0:0:0:0:
235,302,48478,2,0,L|293:314,1,60,10|2,0:1|0:1,0:0:0:0:
326,357,48835,1,4,1:0:0:0:
451,253,49371,1,2,0:1:0:0:
451,253,49549,2,0,L|462:188,2,60,2|2|10,1:1|1:1|0:1,0:0:0:0:
443,360,50263,5,2,1:0:0:0:
336,376,50620,1,10,0:1:0:0:
269,291,50978,1,2,1:0:0:0:
310,190,51334,1,10,0:1:0:0:
417,174,51692,1,2,1:0:0:0:
73,273,53121,6,0,B|47:212|49:152,1,120,6|10,1:0|0:1,0:0:0:0:
106,65,53835,2,0,L|172:75,1,60,2|0,1:0|1:0,0:0:0:0:
209,104,54192,1,10,0:1:0:0:
312,71,54549,2,0,L|303:11,2,60,2|2|10,1:0|0:1|0:1,0:0:0:0:
405,124,55263,2,0,B|423:186|392:248,1,120,2|10,1:0|0:1,0:0:0:0:
443,337,55978,6,0,B|377:342|307:358,1,120,2|10,1:0|0:1,0:0:0:0:
217,340,56692,2,0,L|206:277,1,60,2|0,1:0|1:0,0:0:0:0:
221,228,57049,1,10,0:1:0:0:
315,176,57406,2,0,L|381:189,2,60,2|2|10,1:0|0:1|0:1,0:0:0:0:
222,119,58121,2,0,B|141:112|114:196,2,120,2|2|6,1:0|1:0|1:0,0:0:0:0:
