osu file format v14

[General]
AudioFilename: audio.mp3
AudioLeadIn: 0
PreviewTime: 47406
Countdown: 0
SampleSet: Soft
StackLeniency: 0.7
Mode: 0
LetterboxInBreaks: 0
WidescreenStoryboard: 0

[Editor]
DistanceSpacing: 1.9
BeatDivisor: 4
GridSize: 32
TimelineZoom: 2.9

[Metadata]
Title:Maximum Wave (Cut Ver.)
TitleUnicode:Maximum Wave (Cut Ver.)
Artist:Danny Brown
ArtistUnicode:Danny Brown
Creator:niii_san
Version:Insane
Source:Club Penguin
Tags:video game instrumental rock dan wociechowski the ventures walk don't run cart surfer surfing theme song sounddogs disney gibune down nisan
BeatmapID:3568390
BeatmapSetID:1744732

[Difficulty]
HPDrainRate:5
CircleSize:4
OverallDifficulty:8
ApproachRate:8
SliderMultiplier:1.6
SliderTickRate:1

[Events]
//Background and Video events
0,0,"bg.jpg",0,0
//Break Periods
//Storyboard Layer 0 (Background)
//Storyboard Layer 1 (Fail)
//Storyboard Layer 2 (Pass)
//Storyboard Layer 3 (Foreground)
//Storyboard Layer 4 (Overlay)
//Storyboard Sound Samples

[TimingPoints]
264,357.142857142857,4,2,1,40,1,0
1692,357.142857142857,4,2,1,50,1,0
23121,-100,4,2,1,40,0,0
24549,-100,4,2,1,50,0,0
51692,-100,4,2,1,40,0,0
53121,-100,4,2,1,50,0,0

[Colours]
Combo1 : 17,254,176
Combo2 : 173,255,95
Combo3 : 255,88,100
Combo4 : 255,94,55

[HitObjects]
97,205,264,5,8,3:0:0:0:
124,211,353,1,8,3:0:0:0:
152,212,442,1,8,3:0:0:0:
178,205,531,1,8,3:0:0:0:
201,190,621,2,0,L|210:151,3,40,8|8|8|8,3:0|3:0|3:0|3:0,0:0:0:0:
279,32,978,2,0,L|288:71,3,40,4|4|4|4,3:0|3:0|3:0|3:0,0:0:0:0:
193,62,1335,2,0,L|154:71,3,40,4|4|4|4,3:0|3:0|3:0|3:0,0:0:0:0:
369,120,1692,6,0,B|372:165|347:221,1,80,6|0,1:0|0:0,0:0:0:0:
253,349,2049,2,0,B|237:315|240:270,1,80,8|0,0:0|3:0,0:0:0:0:
268,242,2317,1,0,3:0:0:0:
268,242,2406,1,0,1:0:0:0:
400,271,2585,1,0,1:0:0:0:
280,141,2763,2,0,B|241:154|192:154,1,80,10|2,0:1|0:1,0:0:0:0:
122,112,3121,5,2,1:0:0:0:
39,142,3299,1,2,0:1:0:0:
37,230,3478,1,10,0:1:0:0:
141,313,3656,2,0,B|158:278|158:223,1,80,2|0,0:1|1:0,0:0:0:0:
39,142,4013,1,0,1:0:0:0:
247,220,4192,2,0,B|254:181|240:128,1,80,10|0,0:1|0:0,0:0:0:0:
42,14,4549,6,0,P|85:71|174:77,1,160,6|8,1:0|0:0,0:0:0:0:
348,145,5085,1,0,3:0:0:0:
348,145,5174,1,0,3:0:0:0:
348,145,5263,2,0,B|361:100|357:53,1,80,0|0,1:0|0:0,0:0:0:0:
170,166,5621,5,10,0:1:0:0:
262,22,5799,1,2,0:1:0:0:
297,225,5978,1,2,1:1:0:0:
168,79,6156,1,2,0:1:0:0:
297,225,6335,2,0,L|378:240,1,80,10|2,0:1|0:1,0:0:0:0:
126,331,6692,2,0,L|45:316,1,80,0|0,1:0|1:0,0:0:0:0:
107,228,7049,1,10,0:1:0:0:
224,384,7228,5,0,1:0:0:0:
224,384,7317,1,0,1:0:0:0:
224,384,7406,2,0,B|228:341|246:297,1,80,6|0,1:0|0:0,0:0:0:0:
454,186,7763,2,0,B|468:229|468:258|465:273,1,80,10|0,0:1|0:0,0:0:0:0:
324,350,8121,1,2,1:1:0:0:
230,223,8299,1,2,0:1:0:0:
374,137,8478,2,0,B|364:181|340:217,1,80,10|0,0:1|0:0,0:0:0:0:
159,158,8835,5,2,1:1:0:0:
242,306,9013,1,2,0:1:0:0:
269,142,9192,1,10,0:1:0:0:
78,259,9371,2,2,B|10:205|51:113,1,160,2|0,0:1|0:0,0:1:0:0:
277,35,9906,2,0,B|246:59|200:70,1,80,10|0,0:0|0:0,0:0:0:0:
130,19,10263,5,2,1:1:0:0:
182,165,10442,1,2,0:1:0:0:
269,142,10621,2,0,L|349:159,1,80,10|0,0:1|0:0,0:0:0:0:
444,84,10978,2,0,B|464:131|457:173,1,80,2|2,1:1|0:1,0:0:0:0:
304,310,11335,2,0,B|284:263|291:221,1,80,10|0,0:1|0:0,0:0:0:0:
353,63,11692,5,2,1:1:0:0:
428,239,11871,1,2,0:1:0:0:
269,143,12049,1,10,0:1:0:0:
467,36,12228,2,2,B|476:131|369:161,1,160,2|0,0:1|1:0,0:1:0:0:
183,251,12763,2,0,B|170:208|181:165,1,80,10|0,0:0|0:0,0:0:0:0:
138,54,13121,6,0,B|104:68|55:78,1,80,6|2,1:1|0:1,0:0:0:0:
276,232,13478,2,0,B|312:244|359:256,1,80,10|0,0:1|0:0,0:0:0:0:
246,105,13835,1,2,1:1:0:0:
194,277,14013,1,2,0:1:0:0:
337,159,14192,2,0,B|350:119|344:79,1,80,10|0,0:1|0:0,0:0:0:0:
110,148,14549,6,0,B|104:186|117:226,1,80,2|2,1:1|0:1,0:1:0:0:
272,384,14906,1,10,0:1:0:0:
355,338,15085,2,2,B|319:243|229:276,1,160,2|0,0:1|1:0,0:1:0:0:
25,250,15621,2,0,B|40:330,1,80,10|0,0:0|0:0,0:0:0:0:
232,190,15978,6,0,B|246:111,1,80,2|2,1:1|0:1,0:0:0:0:
78,23,16335,2,0,B|98:66|149:73,1,80,10|0,0:1|0:0,0:0:0:0:
348,42,16692,1,2,1:1:0:0:
424,64,16871,1,2,1:1:0:0:
464,132,17049,1,10,0:1:0:0:
451,211,17228,1,0,1:0:0:0:
401,273,17406,6,0,L|318:262,1,80,2|2,1:1|0:1,0:1:0:0:
59,175,17763,2,0,L|142:164,1,80,10|0,0:1|0:1,0:1:0:0:
308,71,18121,2,0,B|319:113|314:153,1,80,2|0,1:1|0:1,0:1:0:0:
210,345,18478,1,0,1:0:0:0:
210,345,18567,1,0,1:0:0:0:
210,345,18656,1,0,1:0:0:0:
210,345,18746,1,0,1:0:0:0:
210,345,18835,6,0,B|199:303|204:263,1,80,4|0,1:0|0:0,0:0:0:0:
401,173,19192,1,10,0:1:0:0:
337,350,19371,1,2,0:1:0:0:
229,176,19549,1,2,1:1:0:0:
456,278,19728,2,0,B|460:324|441:374,1,80,2|10,0:1|0:1,0:0:0:0:
292,272,20085,1,2,0:1:0:0:
333,112,20263,6,0,B|394:39|478:79,1,160,4|8,1:0|0:0,0:0:0:0:
229,176,20799,1,2,0:1:0:0:
164,110,20978,2,0,L|177:31,1,80,2|2,1:1|1:1,0:0:0:0:
365,197,21335,2,0,L|352:276,1,80,10|2,0:1|0:1,0:0:0:0:
62,182,21692,2,0,L|75:103,1,80,2|0,1:0|0:0,0:0:0:0:
263,269,22049,2,0,L|250:348,1,80,10|0,0:1|0:0,0:0:0:0:
110,174,22406,2,0,L|123:95,1,80,2|0,1:1|1:0,0:0:0:0:
215,277,22763,2,0,L|201:355,1,80,10|0,0:1|1:0,0:0:0:0:
217,174,23121,5,10,3:1:0:0:
244,178,23210,1,8,3:0:0:0:
272,182,23299,1,8,3:0:0:0:
300,186,23388,1,8,3:0:0:0:
328,192,23478,1,8,3:0:0:0:
362,172,23567,1,8,3:0:0:0:
379,137,23656,1,8,3:0:0:0:
373,98,23745,1,8,3:0:0:0:
346,69,23835,2,0,B|319:71|286:80,3,40,4|4|4|4,3:0|3:0|3:0|3:0,0:0:0:0:
440,21,24192,2,0,B|467:23|500:32,3,40,4|4|4|4,3:0|3:0|3:0|3:0,0:0:0:0:
338,151,24549,6,0,B|346:195|374:229,1,80,6|2,1:0|0:1,0:0:0:0:
483,347,24906,2,0,B|495:305|497:267,1,80,10|0,0:1|0:0,0:0:0:0:
312,281,25263,1,2,1:0:0:0:
378,326,25442,1,2,0:1:0:0:
510,174,25621,2,0,B|465:170|429:157,1,80,10|0,0:1|0:0,0:0:0:0:
271,89,25978,5,2,1:0:0:0:
359,203,26156,1,2,0:1:0:0:
395,85,26335,1,10,0:1:0:0:
253,220,26513,2,2,B|189:202|93:189,1,160,2|0,0:1|1:0,0:1:0:0:
361,313,27049,2,0,B|376:273|373:230,1,80,10|0,0:0|0:0,0:0:0:0:
181,32,27406,6,0,B|166:72|169:115,1,80,2|2,1:0|0:1,0:0:0:0:
323,168,27763,1,10,0:1:0:0:
96,189,27942,1,0,0:0:0:0:
276,98,28121,1,2,1:0:0:0:
274,276,28299,1,2,0:1:0:0:
151,109,28478,2,0,L|70:95,1,80,10|0,0:1|0:0,0:0:0:0:
274,276,28835,6,0,L|352:289,1,80,2|2,1:1|0:1,0:0:0:0:
323,168,29192,1,10,0:1:0:0:
132,234,29371,2,2,B|78:313|131:392,1,160,2|0,0:1|1:0,0:1:0:0:
405,210,29906,2,0,B|415:164|408:125,1,80,10|0,0:1|0:0,0:0:0:0:
310,32,30263,5,6,1:0:0:0:
502,125,30442,1,0,3:1:0:0:
499,104,30531,1,0,3:0:0:0:
496,84,30621,1,8,0:0:0:0:
411,16,30799,1,2,0:1:0:0:
203,130,30978,2,0,B|247:137|310:157,1,80,2|0,1:0|3:0,0:0:0:0:
324,146,31246,1,0,3:0:0:0:
324,146,31335,1,8,0:0:0:0:
411,16,31513,5,2,0:1:0:0:
496,222,31692,2,0,B|452:229|389:249,1,80,2|0,1:0|3:0,0:0:0:0:
375,238,31960,1,0,3:0:0:0:
375,238,32049,1,10,0:1:0:0:
260,381,32228,2,2,B|256:301|218:217,1,160,2|0,0:1|0:0,0:1:0:0:
327,88,32763,2,0,B|326:133|300:167,1,80,10|0,0:1|0:0,0:0:0:0:
75,303,33121,6,0,B|51:272|50:227,1,80,2|0,1:1|3:0,0:0:0:0:
63,190,33388,1,0,3:0:0:0:
63,190,33478,1,8,0:0:0:0:
168,124,33656,1,2,0:1:0:0:
283,280,33835,2,0,B|324:273|366:271,1,80,2|0,1:0|0:0,0:0:0:0:
439,247,34192,1,10,0:1:0:0:
458,169,34371,1,0,1:0:0:0:
409,105,34549,6,0,B|364:96|330:84,1,80,2|0,1:0|0:0,0:0:0:0:
171,19,34906,1,10,0:1:0:0:
101,70,35085,2,2,B|51:146|103:243,1,160,2|0,0:1|1:0,0:1:0:0:
272,369,35621,2,0,B|284:326|272:288,1,80,10|0,0:1|0:0,0:0:0:0:
164,145,35978,5,6,1:0:0:0:
191,332,36156,1,2,0:1:0:0:
331,222,36335,1,10,0:1:0:0:
119,236,36513,1,0,0:0:0:0:
303,122,36692,6,0,B|360:137|410:144,1,80,2|2,1:0|0:1,0:0:0:0:
191,332,37049,2,0,B|134:347|84:354,1,80,10|0,0:1|0:0,0:0:0:0:
200,89,37406,2,0,B|207:174,1,80,2|2,1:0|0:1,0:0:0:0:
441,199,37763,1,10,0:1:0:0:
479,128,37942,1,2,0:1:0:0:
426,67,38121,2,0,B|352:56|323:124,1,120,2|0,1:0|0:0,0:0:0:0:
300,146,38478,2,0,B|307:231,1,80,10|0,0:1|0:0,0:0:0:0:
128,262,38835,5,2,1:0:0:0:
340,300,39013,1,2,0:1:0:0:
207,185,39192,1,10,0:1:0:0:
151,365,39371,1,0,0:0:0:0:
340,300,39549,6,0,B|437:317,1,80,2|2,1:0|0:1,0:0:0:0:
128,262,39906,2,0,B|114:218|126:173,1,80,10|0,0:1|0:0,0:0:0:0:
328,83,40263,2,0,B|342:127|330:172,1,80,2|2,1:0|0:1,0:0:0:0:
246,267,40621,1,10,0:1:0:0:
401,215,40799,1,2,0:1:0:0:
154,34,40978,2,0,B|179:100|263:95,1,120,2|0,1:0|0:0,0:0:0:0:
287,88,41335,2,0,B|304:-9,1,80,10|0,0:1|0:0,0:0:0:0:
73,86,41692,5,2,1:0:0:0:
189,142,41871,1,2,0:1:0:0:
134,253,42049,1,10,0:1:0:0:
19,200,42228,1,0,0:0:0:0:
261,199,42406,6,0,B|264:241|248:287,1,80,2|2,1:0|0:1,0:0:0:0:
72,378,42763,2,0,B|57:336|59:292,1,80,10|0,0:1|0:0,0:0:0:0:
339,298,43121,2,0,B|334:339|310:382,1,80,2|2,1:0|0:1,0:0:0:0:
175,168,43478,1,10,0:1:0:0:
215,99,43656,1,2,0:1:0:0:
295,101,43835,2,0,B|370:108|418:132,1,120,2|0,1:0|0:0,0:0:0:0:
435,160,44192,2,0,B|421:238,1,80,10|0,0:1|0:0,0:0:0:0:
380,33,44549,5,2,1:0:0:0:
340,193,44728,1,2,0:1:0:0:
509,105,44906,1,10,0:1:0:0:
295,101,45085,1,0,0:0:0:0:
472,259,45263,2,0,B|474:211|452:171,1,80,2|2,1:0|0:1,0:0:0:0:
207,138,45621,2,0,B|190:167|192:215,1,80,10|0,0:1|0:0,0:0:0:0:
245,284,45978,5,2,1:0:0:0:
342,220,46156,2,0,L|389:232,2,40,2|0|2,1:0|1:0|1:0,0:0:0:0:
145,281,46513,2,0,L|98:293,2,40,2|0|2,1:0|1:0|1:0,0:0:0:0:
314,142,46871,1,2,1:0:0:0:
311,110,46960,1,0,1:0:0:0:
302,78,47049,1,2,1:0:0:0:
285,51,47138,1,0,1:0:0:0:
260,33,47228,1,0,1:0:0:0:
229,25,47317,1,0,1:0:0:0:
197,26,47406,6,0,B|84:48,1,80,4|0,1:0|0:0,0:0:0:0:
2,127,47763,1,10,0:1:0:0:
174,165,47942,1,2,0:1:0:0:
48,2,48121,1,2,1:1:0:0:
19,207,48299,2,0,B|97:222,1,80,2|10,0:1|0:1,0:0:0:0:
246,104,48656,1,2,0:1:0:0:
323,148,48835,6,0,B|352:232|293:308,1,160,4|8,1:0|0:0,0:0:0:0:
183,362,49371,1,2,0:1:0:0:
233,232,49549,1,2,1:1:0:0:
346,368,49728,1,2,1:1:0:0:
134,293,49906,2,0,L|129:214,1,80,10|2,0:1|0:1,0:0:0:0:
439,70,50263,6,0,L|444:149,1,80,2|0,1:0|0:0,0:0:0:0:
195,151,50621,2,0,L|190:72,1,80,10|0,0:1|0:0,0:0:0:0:
378,212,50978,2,0,L|383:291,1,80,2|0,1:1|1:0,0:0:0:0:
134,293,51335,2,0,L|129:214,1,80,10|0,0:1|1:0,0:0:0:0:
289,189,51692,5,10,3:1:0:0:
303,169,51781,1,8,3:0:0:0:
321,152,51870,1,8,3:0:0:0:
342,139,51959,1,8,3:0:0:0:
365,132,52049,1,8,3:0:0:0:
390,132,52138,1,8,3:0:0:0:
414,137,52227,1,8,3:0:0:0:
437,145,52317,1,8,3:0:0:0:
459,157,52406,2,0,B|457:186|451:211,3,40,4|4|4|4,3:0|3:0|3:0|3:0,0:0:0:0:
330,55,52763,2,0,B|328:26|322:1,3,40,4|4|4|4,3:0|3:0|3:0|3:0,0:0:0:0:
220,137,53121,6,0,B|179:131|127:123,1,80,6|2,1:0|0:1,0:0:0:0:
8,202,53478,1,10,0:1:0:0:
130,302,53656,1,0,3:0:0:0:
130,302,53745,1,0,3:0:0:0:
130,302,53835,2,0,B|148:259|148:210,1,80,2|0,1:0|1:0,0:0:0:0:
0,41,54192,2,0,B|6:80|41:108,1,80,10|0,0:1|0:0,0:0:0:0:
240,225,54549,5,2,1:0:0:0:
188,46,54728,1,2,0:1:0:0:
97,162,54906,1,10,0:1:0:0:
309,129,55085,1,0,0:0:0:0:
370,188,55263,2,0,B|378:265|346:318,1,120,2|0,1:0|0:0,0:0:0:0:
326,324,55621,2,0,L|228:312,1,80,10|0,0:1|0:0,0:0:0:0:
309,129,55978,5,2,1:0:0:0:
430,248,56156,1,2,0:1:0:0:
176,242,56335,2,0,B|167:191|178:154,1,80,10|0,0:1|3:0,0:0:0:0:
201,132,56603,1,0,3:0:0:0:
201,132,56692,1,2,1:0:0:0:
355,15,56871,1,0,1:0:0:0:
415,72,57049,2,0,B|419:123|404:158,1,80,10|0,0:1|0:0,0:0:0:0:
293,242,57406,5,2,1:0:0:0:
406,296,57585,1,2,0:1:0:0:
479,193,57763,1,10,0:1:0:0:
325,102,57942,5,0,1:0:0:0:
293,98,58031,1,0,1:0:0:0:
261,101,58120,1,2,1:0:0:0:
232,115,58209,1,0,1:0:0:0:
211,138,58299,1,0,1:0:0:0:
197,167,58388,1,0,1:0:0:0:
189,198,58478,2,0,L|180:249,1,40,2|0,1:0|1:0,0:0:0:0:
316,364,58656,2,0,L|326:313,1,40,0|0,1:0|1:0,0:0:0:0:
111,345,58835,5,6,1:0:0:0:
